osu file format v14

[General]
AudioFilename: audio.mp3
AudioLeadIn: 0
PreviewTime: 125302
Countdown: 0
SampleSet: Normal
StackLeniency: 0.4
Mode: 0
LetterboxInBreaks: 0
WidescreenStoryboard: 0

[Editor]
DistanceSpacing: 0.2
BeatDivisor: 4
GridSize: 32
TimelineZoom: 1

[Metadata]
Title:gogobebe
TitleUnicode:고고베베
Artist:MAMAMOO
ArtistUnicode:마마무
Creator:Sakura Blossom
Version:Token of gratitude for Queen Ameyy from her loyal slave
Source:ent. RBW; Victor; MAMAMOO
Tags:Ameyy, Darling, Inspiration, Gift, Sakura Blossom, Sakura Style, Queen, MAMAMOO, gogobebe
BeatmapID:2009642
BeatmapSetID:959858

[Difficulty]
HPDrainRate:5
CircleSize:4
OverallDifficulty:9
ApproachRate:9.4
SliderMultiplier:1.4
SliderTickRate:1

[Events]
//Background and Video events
0,0,"wp2165339.jpg",0,0
//Break Periods
2,173671,194394
//Storyboard Layer 0 (Background)
//Storyboard Layer 1 (Fail)
//Storyboard Layer 2 (Pass)
//Storyboard Layer 3 (Foreground)
//Storyboard Sound Samples

[TimingPoints]
4065,309.278350515464,4,1,0,40,1,0
4993,-50,4,1,0,40,0,0
5302,-333.333333333333,4,1,0,40,0,0
15199,-142.857142857143,4,1,0,40,0,0
25095,-111.111111111111,4,1,0,40,0,0
31900,-333.333333333332,4,1,0,40,0,0
32518,-66.6666666666667,4,1,0,40,0,0
33755,-111.111111111111,4,1,0,40,0,0
38394,-499.999999999997,4,1,0,40,0,0
39013,-111.111111111111,4,1,0,40,0,0
43343,-499.999999999997,4,1,0,40,0,0
43961,-111.111111111111,4,1,0,40,0,0
44580,-66.6666666666667,4,1,0,40,0,0
44889,-111.111111111111,4,1,0,40,0,0
52312,-499.999999999997,4,1,0,40,0,0
53240,-249.999999999999,4,1,0,40,0,0
53858,-66.6666666666667,4,1,0,65,0,0
57879,-142.857142857143,4,1,0,65,0,0
58188,-111.111111111111,4,1,0,65,0,0
58497,-90.9090909090909,4,1,0,65,0,0
58807,-66.6666666666667,4,1,0,65,0,0
62827,-142.857142857143,4,1,0,65,0,0
63136,-111.111111111111,4,1,0,65,0,0
63445,-90.9090909090909,4,1,0,65,0,0
63755,-66.6666666666667,4,1,0,65,0,0
74735,-43.4782608695652,4,1,0,40,0,0
75353,-66.6666666666667,4,1,0,40,0,0
76590,-43.4782608695652,4,1,0,40,0,0
77209,-83.3333333333333,4,1,0,40,0,0
78291,-499.999999999997,4,1,0,40,0,0
78601,-66.6666666666667,4,1,0,40,0,0
79683,-43.4782608695652,4,1,0,40,0,0
80301,-66.6666666666667,4,1,0,40,0,0
81538,-43.4782608695652,4,1,0,40,0,0
82157,-83.3333333333333,4,1,0,40,0,0
83239,-499.999999999997,4,1,0,40,0,0
84322,-66.6666666666667,4,1,0,40,0,0
85714,-111.111111111111,4,1,0,40,0,0
104271,-499.999999999997,4,1,0,40,0,0
105199,-249.999999999999,4,1,0,40,0,0
105817,-66.6666666666667,4,1,0,65,0,0
109838,-142.857142857143,4,1,0,65,0,0
110147,-111.111111111111,4,1,0,65,0,0
110456,-90.9090909090909,4,1,0,65,0,0
110766,-66.6666666666667,4,1,0,65,0,0
114786,-142.857142857143,4,1,0,65,0,0
115095,-111.111111111111,4,1,0,65,0,0
115404,-90.9090909090909,4,1,0,65,0,0
115714,-66.6666666666667,4,1,0,65,0,0
126694,-43.4782608695652,4,1,0,40,0,0
127312,-66.6666666666667,4,1,0,40,0,0
128549,-43.4782608695652,4,1,0,40,0,0
129168,-83.3333333333333,4,1,0,40,0,0
130250,-499.999999999997,4,1,0,40,0,0
130559,-66.6666666666667,4,1,0,40,0,0
131642,-43.4782608695652,4,1,0,40,0,0
132260,-66.6666666666667,4,1,0,40,0,0
133497,-43.4782608695652,4,1,0,40,0,0
134116,-83.3333333333333,4,1,0,40,0,0
135198,-499.999999999997,4,1,0,40,0,0
136745,-66.6666666666667,4,1,0,40,0,0
137363,-499.999999999997,4,1,0,40,0,0
141693,-66.6666666666667,4,1,0,40,0,0
142312,-499.999999999997,4,1,0,40,0,0
146642,-66.6666666666667,4,1,0,40,0,0
147260,-499.999999999997,4,1,0,40,0,0
151590,-66.6666666666667,4,1,0,40,0,0
152208,-499.999999999997,4,1,0,40,0,0
156539,-66.6666666666667,4,1,0,40,0,0
157157,-499.999999999997,4,1,0,40,0,0
161487,-66.6666666666667,4,1,0,40,0,0
162105,-499.999999999997,4,1,0,40,0,0
165972,-111.111111111111,4,1,0,40,0,0
194934,309.278350515464,4,1,0,40,1,0
196480,-66.6666666666667,4,1,0,40,0,0
200501,-142.857142857143,4,1,0,40,0,0
200810,-111.111111111111,4,1,0,40,0,0
201119,-90.9090909090909,4,1,0,40,0,0
201429,-66.6666666666667,4,1,0,40,0,0
205449,-142.857142857143,4,1,0,40,0,0
205758,-111.111111111111,4,1,0,40,0,0
206067,-90.9090909090909,4,1,0,40,0,0
206377,-66.6666666666667,4,1,0,40,0,0
217356,-43.4782608695652,4,1,0,40,0,0
217974,-66.6666666666667,4,1,0,40,0,0
219211,-43.4782608695652,4,1,0,40,0,0
219830,-83.3333333333333,4,1,0,40,0,0
220912,-499.999999999997,4,1,0,40,0,0
221222,-66.6666666666667,4,1,0,40,0,0
222304,-43.4782608695652,4,1,0,40,0,0
222922,-66.6666666666667,4,1,0,40,0,0
224159,-43.4782608695652,4,1,0,40,0,0
224778,-83.3333333333333,4,1,0,40,0,0
225860,-499.999999999997,4,1,0,40,0,0
227391,315.789473684211,4,1,0,40,1,0
227391,-499.999999999997,4,1,0,40,0,0
237180,-499.999999999997,4,1,0,5,0,0

[HitObjects]
133,76,4993,6,0,B|143:48|143:48|149:44|149:44|166:0,1,70
0,125,5302,5,0,0:0:0:0:
12,119,5457,2,0,L|58:123,1,41.9999987182618
127,158,5921,1,0,0:0:0:0:
139,164,6076,2,0,L|185:160,1,41.9999987182618
248,79,6539,5,0,0:0:0:0:
260,73,6694,2,0,L|306:77,1,41.9999987182618
375,112,7158,1,0,0:0:0:0:
387,118,7313,2,0,L|433:114,1,41.9999987182618
512,39,7776,5,0,0:0:0:0:
500,45,7931,2,0,L|454:41,1,41.9999987182618
385,6,8395,1,0,0:0:0:0:
373,0,8550,2,0,L|327:4,1,41.9999987182618
213,18,9014,5,0,0:0:0:0:
222,22,9477,1,0,0:0:0:0:
104,53,9632,2,0,L|153:59,1,41.9999987182618
0,125,10250,5,0,0:0:0:0:
12,119,10405,2,0,L|58:123,1,41.9999987182618
127,158,10869,1,0,0:0:0:0:
139,164,11024,2,0,L|185:160,1,41.9999987182618
248,79,11487,5,0,0:0:0:0:
260,73,11642,2,0,L|306:77,1,41.9999987182618
375,112,12106,1,0,0:0:0:0:
387,118,12261,2,0,L|433:114,1,41.9999987182618
512,39,12724,5,0,0:0:0:0:
500,45,12879,2,0,L|454:41,1,41.9999987182618
385,6,13343,1,0,0:0:0:0:
373,0,13498,2,0,L|327:4,1,41.9999987182618
213,18,13961,5,0,0:0:0:0:
222,22,14424,1,0,0:0:0:0:
104,53,14579,2,0,L|153:59,1,41.9999987182618
0,202,15199,6,0,P|57:197|85:180,1,65.3333313395183
71,201,15508,2,0,L|85:132,1,65.3333313395183
149,202,15817,2,0,B|155:236|155:236|163:247|163:247|176:318,1,97.9999970092775
171,296,16436,6,0,P|131:286|99:288,1,65.3333313395183
44,372,16745,2,0,P|84:362|116:364,1,65.3333313395183
195,320,17054,2,0,L|205:232,1,65.3333313395183
281,301,17363,2,0,L|277:281,2,16.3333328348796
446,358,17673,6,0,P|482:348|526:352,1,65.3333313395183
451,328,17982,2,0,P|474:336|499:340,1,48.9999985046387
480,164,18291,2,0,L|493:280,1,97.9999970092774
490,261,19219,5,0,0:0:0:0:
512,84,19374,1,0,0:0:0:0:
405,240,19528,2,0,P|410:284|452:332,1,97.9999970092774
441,325,20147,6,0,P|403:308|377:305,1,65.3333313395183
291,258,20456,2,0,L|305:338,1,65.3333313395183
174,357,20766,2,0,P|126:361|83:384,1,97.9999970092774
302,322,21384,6,0,P|253:306|221:307,1,65.3333313395183
144,251,21693,2,0,P|183:245|219:228,1,65.3333313395183
84,384,22003,2,0,L|90:308,1,65.3333313395183
83,307,22312,1,0,0:0:0:0:
0,168,22621,6,0,P|30:178|76:180,1,65.3333313395183
38,36,22930,2,0,L|51:111,1,65.3333313395183
0,206,23240,2,0,P|45:182|102:180,1,97.9999970092774
91,178,24168,6,0,L|87:158,2,16.3333328348796
100,184,24322,1,0,0:0:0:0:
178,238,24477,6,0,L|174:258,2,16.3333328348796
211,119,24786,2,0,P|173:138|151:139,1,48.9999985046387
31,28,25095,6,0,P|77:56|171:59,1,125.999996154785
323,14,25559,2,0,P|350:6|372:2,1,31.4999990386963
364,4,25869,1,0,0:0:0:0:
133,143,26023,2,0,P|167:152|195:171,1,62.9999980773926
63,258,26333,6,0,L|50:385,1,125.999996154785
314,276,26796,2,0,B|283:263|266:232|266:232|227:237|198:278,1,125.999996154785
53,178,27260,2,0,P|14:193|-8:218,1,62.9999980773926
213,0,27570,6,0,P|230:88|260:145,1,125.999996154785
512,82,28034,2,0,B|464:88|464:88|457:93|457:93|378:105,1,125.999996154785
140,72,28497,2,0,P|96:58|85:58,1,31.4999990386963
110,60,29116,6,0,P|131:95|140:140,1,62.9999980773926
0,301,29425,2,0,P|30:249|39:195,1,94.499997116089
33,208,29735,2,0,P|66:177|106:163,1,62.9999980773926
276,365,30044,6,0,L|150:345,1,125.999996154785
358,343,30508,1,0,0:0:0:0:
339,258,30662,2,0,P|287:266|263:285,2,62.9999980773926
339,258,31126,1,0,0:0:0:0:
501,124,31281,6,0,P|480:48|484:-10,1,125.999996154785
362,183,31745,1,0,0:0:0:0:
406,121,31900,6,0,P|367:106|337:105,1,62.9999980773926
247,52,32441,1,0,0:0:0:0:
247,52,32518,6,0,P|280:46|312:20,1,52.5000020027161
151,146,32982,2,0,P|172:171|211:186,1,52.5000020027161
11,309,33446,2,0,P|0:340|6:381,1,52.5000020027161
121,33,33755,6,0,L|5:20,1,94.499997116089
7,104,34065,2,0,P|28:42|11:17,1,83.9999974365235
136,125,34374,2,0,P|153:172|153:241,1,94.499997116089
155,225,34683,2,0,L|240:238,1,62.9999980773926
113,384,34992,5,0,0:0:0:0:
0,329,35147,2,0,P|83:303|145:302,1,125.999996154785
378,372,35534,1,0,0:0:0:0:
370,375,35611,2,0,P|325:373|274:339,1,94.499997116089
275,341,35920,2,0,P|226:349|204:364,1,62.9999980773926
441,317,36229,6,0,L|426:229,1,83.9999974365235
512,296,36539,2,0,P|459:311|432:341,1,83.9999974365235
351,289,36796,1,0,0:0:0:0:
345,282,36848,2,0,P|346:207|362:181,1,83.9999974365235
241,167,37157,2,0,P|293:139|315:139,1,62.9999980773926
496,134,37467,6,0,P|423:122|395:103,1,83.9999974365235
366,56,37776,2,0,L|354:7,2,41.9999987182618
257,56,38085,2,0,P|194:71|153:100,1,83.9999974365235
112,30,38394,6,0,L|117:-1,1,28
116,2,39013,6,0,P|64:29|38:32,1,62.9999980773926
10,114,39245,1,0,0:0:0:0:
3,107,39322,2,0,P|44:114|89:147,1,94.499997116089
83,154,39632,2,0,L|103:225,1,62.9999980773926
72,384,39941,6,0,B|55:330|98:291|98:291|136:292|165:260,1,157.499995193482
158,265,40405,1,0,0:0:0:0:
165,255,40482,1,0,0:0:0:0:
172,244,40559,2,0,L|158:336,1,83.9999974365235
253,378,40869,2,0,P|240:332|238:302,1,62.9999980773926
504,273,41178,6,0,P|448:253|419:251,1,83.9999974365235
391,180,41487,2,0,L|409:275,1,83.9999974365235
356,364,41745,1,0,0:0:0:0:
360,357,41796,2,0,P|396:340|445:336,1,83.9999974365235
318,240,42106,2,0,P|287:278|308:335,1,83.9999974365235
154,296,42415,6,0,L|43:283,1,83.9999974365235
4,299,42724,2,0,P|63:301|101:337,1,83.9999974365235
193,373,42982,1,0,0:0:0:0:
201,374,43034,2,0,P|248:366|284:339,1,83.9999974365235
220,264,43343,6,0,L|214:294,1,28
214,291,43961,6,0,P|191:239|163:219,1,62.9999980773926
116,182,44193,1,0,0:0:0:0:
128,185,44271,2,0,P|183:183|227:165,1,94.499997116089
223,159,44580,6,0,L|243:47,1,105.000004005432
512,169,44889,6,0,P|446:169|349:122,1,157.499995193482
351,127,45353,1,0,0:0:0:0:
338,123,45430,1,0,0:0:0:0:
325,123,45508,2,0,P|261:138|245:153,1,62.9999980773926
510,63,45817,2,0,P|455:50|409:16,1,94.499997116089
417,21,46126,6,0,L|449:145,1,125.999996154785
303,317,46590,1,0,0:0:0:0:
303,317,46668,1,0,0:0:0:0:
303,317,46745,2,0,P|296:356|280:388,1,62.9999980773926
201,375,47054,1,0,0:0:0:0:
161,238,47209,1,0,0:0:0:0:
0,289,47363,6,0,P|46:292|137:322,1,125.999996154785
248,177,47827,1,0,0:0:0:0:
248,177,47905,1,0,0:0:0:0:
248,177,47982,2,0,P|186:196|162:197,1,62.9999980773926
111,186,48291,1,0,0:0:0:0:
111,186,48755,5,0,0:0:0:0:
8,40,48910,2,0,P|32:75|41:111,1,62.9999980773926
42,106,49142,1,0,0:0:0:0:
43,118,49219,6,0,L|38:144,2,15.7499995193482
168,37,49528,2,0,L|163:11,2,15.7499995193482
321,177,49838,6,0,P|376:179|480:134,1,157.499995193482
479,133,50302,1,0,0:0:0:0:
485,122,50379,1,0,0:0:0:0:
489,110,50456,2,0,P|432:97|392:60,1,94.499997116089
399,68,50766,2,0,P|357:88|345:107,1,62.9999980773926
317,287,51075,6,0,P|299:331|398:330,1,188.999994232178
369,225,51616,1,0,0:0:0:0:
360,218,51693,2,0,P|331:206|300:204,1,62.9999980773926
25,370,52003,2,0,P|54:358|86:356,1,62.9999980773926
143,197,52312,6,0,L|149:227,1,28
78,250,52776,2,0,L|73:223,1,28
3,249,53240,2,0,L|9:279,1,28
3,249,53858,6,0,B|7:205|7:205|17:190|17:190|28:101,1,105.000004005432
27,129,54090,1,0,0:0:0:0:
27,129,54168,2,0,B|38:194|38:194|33:216|33:216|50:320,1,157.500006008148
117,384,54477,6,0,L|128:315,1,52.5000020027161
142,198,54632,2,0,L|133:146,1,52.5000020027161
151,35,54786,6,0,P|57:20|-28:-40,1,140.000005340576
210,105,55095,2,0,B|222:159|222:159|231:169|231:169|226:278,1,140.000005340576
305,128,55353,1,0,0:0:0:0:
311,125,55405,2,0,P|351:131|380:143,1,52.5000020027161
49,307,55714,2,0,L|56:366,3,52.5000020027161
138,338,56023,6,0,P|216:313|313:314,1,157.500006008148
364,238,56333,2,0,P|272:209|242:179,1,105.000004005432
512,211,56642,2,0,L|488:27,1,157.500006008148
454,280,56951,2,0,L|440:399,1,105.000004005432
241,124,57260,6,0,P|310:132|398:68,1,157.500006008148
503,42,57570,2,0,P|416:7|385:18,1,105.000004005432
158,137,57879,6,0,L|148:210,1,73.4999977569581
128,216,58188,6,0,L|140:122,1,94.499997116089
124,107,58497,6,0,L|109:222,1,115.50000352478
64,382,58807,6,0,B|57:344|57:344|48:333|48:333|35:265,1,105.000004005432
53,49,59039,1,0,0:0:0:0:
53,49,59116,2,0,P|127:59|204:-17,1,157.500006008148
0,139,59425,2,0,P|88:177|102:200,1,105.000004005432
247,366,59735,5,0,0:0:0:0:
269,276,59889,1,0,0:0:0:0:
463,115,60044,1,0,0:0:0:0:
485,205,60198,1,0,0:0:0:0:
175,43,60353,2,0,L|244:34,1,52.5000020027161
376,172,60662,2,0,P|301:167|258:122,1,105.000004005432
488,98,60972,6,0,P|505:175|456:262,1,157.500006008148
416,365,61281,2,0,P|476:335|537:346,1,105.000004005432
253,262,61591,1,0,0:0:0:0:
272,369,61745,1,0,0:0:0:0:
0,279,61900,2,0,L|52:285,3,52.5000020027161
108,228,62209,6,0,B|166:224|166:224|175:233|175:233|266:244,1,140.000005340576
379,262,62518,2,0,B|356:293|317:293|317:293|276:322|290:382,1,140.000005340576
251,158,62775,1,0,0:0:0:0:
243,158,62827,6,0,P|209:142|182:117,1,73.4999977569581
327,0,63137,6,0,L|343:102,1,94.499997116089
406,301,63446,6,0,B|415:252|415:252|424:243|424:243|438:175,1,115.50000352478
490,320,63755,6,0,L|505:391,1,52.5000020027161
282,279,63910,2,0,L|271:227,1,52.5000020027161
159,318,64065,2,0,P|106:365|11:345,1,157.500006008148
77,280,64374,1,0,0:0:0:0:
77,280,64528,1,0,0:0:0:0:
373,310,64683,6,0,B|231:287|231:287|215:255|168:239,1,210.000008010865
454,77,65147,2,0,B|501:72|525:28|525:28|495:154,1,210.000008010865
123,180,65611,2,0,L|263:161,1,105.000004005432
457,259,65920,5,0,0:0:0:0:
314,87,66075,1,0,0:0:0:0:
295,0,66229,1,0,0:0:0:0:
200,255,66384,1,0,0:0:0:0:
0,66,66539,2,0,B|51:62|51:62|63:71|63:71|158:63,1,157.500006008148
231,92,66848,1,0,0:0:0:0:
231,92,67003,1,0,0:0:0:0:
506,71,67157,6,0,B|494:13|422:-23|362:-6|362:-6|354:47,1,210.000008010865
283,349,67621,1,0,0:0:0:0:
105,308,67776,2,0,L|216:292,1,105.000004005432
69,126,68085,2,0,P|49:82|148:100,1,210.000008010865
266,15,68549,5,0,0:0:0:0:
493,231,68704,1,0,0:0:0:0:
405,206,68858,1,0,0:0:0:0:
212,363,69013,2,0,P|219:302|142:225,1,157.500006008148
78,214,69322,1,0,0:0:0:0:
78,214,69477,1,0,0:0:0:0:
135,139,69632,6,0,P|58:167|-16:166,1,140.000005340576
164,227,69941,2,0,B|154:270|154:270|144:283|144:283|145:376,1,140.000005340576
272,329,70199,1,0,0:0:0:0:
272,329,70250,2,0,P|248:319|223:312,1,52.5000020027161
512,218,70559,1,0,0:0:0:0:
499,222,70636,1,0,0:0:0:0:
487,226,70713,1,0,0:0:0:0:
474,228,70790,1,0,0:0:0:0:
461,229,70869,6,0,P|424:287|416:352,1,105.000004005432
325,120,71178,1,0,0:0:0:0:
306,30,71333,1,0,0:0:0:0:
99,267,71487,1,0,0:0:0:0:
118,177,71642,1,0,0:0:0:0:
30,207,71796,1,0,0:0:0:0:
278,364,71951,1,0,0:0:0:0:
278,364,72028,1,0,0:0:0:0:
278,364,72106,6,0,P|256:280|223:221,1,140.000005340576
382,136,72415,2,0,B|368:230|368:230|330:271,1,140.000005340576
155,207,72724,2,0,P|280:181|319:179,1,140.000005340576
457,103,73034,2,0,B|353:88|353:88|305:55,1,140.000005340576
276,0,73343,5,0,0:0:0:0:
276,0,73807,1,0,0:0:0:0:
30,52,73961,2,0,P|88:52|187:78,1,157.500006008148
256,124,74271,1,0,0:0:0:0:
256,124,74425,1,0,0:0:0:0:
0,187,74580,5,0,0:0:0:0:
0,187,74735,2,0,B|42:182|83:207|128:125|10:56|-53:141|-56:251|30:295|87:242,1,322.000006141663
208,190,75199,1,0,0:0:0:0:
208,190,75353,2,0,B|134:204|134:204|158:50,1,210.000008010865
347,278,75817,1,0,0:0:0:0:
347,278,75971,2,0,B|273:292|273:292|297:138,1,210.000008010865
452,191,76436,1,0,0:0:0:0:
452,191,76590,2,0,B|434:207|378:227|348:181|366:134|394:104|440:97|470:131|470:131|471:191|523:230,1,322.000006141663
512,331,77054,5,0,0:0:0:0:
512,331,77209,2,0,B|409:306|431:366|334:340,1,167.999994873047
163,343,77673,5,0,0:0:0:0:
163,343,77828,2,0,B|81:366|103:306|0:331,1,167.999994873047
252,278,78291,6,0,L|259:303,1,21
257,298,78601,6,0,B|267:242|267:242|275:230|275:230|286:172,1,105.000004005432
385,0,78910,2,0,P|374:114|341:174,1,157.500006008148
140,128,79219,2,0,B|210:111|255:72|255:72|253:92|264:113,1,157.500006008148
0,187,79528,5,0,0:0:0:0:
0,187,79683,2,0,B|42:182|83:207|128:125|10:56|-53:141|-56:251|30:295|87:242,1,322.000006141663
208,190,80147,1,0,0:0:0:0:
208,190,80301,2,0,B|134:204|134:204|158:50,1,210.000008010865
347,278,80765,1,0,0:0:0:0:
347,278,80919,2,0,B|273:292|273:292|297:138,1,210.000008010865
452,191,81384,1,0,0:0:0:0:
452,191,81538,2,0,B|434:207|378:227|348:181|366:134|394:104|440:97|470:131|470:131|471:191|523:230,1,322.000006141663
427,335,82003,5,0,0:0:0:0:
429,336,82157,2,0,P|349:311|344:389,1,167.999994873047
178,375,82621,5,0,0:0:0:0:
178,375,82775,2,0,P|151:304|83:336,1,167.999994873047
252,255,83240,6,0,B|260:282|260:282|244:271,2,42
117,184,84322,6,0,L|203:170,1,52.5000020027161
260,124,84477,6,0,P|212:110|191:94,1,52.5000020027161
458,202,84941,2,0,P|494:167|518:157,1,52.5000020027161
291,334,85405,2,0,P|302:382|299:408,1,52.5000020027161
321,251,85714,6,0,P|241:230|209:207,2,94.499997116089
407,230,86255,1,0,0:0:0:0:
407,230,86333,2,0,P|454:246|479:263,1,62.9999980773926
174,340,86642,2,0,P|134:353|111:368,1,62.9999980773926
0,161,86951,6,0,L|105:172,1,83.9999974365235
154,207,87260,2,0,L|228:196,1,62.9999980773926
350,52,87570,1,0,0:0:0:0:
266,25,87724,1,0,0:0:0:0:
383,175,87879,1,0,0:0:0:0:
383,175,88034,1,0,0:0:0:0:
512,11,88188,6,0,L|499:131,1,83.9999974365235
475,176,88497,2,0,L|491:247,1,62.9999980773926
378,384,88729,1,0,0:0:0:0:
381,371,88807,2,0,B|389:306|389:306|374:277,1,94.499997116089
375,280,89116,2,0,P|422:303|456:311,1,62.9999980773926
154,343,89425,6,0,P|234:327|273:324,1,94.499997116089
258,330,89735,2,0,L|275:258,1,62.9999980773926
186,173,89967,1,0,0:0:0:0:
178,182,90044,2,0,P|186:234|205:266,1,62.9999980773926
7,325,90353,2,0,L|-1:294,3,31.4999990386963
30,214,90662,6,0,L|46:105,1,94.499997116089
0,55,90972,2,0,P|52:42|77:42,1,62.9999980773926
189,276,91281,2,0,P|157:272|127:262,1,62.9999980773926
285,6,91590,2,0,L|276:45,3,31.4999990386963
347,74,91900,6,0,P|404:56|430:55,1,62.9999980773926
487,89,92209,1,0,0:0:0:0:
401,243,92363,2,0,P|413:184|426:161,1,62.9999980773926
495,90,92673,1,0,0:0:0:0:
273,159,92827,2,0,L|193:148,1,62.9999980773926
6,147,93137,5,0,0:0:0:0:
20,235,93291,1,0,0:0:0:0:
198,37,93446,2,0,P|151:24|120:7,1,62.9999980773926
167,275,93755,2,0,P|147:318|142:347,1,62.9999980773926
361,380,94065,1,0,0:0:0:0:
346,296,94219,1,0,0:0:0:0:
512,227,94374,6,0,P|459:207|439:195,1,62.9999980773926
356,15,94683,1,0,0:0:0:0:
215,70,94838,1,0,0:0:0:0:
215,70,94915,1,0,0:0:0:0:
215,70,94992,2,0,P|261:54|283:53,1,62.9999980773926
342,263,95302,2,0,L|337:306,3,31.4999990386963
285,377,95611,6,0,P|270:333|236:289,1,94.499997116089
246,286,95920,2,0,P|206:272|172:246,1,62.9999980773926
40,197,96152,1,0,0:0:0:0:
44,192,96229,2,0,P|93:172|126:172,1,62.9999980773926
236,83,96539,1,0,0:0:0:0:
218,0,96693,1,0,0:0:0:0:
512,124,96848,6,0,P|432:105|346:50,1,157.499995193482
358,58,97312,1,0,0:0:0:0:
346,52,97389,1,0,0:0:0:0:
333,51,97467,2,0,P|383:43|418:22,1,62.9999980773926
433,198,97776,2,0,P|451:247|452:276,1,62.9999980773926
171,384,98085,6,0,P|185:293|201:254,1,125.999996154785
30,44,98549,1,0,0:0:0:0:
30,44,98626,1,0,0:0:0:0:
30,44,98704,2,0,L|101:30,1,62.9999980773926
259,106,99013,1,0,0:0:0:0:
175,91,99168,1,0,0:0:0:0:
371,0,99322,6,0,P|393:81|395:146,1,125.999996154785
329,237,99786,1,0,0:0:0:0:
329,237,99863,1,0,0:0:0:0:
329,237,99941,1,0,0:0:0:0:
239,187,100095,1,0,0:0:0:0:
501,103,100250,1,0,0:0:0:0:
501,103,100714,5,0,0:0:0:0:
222,17,100869,1,0,0:0:0:0:
235,99,101023,1,0,0:0:0:0:
63,140,101178,2,0,L|68:114,4,15.7499995193482
160,311,101487,2,0,L|165:337,4,15.7499995193482
8,205,101796,6,0,P|81:171|178:176,1,157.499995193482
168,175,102260,1,0,0:0:0:0:
178,182,102338,1,0,0:0:0:0:
187,190,102415,2,0,P|171:144|168:105,1,62.9999980773926
301,22,102724,2,0,P|272:74|268:99,1,62.9999980773926
397,384,103034,6,0,B|375:278|459:308|436:195,1,188.999994232178
417,134,103575,1,0,0:0:0:0:
428,129,103652,2,0,P|480:141|505:162,1,62.9999980773926
238,347,103962,2,0,L|156:357,1,62.9999980773926
0,253,104271,6,0,L|8:225,1,28
86,219,104735,2,0,L|79:246,1,28
158,239,105199,2,0,L|166:211,1,28
165,212,105817,6,0,B|172:269|126:259|141:318,1,105.000004005432
209,384,106049,1,0,0:0:0:0:
209,384,106126,2,0,P|124:344|38:344,1,157.500006008148
1,277,106436,6,0,P|52:263|80:260,1,52.5000020027161
236,152,106590,2,0,P|284:172|299:185,1,52.5000020027161
66,17,106745,6,0,L|82:121,1,105.000004005432
255,358,107054,2,0,L|271:254,1,105.000004005432
408,117,107286,1,0,0:0:0:0:
408,117,107363,2,0,P|447:102|470:103,1,52.5000020027161
221,20,107673,2,0,L|231:74,3,52.5000020027161
194,155,107982,6,0,P|110:165|41:103,1,157.500006008148
171,253,108291,2,0,P|199:325|190:376,1,105.000004005432
511,94,108601,2,0,B|431:71|441:139|346:106,1,157.500006008148
193,45,108910,2,0,L|317:34,1,105.000004005432
409,384,109219,6,0,P|434:319|376:217,1,157.500006008148
296,167,109528,2,0,L|315:283,1,105.000004005432
61,275,109838,6,0,L|134:285,1,73.4999977569581
140,305,110147,6,0,L|46:293,1,94.499997116089
31,309,110456,6,0,L|146:324,1,115.50000352478
336,340,110766,6,0,B|279:331|288:368|222:352,1,105.000004005432
6,112,110997,1,0,0:0:0:0:
6,112,111075,2,0,B|41:135|41:135|174:103,1,157.500006008148
255,14,111384,2,0,L|241:137,1,105.000004005432
384,289,111693,5,0,0:0:0:0:
369,200,111848,1,0,0:0:0:0:
113,384,112003,1,0,0:0:0:0:
128,295,112158,1,0,0:0:0:0:
51,94,112312,2,0,L|62:151,1,52.5000020027161
363,58,112621,2,0,P|309:29|252:38,1,105.000004005432
25,265,112930,6,0,P|100:278|173:192,1,157.500006008148
245,369,113240,2,0,P|160:347|126:359,1,105.000004005432
363,130,113549,1,0,0:0:0:0:
350,223,113704,1,0,0:0:0:0:
502,33,113858,2,0,L|442:17,3,52.5000020027161
358,36,114168,6,0,P|296:45|201:-12,1,140.000005340576
135,213,114477,2,0,B|147:153|147:153|156:148|156:148|163:46,1,140.000005340576
48,67,114735,1,0,0:0:0:0:
48,67,114786,6,0,P|53:109|69:140,1,73.4999977569581
249,266,115095,6,0,P|170:286|139:313,1,94.499997116089
393,107,115405,6,0,P|464:138|532:134,1,115.50000352478
329,51,115714,6,0,L|320:0,1,52.5000020027161
402,215,115869,2,0,L|411:266,1,52.5000020027161
243,355,116023,6,0,P|173:295|101:321,1,157.500006008148
165,384,116333,1,0,0:0:0:0:
165,384,116487,1,0,0:0:0:0:
17,66,116642,6,0,B|79:57|79:57|92:64|92:64|246:42,1,210.000008010865
439,317,117106,2,0,B|385:318|359:375|359:375|362:313|307:281,1,210.000008010865
400,203,117570,1,0,0:0:0:0:
187,377,117724,1,0,0:0:0:0:
159,298,117879,5,0,0:0:0:0:
3,148,118034,1,0,0:0:0:0:
244,6,118188,2,0,B|265:40|265:40|244:158,1,157.500006008148
179,66,118497,1,0,0:0:0:0:
174,63,118807,1,0,0:0:0:0:
415,15,118961,1,0,0:0:0:0:
140,192,119116,6,0,B|100:205|76:250|76:250|115:102,1,210.000008010865
422,370,119580,2,0,B|389:347|389:347|199:374,1,210.000008010865
387,64,120044,2,0,B|447:56|447:56|375:6|304:26,1,210.000008010865
511,104,120508,5,0,0:0:0:0:
161,19,120662,1,0,0:0:0:0:
187,108,120817,1,0,0:0:0:0:
0,343,120972,2,0,P|55:294|157:303,1,157.500006008148
210,335,121281,1,0,0:0:0:0:
210,335,121436,1,0,0:0:0:0:
227,11,121590,6,0,B|237:83|237:83|246:92|246:92|275:180,1,140.000005340576
416,16,121900,2,0,P|383:-10|350:67,1,157.500006008148
170,133,122157,1,0,0:0:0:0:
170,133,122209,2,0,P|133:120|102:119,1,52.5000020027161
271,384,122518,1,0,0:0:0:0:
257,298,122673,1,0,0:0:0:0:
419,113,122827,5,0,0:0:0:0:
478,179,122982,1,0,0:0:0:0:
391,200,123137,1,0,0:0:0:0:
506,92,123291,1,0,0:0:0:0:
279,39,123446,2,0,P|214:26|176:3,1,105.000004005432
236,153,123755,1,0,0:0:0:0:
125,348,123910,1,0,0:0:0:0:
125,348,123987,1,0,0:0:0:0:
125,348,124065,6,0,B|141:251|141:251|163:208,1,140.000005340576
0,98,124374,2,0,P|23:186|60:241,1,140.000005340576
248,159,124683,2,0,B|216:169|216:169|73:151,1,140.000005340576
0,315,124992,2,0,P|65:265|182:253,1,140.000005340576
201,274,125302,5,0,0:0:0:0:
276,15,125766,1,0,0:0:0:0:
501,106,125920,2,0,P|399:130|351:178,1,157.500006008148
333,241,126229,1,0,0:0:0:0:
333,241,126384,1,0,0:0:0:0:
17,66,126539,5,0,0:0:0:0:
17,66,126694,2,0,B|59:61|100:86|145:4|27:-65|-36:20|-39:130|47:174|104:121,1,322.000006141663
204,190,127158,1,0,0:0:0:0:
204,190,127312,2,0,B|130:204|130:204|154:50,1,210.000008010865
317,251,127776,1,0,0:0:0:0:
317,251,127930,2,0,B|243:265|243:265|267:111,1,210.000008010865
439,302,128395,1,0,0:0:0:0:
439,302,128549,2,0,B|421:318|365:338|335:292|353:245|381:215|427:208|457:242|457:242|458:302|510:341,1,322.000006141663
512,89,129013,5,0,0:0:0:0:
512,89,129168,2,0,B|439:84|439:84|421:95|421:95|334:88,1,167.999994873047
164,89,129632,5,0,0:0:0:0:
164,89,129787,2,0,B|91:95|91:95|73:84|73:84|0:89,1,167.999994873047
253,138,130250,6,0,L|260:163,1,21
258,158,130559,2,0,P|269:110|244:51,1,105.000004005432
456,40,130791,1,0,0:0:0:0:
456,40,130869,2,0,P|360:1|300:5,1,140.000005340576
150,209,131178,2,0,B|146:248|176:270|176:270|197:239|173:190,1,140.000005340576
0,205,131487,5,0,0:0:0:0:
0,205,131642,2,0,B|42:200|83:225|128:143|10:74|-53:159|-56:269|30:313|87:260,1,322.000006141663
220,208,132106,1,0,0:0:0:0:
220,208,132260,2,0,B|146:222|146:222|170:68,1,210.000008010865
356,359,132724,1,0,0:0:0:0:
356,359,132878,2,0,B|282:373|282:373|306:219,1,210.000008010865
431,165,133343,1,0,0:0:0:0:
431,165,133497,2,0,B|413:181|357:201|327:155|345:108|373:78|419:71|449:105|449:105|450:165|502:204,1,322.000006141663
391,311,133962,5,0,0:0:0:0:
391,311,134116,2,0,B|352:303|335:264|335:264|360:357,1,167.999994873047
153,352,134580,5,0,0:0:0:0:
153,352,134735,2,0,B|177:264|177:264|160:303|121:311,1,167.999994873047
1,258,135199,6,0,L|30:252,1,28
103,237,135662,1,0,0:0:0:0:
220,123,135817,6,0,L|249:129,1,28
428,68,136436,6,0,L|404:71,1,21
397,67,136745,6,0,L|389:129,3,52.5000020027161
212,25,137363,6,0,L|230:22,1,14
128,99,137673,6,0,L|100:103,1,28
0,144,138137,1,0,0:0:0:0:
0,144,138291,2,0,L|27:139,1,28
96,182,138755,1,0,0:0:0:0:
263,121,138910,6,0,L|268:91,1,28
356,107,139374,1,0,0:0:0:0:
356,107,139451,1,0,0:0:0:0:
356,107,139528,2,0,L|362:74,1,28
478,27,140147,6,0,L|471:-5,2,28
474,176,141075,2,0,L|477:193,1,14
506,276,141384,6,0,L|481:270,1,21
477,278,141693,6,0,L|392:292,3,52.5000020027161
269,360,142312,6,0,L|253:362,1,14
134,317,142621,2,0,L|140:285,1,28
58,214,143085,1,0,0:0:0:0:
58,214,143240,2,0,L|86:204,1,28
161,216,143704,1,0,0:0:0:0:
0,79,143858,6,0,L|30:83,1,28
151,43,144322,1,0,0:0:0:0:
151,43,144400,1,0,0:0:0:0:
151,43,144477,2,0,L|146:12,1,28
436,55,145095,5,0,0:0:0:0:
436,55,145250,2,0,L|404:48,1,28
323,130,145714,2,0,L|328:149,1,14
349,215,146023,1,0,0:0:0:0:
222,3,146178,1,0,0:0:0:0:
129,341,146333,6,0,L|108:338,1,21
97,340,146642,6,0,L|90:270,3,52.5000020027161
0,232,147260,6,0,L|16:227,1,14
160,165,147570,6,0,L|130:160,1,28
26,116,148034,1,0,0:0:0:0:
26,116,148188,2,0,L|56:111,1,28
141,89,148652,1,0,0:0:0:0:
270,27,148807,6,0,L|273:-3,1,28
444,27,149271,1,0,0:0:0:0:
444,27,149348,1,0,0:0:0:0:
444,27,149425,2,0,L|416:32,1,28
512,191,150044,6,0,L|468:184,1,42
343,222,150662,2,0,L|350:253,1,28
403,371,151281,6,0,L|410:350,1,21
414,341,151590,6,0,L|350:353,3,52.5000020027161
512,280,152209,6,0,L|493:276,1,14
265,356,152518,6,0,L|221:349,1,42
103,298,153137,2,0,L|107:328,1,28
8,370,153601,1,0,0:0:0:0:
8,370,153755,6,0,L|4:342,1,28
93,214,154219,1,0,0:0:0:0:
93,214,154296,1,0,0:0:0:0:
93,214,154374,2,0,L|123:219,1,28
0,71,154992,6,0,L|43:63,1,42
204,22,155611,2,0,L|199:50,1,28
401,0,156229,6,0,L|407:23,1,21
404,30,156539,6,0,L|492:53,3,52.5000020027161
309,132,157157,6,0,L|327:130,1,14
512,111,157467,6,0,L|505:140,1,28
455,242,157930,1,0,0:0:0:0:
455,242,158085,2,0,L|462:273,1,28
425,367,158549,1,0,0:0:0:0:
214,352,158704,6,0,L|184:358,1,28
339,281,159168,1,0,0:0:0:0:
339,281,159245,1,0,0:0:0:0:
339,281,159322,2,0,L|309:275,1,28
28,276,159941,6,0,L|21:231,1,42
110,167,160559,2,0,L|116:136,1,28
268,36,161178,6,0,L|291:31,1,21
299,30,161487,6,0,L|199:17,3,52.5000020027161
382,137,162106,6,0,L|367:144,1,14
512,240,162415,6,0,L|508:271,1,28
469,375,162879,1,0,0:0:0:0:
469,375,163034,2,0,L|465:347,1,28
388,313,163497,1,0,0:0:0:0:
484,156,163652,6,0,L|515:151,1,28
381,59,164116,1,0,0:0:0:0:
381,59,164193,1,0,0:0:0:0:
381,59,164271,2,0,L|383:29,1,28
301,172,164889,6,0,L|292:132,1,42
190,154,165508,2,0,L|161:148,1,28
339,369,165972,1,0,0:0:0:0:
490,49,166126,6,0,P|435:32|362:23,1,125.999996154785
472,132,166590,1,0,0:0:0:0:
329,245,166745,2,0,P|285:290|298:369,1,125.999996154785
364,380,167209,6,0,P|409:365|441:368,1,62.9999980773926
198,193,167518,1,0,0:0:0:0:
74,281,167673,2,0,P|117:256|149:253,1,62.9999980773926
136,336,167982,1,0,0:0:0:0:
1,99,168291,1,0,0:0:0:0:
29,110,168368,1,0,0:0:0:0:
60,117,168445,1,0,0:0:0:0:
91,120,168522,1,0,0:0:0:0:
123,120,168601,6,0,L|137:250,1,125.999996154785
172,50,169065,1,0,0:0:0:0:
309,264,169219,2,0,P|257:304|186:291,2,125.999996154785
374,319,169992,5,0,0:0:0:0:
512,191,170147,2,0,P|482:174|441:171,1,62.9999980773926
452,367,170456,2,0,L|454:351,2,15.7499995193482
299,238,170766,2,0,L|305:280,3,31.4999990386963
240,330,171075,6,0,P|185:337|114:370,1,125.999996154785
81,289,171539,1,0,0:0:0:0:
306,263,171693,2,0,P|265:246|230:242,1,62.9999980773926
350,370,172003,1,0,0:0:0:0:
408,178,172157,6,0,L|396:110,1,62.9999980773926
356,376,172467,1,0,0:0:0:0:
490,92,172621,2,0,L|478:24,1,62.9999980773926
326,157,172930,5,0,0:0:0:0:
213,330,173085,1,0,0:0:0:0:
197,41,173240,1,0,0:0:0:0:
144,36,173317,1,0,0:0:0:0:
94,23,173394,1,0,0:0:0:0:
46,0,173471,1,0,0:0:0:0:
352,238,194934,6,0,P|397:250|477:193,1,140
239,171,195397,2,0,P|274:281|270:327,1,140
447,384,195861,2,0,P|459:336|473:305,1,70
81,102,196480,6,0,P|66:182|36:227,1,105.000004005432
0,102,196712,1,0,0:0:0:0:
0,102,196789,2,0,P|70:70|183:61,1,157.500006008148
245,14,197098,2,0,P|201:3|176:-15,1,52.5000020027161
323,185,197253,2,0,P|278:223|259:230,1,52.5000020027161
512,66,197408,6,0,B|469:29|416:26|416:26|427:68|413:96,1,157.500006008148
404,268,197717,2,0,B|413:214|413:214|424:206|424:206|428:110,1,140.000005340576
358,89,197975,1,0,0:0:0:0:
358,89,198026,2,0,P|319:72|301:71,1,52.5000020027161
79,285,198336,2,0,L|141:274,3,52.5000020027161
274,328,198645,6,0,B|244:300|203:314|203:314|174:367|100:354,1,157.500006008148
96,203,198954,2,0,P|165:201|202:237,1,105.000004005432
424,0,199263,2,0,L|444:185,1,157.500006008148
476,314,199573,2,0,B|487:271|487:271|494:264|494:264|505:210,1,105.000004005432
254,52,199882,6,0,P|173:61|112:-12,1,157.500006008148
11,154,200191,2,0,P|92:125|140:126,1,105.000004005432
258,300,200501,6,0,L|248:373,1,73.4999977569581
228,379,200810,6,0,L|240:285,1,94.499997116089
224,270,201119,6,0,L|209:385,1,115.50000352478
341,236,201428,6,0,P|276:206|244:216,1,77.0000023498536
131,292,201660,1,0,0:0:0:0:
131,292,201738,2,0,P|67:311|-7:229,1,157.500006008148
148,0,202047,2,0,B|160:55|160:55|172:71|172:71|200:190,1,157.500006008148
193,160,202356,5,0,0:0:0:0:
280,137,202511,1,0,0:0:0:0:
62,361,202665,1,0,0:0:0:0:
149,384,202820,1,0,0:0:0:0:
340,270,202975,2,0,P|331:222|316:194,1,52.5000020027161
76,36,203284,2,0,L|61:175,1,105.000004005432
116,232,203593,6,0,P|178:249|254:182,1,157.500006008148
402,159,203903,2,0,P|319:121|284:133,1,105.000004005432
267,368,204212,1,0,0:0:0:0:
294,279,204366,1,0,0:0:0:0:
110,67,204521,2,0,L|100:8,3,52.5000020027161
83,181,204830,6,0,P|74:266|36:340,1,140.000005340576
167,134,205140,2,0,B|208:121|208:121|216:109|216:109|354:128,1,140.000005340576
290,38,205397,1,0,0:0:0:0:
290,38,205449,6,0,P|250:14|210:12,1,73.4999977569581
405,150,205758,6,0,P|361:181|336:227,1,94.499997116089
512,366,206068,6,0,P|491:314|492:236,1,115.50000352478
510,179,206377,6,0,L|501:117,1,52.5000020027161
307,0,206531,2,0,L|314:51,1,52.5000020027161
183,218,206686,6,0,B|106:192|109:266|2:227,1,157.500006008148
59,159,206995,1,0,0:0:0:0:
59,159,207150,1,0,0:0:0:0:
397,315,207305,6,0,B|427:374|427:374|378:303|277:328,1,210.000008010865
462,0,207769,2,0,B|499:40|499:40|468:215,1,210.000008010865
172,246,208232,1,0,0:0:0:0:
149,157,208387,1,0,0:0:0:0:
89,376,208542,5,0,0:0:0:0:
7,68,208696,1,0,0:0:0:0:
145,49,208851,2,0,B|107:46|63:7|63:7|99:49|86:85,1,157.500006008148
56,142,209160,1,0,0:0:0:0:
54,149,209470,1,0,0:0:0:0:
296,79,209624,1,0,0:0:0:0:
86,368,209779,6,0,B|98:314|98:314|124:279|124:279|148:147,1,210.000008010865
431,246,210243,2,0,P|401:303|252:300,1,210.000008010865
43,122,210707,2,0,B|42:74|81:36|133:32|133:32|169:68|227:52,1,210.000008010865
250,2,211171,5,0,0:0:0:0:
183,326,211325,2,0,L|164:207,1,105.000004005432
502,106,211635,2,0,B|422:134|427:57|321:102,1,157.500006008148
386,171,211944,1,0,0:0:0:0:
386,171,212098,1,0,0:0:0:0:
2,63,212253,6,0,P|52:65|141:22,1,140.000005340576
51,176,212562,2,0,B|32:200|32:200|61:334,1,140.000005340576
147,179,212820,1,0,0:0:0:0:
147,179,212872,2,0,P|168:130|200:110,1,52.5000020027161
366,362,213181,1,0,0:0:0:0:
342,350,213258,1,0,0:0:0:0:
318,340,213335,1,0,0:0:0:0:
292,333,213412,1,0,0:0:0:0:
266,330,213490,5,0,0:0:0:0:
245,247,213645,1,0,0:0:0:0:
463,68,213799,1,0,0:0:0:0:
441,151,213954,1,0,0:0:0:0:
76,301,214109,1,0,0:0:0:0:
157,274,214263,1,0,0:0:0:0:
139,357,214418,1,0,0:0:0:0:
0,148,214573,1,0,0:0:0:0:
0,148,214650,1,0,0:0:0:0:
0,148,214727,6,0,B|40:165|40:165|150:134,1,140.000005340576
271,73,215037,2,0,P|159:52|116:8,1,140.000005340576
258,159,215346,2,0,B|241:196|241:196|257:313,1,140.000005340576
344,133,215655,2,0,P|315:53|337:-27,1,140.000005340576
395,53,215964,5,0,0:0:0:0:
106,283,216428,2,0,L|46:276,1,52.5000020027161
10,372,216583,2,0,P|61:347|168:335,1,157.500006008148
240,355,216892,1,0,0:0:0:0:
240,355,217047,1,0,0:0:0:0:
0,190,217202,5,0,0:0:0:0:
0,190,217357,2,0,B|42:185|83:210|128:128|10:59|-53:144|-56:254|30:298|87:245,1,322.000006141663
218,183,217821,1,0,0:0:0:0:
218,183,217975,2,0,B|144:197|144:197|168:43,1,210.000008010865
366,275,218439,1,0,0:0:0:0:
366,275,218593,2,0,B|292:289|292:289|316:135,1,210.000008010865
460,99,219058,1,0,0:0:0:0:
460,99,219212,2,0,B|442:115|386:135|356:89|374:42|402:12|448:5|478:39|478:39|479:99|531:138,1,322.000006141663
504,339,219676,5,0,0:0:0:0:
504,339,219830,2,0,B|404:324|404:324|370:353|314:334,1,167.999994873047
170,340,220294,5,0,0:0:0:0:
170,340,220448,2,0,B|136:344|108:324|108:324|8:339,1,167.999994873047
276,243,220913,6,0,L|251:248,1,21
256,247,221222,6,0,L|370:267,1,105.000004005432
213,382,221531,2,0,P|165:339|190:226,1,157.500006008148
292,90,221841,2,0,B|275:107|278:127|278:127|258:166|198:183|163:160,1,157.500006008148
0,73,222150,5,0,0:0:0:0:
0,73,222305,2,0,B|42:68|83:93|128:11|10:-58|-53:27|-56:137|30:181|87:128,1,322.000006141663
208,236,222769,1,0,0:0:0:0:
208,236,222923,2,0,B|134:250|134:250|158:96,1,210.000008010865
313,125,223387,1,0,0:0:0:0:
313,125,223541,2,0,B|239:139|239:139|263:-15,1,210.000008010865
460,203,224006,1,0,0:0:0:0:
460,203,224160,2,0,B|442:219|386:239|356:193|374:146|402:116|448:109|478:143|478:143|479:203|531:242,1,322.000006141663
336,363,224624,5,0,0:0:0:0:
336,363,224779,2,0,B|325:291|325:291|311:271|311:271|297:178,1,167.999994873047
176,21,225243,1,0,0:0:0:0:
176,21,225398,2,0,B|187:93|187:93|201:113|201:113|215:206,1,167.999994873047
41,202,225861,6,0,P|58:191|68:189,1,28
144,245,226325,1,0,0:0:0:0:
144,245,226403,1,0,0:0:0:0:
144,245,226480,2,0,P|158:251|166:262,1,28
277,105,227391,6,0,L|273:90,2,14
346,70,227864,2,0,L|342:55,1,14
392,209,228812,2,0,L|388:238,1,28
463,268,229443,2,0,L|466:240,1,28
277,105,229917,6,0,L|273:90,2,14
346,70,230391,2,0,L|342:55,1,14
100,164,231180,1,0,0:0:0:0:
100,164,231338,2,0,L|68:160,1,28
277,105,232443,6,0,L|273:90,2,14
346,70,232917,2,0,L|342:55,1,14
392,209,233864,6,0,L|388:238,1,28
463,268,234496,2,0,L|465:238,1,28
256,192,234891,12,0,237180,0:0:0:0:
