osu file format v14

[General]
AudioFilename: audio.mp3
AudioLeadIn: 0
PreviewTime: 9294
Countdown: 0
SampleSet: Normal
StackLeniency: 0.7
Mode: 0
LetterboxInBreaks: 0
WidescreenStoryboard: 1

[Editor]
Bookmarks: 10194,19794,29394,31794,38994,48594,58194,67794,77394,86994,96594,106194,115794,125394,134994,144594,146844,161132,167059,181347
DistanceSpacing: 3.8
BeatDivisor: 4
GridSize: 32
TimelineZoom: 2.3

[Metadata]
Title:Taller Than You
TitleUnicode:1cm의 자존심
Artist:MAMAMOO
ArtistUnicode:마마무
Creator:Everything Dust
Version:SmOLAR
Source:
Tags:Solar Moonbyul Hwasa Wheein
BeatmapID:1928309
BeatmapSetID:923408

[Difficulty]
HPDrainRate:4
CircleSize:3
OverallDifficulty:5
ApproachRate:9
SliderMultiplier:3.59999990463257
SliderTickRate:1

[Events]
//Background and Video events
Video,0,"Taller Than You.mp4"
0,0,"Smolar.png",0,0
//Break Periods
2,103094,104694
2,144494,146244
2,161332,166459
//Storyboard Layer 0 (Background)
//Storyboard Layer 1 (Fail)
//Storyboard Layer 2 (Pass)
//Storyboard Layer 3 (Foreground)
//Storyboard Sound Samples

[TimingPoints]
594,600,4,1,1,70,1,0
10044,-100,4,1,1,5,0,0
10194,-100,4,1,1,70,0,1
10494,-100,4,1,1,5,0,1
10794,-100,4,1,1,70,0,1
11244,-100,4,1,1,5,0,1
11394,-100,4,1,1,70,0,1
11694,-100,4,1,1,5,0,1
11994,-100,4,1,1,70,0,1
12144,-100,4,1,1,5,0,1
12294,-100,4,1,1,70,0,1
12444,-100,4,1,1,5,0,1
12594,-100,4,1,1,70,0,1
18894,-100,4,1,1,80,0,1
19194,-100,4,1,1,90,0,1
19494,-100,4,1,1,70,0,1
19794,-100,4,1,1,70,0,1
28494,-100,4,1,1,80,0,1
28794,-100,4,1,1,90,0,1
28944,-100,4,1,1,50,0,1
29394,-100,4,1,1,50,0,0
30894,-50,4,1,1,50,0,0
31494,-100,4,1,1,50,0,0
33594,-133.333333333333,4,1,1,50,0,0
33894,-100,4,1,1,50,0,0
40944,-100,4,1,1,5,0,0
41094,-100,4,1,1,50,0,0
44544,-100,4,1,1,5,0,0
44694,-100,4,1,1,50,0,0
44994,-100,4,1,1,5,0,0
45144,-100,4,1,1,50,0,0
45894,-200,4,1,1,50,0,0
48444,-100,4,1,1,50,0,0
61794,-200,4,1,1,50,0,0
62544,-200,4,1,1,5,0,0
62694,-200,4,1,1,50,0,0
63144,-200,4,1,1,5,0,0
63294,-100,4,1,1,50,0,0
67094,-100,4,1,1,5,0,0
67194,-100,4,1,1,70,0,0
67644,-100,4,1,1,5,0,0
67794,-200,4,1,1,70,0,1
68244,-200,4,1,1,5,0,1
68394,-100,4,1,1,70,0,1
68844,-100,4,1,1,5,0,1
68994,-200,4,1,1,70,0,1
69444,-100,4,1,1,5,0,1
69594,-100,4,1,1,70,0,1
70044,-100,4,1,1,5,0,1
70194,-100,4,1,1,70,0,1
76494,-100,4,1,1,80,0,1
76794,-100,4,1,1,90,0,1
76944,-100,4,1,1,5,0,1
77094,-100,4,1,1,70,0,1
77244,-100,4,1,1,5,0,1
77394,-100,4,1,1,70,0,1
77544,-100,4,1,1,5,0,1
77994,-100,4,1,1,70,0,1
78144,-100,4,1,1,5,0,1
78294,-100,4,1,1,70,0,1
78444,-100,4,1,1,5,0,1
78594,-100,4,1,1,70,0,1
78744,-100,4,1,1,5,0,1
79194,-100,4,1,1,70,0,1
79344,-100,4,1,1,5,0,1
79494,-100,4,1,1,70,0,1
79644,-100,4,1,1,5,0,1
79794,-100,4,1,1,70,0,1
86094,-100,4,1,1,80,0,1
86394,-100,4,1,1,90,0,1
86694,-133.333333333333,4,1,1,50,0,0
86844,-133.333333333333,4,1,1,5,0,0
86994,-200,4,1,1,50,0,0
87444,-200,4,1,1,5,0,0
87594,-100,4,1,1,50,0,0
91194,-133.333333333333,4,1,1,50,0,0
91494,-100,4,1,1,50,0,0
97644,-100,4,1,1,5,0,0
97794,-100,4,1,1,50,0,0
97944,-100,4,1,1,5,0,0
98094,-100,4,1,1,50,0,0
98544,-100,4,1,1,5,0,0
98694,-100,4,1,1,50,0,0
115194,-133.333333333333,4,1,1,50,0,0
116094,-100,4,1,1,50,0,0
116994,-133.333333333333,4,1,1,50,0,0
117144,-133.333333333333,4,1,1,5,0,0
117294,-133.333333333333,4,1,1,50,0,0
117444,-133.333333333333,4,1,1,5,0,0
117594,-200,4,1,1,50,0,0
118494,-100,4,1,1,50,0,0
119394,-133.333333333333,4,1,1,50,0,0
119544,-133.333333333333,4,1,1,5,0,0
119694,-133.333333333333,4,1,1,50,0,0
119844,-133.333333333333,4,1,1,5,0,0
119994,-200,4,1,1,50,0,0
120894,-100,4,1,1,50,0,0
122094,-133.333333333333,4,1,1,50,0,0
122244,-133.333333333333,4,1,1,5,0,0
122394,-200,4,1,1,50,0,0
122994,-200,4,1,1,50,0,0
123144,-100,4,1,1,50,0,0
123294,-100,4,1,1,40,0,0
124794,-100,4,1,1,70,0,0
124944,-100,4,1,1,5,0,0
125094,-100,4,1,1,70,0,0
125244,-100,4,1,1,5,0,0
125394,-100,4,1,1,70,0,1
125694,-100,4,1,1,5,0,1
125994,-100,4,1,1,70,0,1
126144,-100,4,1,1,5,0,1
126294,-100,4,1,1,70,0,1
126444,-100,4,1,1,5,0,1
126594,-100,4,1,1,70,0,1
126894,-100,4,1,1,5,0,1
127194,-100,4,1,1,70,0,1
127344,-100,4,1,1,5,0,1
127494,-100,4,1,1,70,0,1
127644,-100,4,1,1,5,0,1
127794,-100,4,1,1,70,0,1
134094,-100,4,1,1,80,0,1
134394,-100,4,1,1,90,0,1
134694,-100,4,1,1,70,0,1
143694,-100,4,1,1,80,0,1
143994,-100,4,1,1,90,0,1
144294,-100,4,1,1,5,0,1
144594,-100,4,1,1,70,0,0
146844,459.770114942529,3,1,1,70,1,1
150522,459.770114942529,3,1,1,70,1,1
153293,473.240114942528,3,1,1,70,1,1
154240,459.770114942529,3,1,1,70,1,1
157918,459.170114942529,3,1,1,70,1,1
161132,-100,3,1,1,70,0,0
167059,459.770114942529,3,1,1,70,1,0
167059,-100,3,1,1,70,0,1
170737,459.770114942529,3,1,1,70,1,1
172130,446.770114942529,3,1,1,70,1,1
173525,453.440114942527,3,1,1,70,1,1
174455,459.770114942529,3,1,1,70,1,1
178133,459.170114942529,3,1,1,70,1,1
181347,-100,3,1,1,70,0,0

[Colours]
Combo1 : 158,196,199
Combo2 : 241,175,75

[HitObjects]
96,256,9594,5,8,1:2:0:0:
224,224,9894,2,0,L|256:96,1,89.9999976158143,4|0,1:3|2:0,1:0:0:0:
0,288,10194,2,0,L|96:96,1,179.999995231629,0|0,1:0|1:0,1:0:0:0:
416,256,10794,5,8,1:2:0:0:
288,224,11094,2,0,L|256:96,1,89.9999976158143,2|0,1:3|1:0,1:0:0:0:
512,288,11394,2,0,L|416:96,1,179.999995231629,0|0,1:0|1:0,1:0:0:0:
96,288,11994,6,0,L|160:192,1,89.9999976158143,8|0,1:2|1:0,1:0:0:0:
416,288,12294,2,0,L|352:192,1,89.9999976158143,2|0,1:3|1:0,1:0:0:0:
160,288,12594,5,2,1:2:0:0:
320,192,12894,1,2,1:2:0:0:
160,192,13194,1,8,1:2:0:0:
320,96,13494,1,2,1:2:0:0:
160,64,13794,5,2,1:2:0:0:
320,160,14094,1,2,1:2:0:0:
160,160,14394,1,8,1:2:0:0:
320,256,14694,1,2,1:2:0:0:
160,320,14994,1,2,1:2:0:0:
160,352,15144,6,0,L|256:288,1,89.9999976158143,0|0,1:0|1:0,1:0:0:0:
352,224,15444,2,0,L|256:288,1,89.9999976158143,0|8,1:0|1:2,1:0:0:0:
160,224,15744,2,0,L|256:288,1,89.9999976158143,0|0,1:0|1:0,1:0:0:0:
352,352,16044,1,0,1:0:0:0:
320,32,16494,5,0,1:0:0:0:
192,352,16794,1,8,1:2:0:0:
192,32,17094,5,0,1:0:0:0:
320,352,17394,1,0,1:0:0:0:
416,128,17694,5,0,1:0:0:0:
160,288,17994,1,8,1:2:0:0:
64,160,18294,5,0,1:0:0:0:
320,288,18594,1,0,1:0:0:0:
32,352,18894,1,4,1:3:0:0:
64,64,19194,5,14,1:1:0:0:
128,192,19494,1,4,1:3:0:0:
192,64,19794,1,0,1:0:0:0:
192,320,20394,5,8,1:2:0:0:
256,192,20694,1,4,1:3:0:0:
320,320,20994,1,0,1:0:0:0:
320,64,21594,5,8,1:2:0:0:
384,192,21894,1,2,1:3:0:0:
448,64,22194,5,2,1:2:0:0:
384,320,22494,1,2,1:2:0:0:
256,192,22794,1,8,1:2:0:0:
128,320,23094,1,2,1:2:0:0:
64,256,23394,5,2,1:2:0:0:
352,256,23694,1,2,1:2:0:0:
160,256,23994,1,8,1:2:0:0:
448,256,24294,1,2,1:2:0:0:
192,320,24594,5,2,1:2:0:0:
416,192,24894,6,0,L|320:256,1,89.9999976158143,0|0,1:0|1:0,1:0:0:0:
96,192,25194,2,0,L|192:256,1,89.9999976158143,8|0,1:2|1:0,1:0:0:0:
384,320,25494,2,0,L|288:288,1,89.9999976158143,0|0,1:0|1:0,1:0:0:0:
128,320,25794,2,0,L|224:288,1,89.9999976158143,0|0,1:0|1:0,1:0:0:0:
320,32,26094,5,0,1:0:0:0:
160,352,26394,1,8,1:2:0:0:
160,32,26694,5,0,1:0:0:0:
320,352,26994,1,0,1:0:0:0:
96,160,27294,5,0,1:0:0:0:
384,320,27594,1,8,1:2:0:0:
416,160,27894,5,0,1:0:0:0:
128,320,28194,1,0,1:0:0:0:
0,192,28494,6,0,L|64:256,1,89.9999976158143,4|0,0:3|0:0,0:0:0:0:
32,352,28794,2,0,L|64:256,1,89.9999976158143,2|0,0:0|0:0,0:0:0:0:
160,256,29094,2,0,L|64:256,1,89.9999976158143,0|0,0:0|0:0,0:0:0:0:
0,256,29394,5,0,0:0:0:0:
0,256,29544,1,0,0:0:0:0:
32,288,29694,2,0,L|128:224,1,89.9999976158143,0|0,0:0|0:0,0:0:0:0:
224,256,29994,2,0,L|128:192,1,89.9999976158143,0|0,0:0|0:0,0:0:0:0:
64,192,30294,2,0,L|160:256,1,89.9999976158143
224,288,30894,6,8,B|256:320|256:320|352:160,1,179.999995231629,4|4,0:2|0:2,0:3:0:0:
384,96,31494,6,0,L|320:224,1,89.9999976158143,0|0,0:0|0:0,0:0:0:0:
256,352,31794,2,0,L|320:224,1,89.9999976158143,0|0,0:0|0:0,0:0:0:0:
256,192,32094,6,0,L|192:320,1,89.9999976158143,0|0,0:0|0:0,0:0:0:0:
128,352,32394,2,0,L|192:224,1,89.9999976158143
192,192,32694,6,0,L|128:320,1,89.9999976158143,0|0,0:0|0:0,0:0:0:0:
192,352,32994,2,0,L|256:224,1,89.9999976158143,0|0,0:0|0:0,0:0:0:0:
288,160,33294,5,0,0:0:0:0:
288,192,33594,2,0,L|288:288,1,67.5000007867814,0|0,0:0|0:0,0:0:0:0:
224,352,33894,6,0,L|320:320,1,89.9999976158143,0|0,0:0|0:0,0:0:0:0:
480,288,34194,2,0,L|384:224,1,89.9999976158143,0|0,0:0|0:0,0:0:0:0:
160,224,34644,5,0,0:0:0:0:
160,256,34794,2,0,L|320:288,1,119.999996821086,0|0,0:0|0:0,0:0:0:0:
320,224,35094,2,0,L|288:160,3,59.9999984105428,0|0|0|0,0:0|0:0|0:0|0:0,0:0:0:0:
384,160,35594,2,0,L|416:96,3,59.9999984105428,0|0|0|0,0:0|0:0|0:0|0:0,0:0:0:0:
352,96,36444,5,0,0:0:0:0:
320,128,36544,2,0,L|200:160,1,119.999996821086,0|0,0:0|0:0,0:0:0:0:
128,192,36844,2,0,L|96:128,3,59.9999984105428,0|0|0|0,0:0|0:0|0:0|0:0,0:0:0:0:
0,64,37294,1,0,0:0:0:0:
64,128,37794,6,0,L|96:224,1,89.9999976158143,0|0,0:0|0:0,0:0:0:0:
224,224,38094,2,0,L|160:288,1,89.9999976158143,0|0,0:0|0:0,0:0:0:0:
0,352,38394,1,0,0:0:0:0:
32,320,38694,6,0,L|160:320,1,89.9999976158143
320,320,38994,1,0,0:0:0:0:
192,320,39294,1,0,0:0:0:0:
480,320,39594,1,0,0:0:0:0:
256,224,39894,6,0,L|352:320,1,89.9999976158143,0|0,0:0|0:0,0:0:0:0:
416,384,40194,2,0,L|320:288,1,89.9999976158143,0|0,0:0|0:0,0:0:0:0:
448,192,40494,2,0,L|320:256,1,89.9999976158143
96,352,40794,1,0,0:0:0:0:
32,256,41094,6,0,L|128:320,1,89.9999976158143,0|0,0:0|0:0,0:0:0:0:
256,192,41394,2,0,L|160:256,1,89.9999976158143,0|0,0:0|0:0,0:0:0:0:
32,320,41694,2,0,L|64:224,1,89.9999976158143,0|0,0:0|0:0,0:0:0:0:
128,32,41994,1,0,0:0:0:0:
160,192,42294,6,0,L|192:288,2,89.9999976158143,0|0|0,0:0|0:0|0:0,0:0:0:0:
0,192,42894,2,0,L|32:32,2,134.999996423721,0|0|0,0:0|0:0|0:0,0:0:0:0:
128,288,43494,6,0,L|160:192,1,89.9999976158143,0|0,0:0|0:0,0:0:0:0:
256,224,43794,2,0,L|160:192,1,89.9999976158143
32,192,44094,2,0,L|128:128,1,89.9999976158143
160,64,44394,2,0,L|128:192,1,89.9999976158143
128,288,44694,2,0,L|320:224,1,179.999995231629
320,192,45144,6,0,L|373:218,1,59.9999984105428
448,256,45344,2,0,L|384:160,1,89.9999976158143
352,64,45894,6,0,B|479:-11|541:143|489:241|350:203|350:203|336:281,1,449.999988079071,0|0,0:0|0:0,0:0:0:0:
320,352,47694,5,0,0:0:0:0:
99,346,47994,2,0,L|128:256,1,89.9999976158143
160,160,48444,5,0,0:0:0:0:
192,192,48594,2,0,L|224:288,1,89.9999976158143,0|0,0:0|0:0,0:0:0:0:
64,352,48894,2,0,L|96:256,1,89.9999976158143,0|0,0:0|0:0,0:0:0:0:
224,256,49194,6,0,L|128:224,1,89.9999976158143,0|0,0:0|0:0,0:0:0:0:
32,320,49494,2,0,L|128:288,1,89.9999976158143
192,256,49794,6,0,L|160:160,1,89.9999976158143,0|0,0:0|0:0,0:0:0:0:
64,192,50094,2,0,L|96:96,1,89.9999976158143,0|0,0:0|0:0,0:0:0:0:
192,64,50394,6,0,L|101:109,1,89.9999976158143,0|0,0:0|0:0,0:0:0:0:
32,96,50694,2,0,L|123:131,1,89.9999976158143
192,160,50994,1,0,0:0:0:0:
160,160,51444,5,0,0:0:0:0:
192,192,51594,2,0,L|224:96,1,89.9999976158143,0|0,0:0|0:0,0:0:0:0:
256,32,51894,2,0,L|288:160,1,89.9999976158143,0|0,0:0|0:0,0:0:0:0:
256,256,52194,2,0,L|320:192,1,89.9999976158143,0|0,0:0|0:0,0:0:0:0:
448,192,52494,5,0,0:0:0:0:
448,192,52644,1,0,0:0:0:0:
416,224,52794,2,0,L|320:192,1,89.9999976158143
192,224,53094,2,0,L|288:192,1,89.9999976158143,0|0,0:0|0:0,0:0:0:0:
320,256,53394,2,0,L|256:160,1,89.9999976158143
192,160,53694,2,0,L|256:32,1,89.9999976158143
256,32,53994,1,0,0:0:0:0:
288,32,54294,6,0,L|320:128,1,89.9999976158143,0|0,0:0|0:0,0:0:0:0:
288,224,54594,2,0,L|320:128,1,89.9999976158143,0|0,0:0|0:0,0:0:0:0:
384,64,54894,2,0,L|384:160,1,89.9999976158143
480,224,55194,2,0,L|416:128,1,89.9999976158143
448,64,55494,2,0,L|320:128,1,89.9999976158143
288,160,55794,6,0,L|384:224,1,89.9999976158143,0|0,0:0|0:0,0:0:0:0:
512,192,56094,2,0,L|416:256,1,89.9999976158143,0|0,0:0|0:0,0:0:0:0:
288,352,56394,6,0,L|384:288,1,89.9999976158143,0|0,0:0|0:0,0:0:0:0:
512,320,56694,2,0,L|416:256,1,89.9999976158143,0|0,0:0|0:0,0:0:0:0:
288,224,56994,6,0,L|352:320,1,89.9999976158143,0|0,0:0|0:0,0:0:0:0:
430,362,57294,2,0,L|480:288,1,89.9999976158143,0|0,0:0|0:0,0:0:0:0:
256,384,57594,1,2,0:2:0:0:
35,266,57894,6,0,L|64:352,1,89.9999976158143,0|0,0:0|0:0,0:0:0:0:
224,320,58194,2,0,L|320:256,1,89.9999976158143,0|0,0:0|0:0,0:0:0:0:
352,192,58494,1,0,0:0:0:0:
184,212,58794,5,2,0:2:0:0:
476,170,59094,6,0,L|448:256,1,89.9999976158143,0|0,0:0|0:0,0:0:0:0:
288,224,59394,2,0,L|192:160,1,89.9999976158143,0|0,0:0|0:0,0:0:0:0:
160,96,59694,1,0,0:0:0:0:
352,128,59994,5,2,0:2:0:0:
160,288,60294,6,0,L|256:224,1,89.9999976158143
384,288,60594,2,0,L|288:224,1,89.9999976158143
352,96,60894,2,0,L|288:192,1,89.9999976158143
128,64,61194,2,0,L|160:160,1,89.9999976158143
96,288,61494,6,0,L|192:256,1,89.9999976158143
416,288,61794,2,0,L|352:256,1,67.4999982118607
192,352,62244,2,0,L|224:256,1,89.9999976158143,0|0,0:0|0:0,0:0:0:0:
32,352,62694,6,0,L|128:224,1,134.999996423721,0|0,0:0|0:0,0:0:0:0:
256,224,63294,6,0,L|160:192,1,89.9999976158143
0,224,63594,2,0,L|128:160,1,134.999996423721
320,128,64044,5,0,0:0:0:0:
320,160,64194,2,0,L|192:224,1,89.9999976158143
64,256,64494,2,0,L|160:160,1,134.999996423721
384,64,64994,5,0,0:0:0:0:
416,96,65094,2,0,L|352:224,1,119.999996821086,0|0,0:0|0:0,0:0:0:0:
288,192,65394,2,0,L|384:320,1,119.999996821086,0|0,0:0|0:0,0:0:0:0:
448,320,65694,2,0,L|288:384,1,119.999996821086,0|0,0:0|0:0,0:0:0:0:
256,384,65994,2,0,L|128:320,1,119.999996821086,0|0,0:0|0:0,0:0:0:0:
64,288,66294,2,0,L|192:192,1,119.999996821086
224,128,66594,2,0,L|96:192,1,134.999996423721
32,224,66894,2,0,L|192:256,1,119.999996821086
256,224,67194,5,8,1:2:0:0:
384,160,67494,2,0,L|288:224,1,89.9999976158143,4|0,1:3|1:0,1:0:0:0:
128,320,67794,2,0,L|64:160,1,134.999996423721,0|0,1:2|1:0,1:0:0:0:
256,224,68394,5,8,1:2:0:0:
128,160,68694,2,0,L|224:224,1,89.9999976158143,4|0,1:3|1:0,1:0:0:0:
384,320,68994,2,0,L|448:160,1,134.999996423721,0|0,1:2|1:0,1:0:0:0:
256,224,69594,5,8,1:2:0:0:
384,160,69894,2,0,L|288:224,1,89.9999976158143,4|0,1:3|1:0,1:0:0:0:
128,320,70194,5,2,1:2:0:0:
0,192,70494,1,2,1:2:0:0:
192,256,70794,5,8,1:2:0:0:
128,96,71094,1,2,1:2:0:0:
320,256,71394,5,2,1:2:0:0:
384,96,71694,1,2,1:2:0:0:
384,320,71994,5,8,1:2:0:0:
512,192,72294,1,2,1:2:0:0:
224,256,72594,1,2,1:2:0:0:
256,256,72744,6,0,L|288:160,1,89.9999976158143,0|0,1:0|1:0,1:0:0:0:
416,192,73044,2,0,L|256:128,1,89.9999976158143,0|8,1:0|1:2,1:0:0:0:
256,96,73344,2,0,L|288:192,1,89.9999976158143,0|0,1:0|1:0,1:0:0:0:
320,288,73644,1,0,1:0:0:0:
64,96,74094,5,0,1:0:0:0:
320,288,74394,1,8,1:2:0:0:
448,96,74694,5,0,1:0:0:0:
192,288,74994,1,0,1:0:0:0:
64,192,75294,5,0,1:0:0:0:
384,288,75594,1,8,1:2:0:0:
416,160,75894,5,0,1:0:0:0:
128,224,76194,1,0,1:0:0:0:
256,288,76494,1,4,1:3:0:0:
256,64,76794,6,0,L|256:192,1,89.9999976158143,2|0,1:0|1:0,1:0:0:0:
384,224,77094,2,0,L|384:96,1,89.9999976158143,4|0,1:3|1:0,1:0:0:0:
512,64,77394,2,0,L|512:160,1,89.9999976158143,0|0,1:0|1:0,1:0:0:0:
256,64,77994,6,0,L|256:192,1,89.9999976158143,8|0,1:2|1:0,1:0:0:0:
128,224,78294,2,0,L|128:96,1,89.9999976158143,4|0,1:3|1:0,1:0:0:0:
0,64,78594,2,0,L|0:160,1,89.9999976158143,0|0,1:0|1:0,1:0:0:0:
352,192,79194,6,0,L|224:192,1,89.9999976158143,8|0,1:2|1:0,1:0:0:0:
160,192,79494,2,0,L|288:191,1,89.9999976158143,4|0,1:3|1:0,1:0:0:0:
320,192,79794,5,2,1:2:0:0:
160,256,80094,1,2,1:2:0:0:
320,320,80394,1,8,1:2:0:0:
160,256,80694,1,2,1:2:0:0:
320,192,80994,5,2,1:2:0:0:
160,128,81294,1,2,1:2:0:0:
320,64,81594,1,8,1:2:0:0:
160,128,81894,1,2,1:2:0:0:
320,192,82194,1,2,1:2:0:0:
96,288,82494,6,0,L|192:224,1,89.9999976158143,0|0,1:0|1:0,1:0:0:0:
416,96,82794,2,0,L|320:160,1,89.9999976158143,8|0,1:2|1:0,1:0:0:0:
96,96,83094,2,0,L|192:160,1,89.9999976158143,0|0,1:0|1:0,1:0:0:0:
416,288,83394,2,0,L|320:224,1,89.9999976158143,0|0,1:0|1:0,1:0:0:0:
192,32,83694,5,0,1:0:0:0:
320,352,83994,1,8,1:2:0:0:
320,32,84294,5,0,1:0:0:0:
192,352,84594,1,0,1:0:0:0:
128,128,84894,5,0,1:0:0:0:
448,256,85194,1,8,1:2:0:0:
416,96,85494,5,0,1:0:0:0:
160,256,85794,1,0,1:0:0:0:
32,96,86094,5,4,0:3:0:0:
320,224,86394,1,2,1:0:0:0:
32,224,86694,6,0,L|64:128,1,67.5000007867814,0|0,1:0|1:0,1:0:0:0:
64,96,86994,2,0,L|160:224,1,134.999996423721,0|0,1:0|1:0,1:0:0:0:
160,320,87594,6,0,L|192:160,1,119.999996821086,0|0,1:0|1:0,1:0:0:0:
224,128,87894,2,0,L|288:256,1,119.999996821086,0|0,1:0|1:0,1:0:0:0:
352,288,88194,2,0,L|384:128,1,119.999996821086,0|0,1:0|1:0,1:0:0:0:
448,128,88494,5,0,1:0:0:0:
480,160,88794,2,0,L|416:288,1,119.999996821086,0|0,1:0|1:0,1:0:0:0:
416,352,89094,2,0,L|256:288,1,119.999996821086,0|0,1:0|1:0,1:0:0:0:
224,352,89394,2,0,L|128:256,1,119.999996821086,0|0,1:0|1:0,1:0:0:0:
64,320,89694,2,0,L|96:192,1,119.999996821086,0|0,1:0|1:0,1:0:0:0:
160,192,89994,2,0,L|96:64,1,119.999996821086,0|0,1:0|1:0,1:0:0:0:
32,32,90294,5,0,1:0:0:0:
0,64,90594,2,0,L|32:192,1,119.999996821086,0|0,1:0|1:0,1:0:0:0:
64,256,90894,6,0,L|160:160,1,119.999996821086,0|0,1:0|1:0,1:0:0:0:
224,64,91194,2,0,L|96:128,1,135.000001573563,0|0,1:0|1:0,1:0:0:0:
96,160,91994,5,0,1:0:0:0:
128,192,92094,2,0,L|224:96,1,119.999996821086,0|0,1:0|1:0,1:0:0:0:
320,64,92394,2,0,L|192:0,1,119.999996821086,0|0,1:0|1:0,1:0:0:0:
256,192,92894,5,0,1:0:0:0:
288,224,92994,2,0,L|384:128,1,119.999996821086,0|0,1:0|1:0,1:0:0:0:
448,64,93294,5,0,1:0:0:0:
256,192,93594,1,0,1:0:0:0:
384,96,93794,5,0,1:0:0:0:
416,128,93894,2,0,L|384:256,1,119.999996821086,0|0,1:0|1:0,1:0:0:0:
288,224,94194,2,0,L|352:352,1,119.999996821086,0|0,1:0|1:0,1:0:0:0:
448,320,94494,2,0,L|480:256,2,59.9999984105428,0|0|0,1:0|1:0|1:0,1:0:0:0:
384,384,94794,2,0,L|224:320,1,119.999996821086,0|0,1:0|1:0,1:0:0:0:
96,352,95294,5,0,1:0:0:0:
64,320,95394,2,0,L|128:192,1,119.999996821086,0|0,1:0|1:0,1:0:0:0:
192,256,95694,2,0,L|96:160,1,119.999996821086,0|0,1:0|1:0,1:0:0:0:
32,224,95994,2,0,L|96:96,1,119.999996821086,0|0,1:0|1:0,1:0:0:0:
64,32,96294,6,0,L|128:128,1,89.9999976158143,0|0,1:0|1:0,1:0:0:0:
288,352,96594,1,0,1:0:0:0:
384,96,96894,5,0,1:0:0:0:
160,288,97194,1,0,1:0:0:0:
416,224,97494,2,0,L|320:160,1,89.9999976158143,0|0,1:0|1:0,1:0:0:0:
160,64,97794,6,0,L|224:192,1,89.9999976158143,0|0,1:0|1:0,1:0:0:0:
288,320,98094,1,0,1:0:0:0:
160,352,98394,1,0,1:0:0:0:
416,288,98694,6,0,L|320:192,1,89.9999976158143,0|0,1:0|1:0,1:0:0:0:
192,192,98994,2,0,L|288:224,1,89.9999976158143,0|0,1:0|1:0,1:0:0:0:
512,160,99294,2,0,L|416:192,1,89.9999976158143,0|0,1:0|1:0,1:0:0:0:
352,224,99594,1,0,1:0:0:0:
352,224,99894,6,0,L|416:352,1,89.9999976158143,0|0,1:0|1:0,1:0:0:0:
512,352,100194,2,0,L|426:285,1,89.9999976158143,0|0,1:0|1:0,1:0:0:0:
320,352,100494,2,0,L|416:320,1,89.9999976158143,0|0,1:0|1:0,1:0:0:0:
512,288,100794,1,0,1:0:0:0:
384,352,101094,6,0,L|288:320,1,89.9999976158143,0|0,1:0|1:0,1:0:0:0:
224,352,101394,2,0,L|160:256,1,89.9999976158143,0|0,1:0|1:0,1:0:0:0:
64,320,101694,2,0,L|96:224,1,89.9999976158143,0|0,1:0|1:0,1:0:0:0:
32,160,101994,5,0,1:0:0:0:
320,256,102294,1,0,1:0:0:0:
96,128,102594,5,8,1:2:0:0:
416,128,102894,1,8,1:2:0:0:
444,74,105294,6,0,L|416:160,1,89.9999976158143,0|0,1:0|1:0,1:0:0:0:
288,224,105894,6,0,L|320:128,1,89.9999976158143,0|0,1:0|1:0,1:0:0:0:
480,128,106194,2,0,L|352:160,1,119.999996821086,0|0,1:0|1:0,1:0:0:0:
256,192,106794,5,0,1:0:0:0:
160,160,106994,2,0,L|192:96,2,59.9999984105428,0|0|0,1:0|1:0|1:0,1:0:0:0:
288,192,107394,6,0,L|192:160,1,89.9999976158143,0|0,1:0|1:0,1:0:0:0:
128,256,107694,2,0,L|96:160,1,89.9999976158143,0|0,1:0|1:0,1:0:0:0:
0,192,107994,1,0,1:0:0:0:
0,256,108744,6,0,L|32:160,1,89.9999976158143,0|0,1:0|1:0,1:0:0:0:
192,288,109194,2,0,L|160:192,2,89.9999976158143,0|0|0,1:0|1:0|1:0,1:0:0:0:
64,256,109794,6,0,L|64:192,2,59.9999984105428,0|0|0,1:0|1:0|1:0,1:0:0:0:
64,320,110094,2,0,L|128:224,1,89.9999976158143,0|0,1:0|1:0,1:0:0:0:
160,160,110394,1,0,1:0:0:0:
32,352,110994,6,0,L|64:256,1,89.9999976158143,0|0,1:0|1:0,1:0:0:0:
96,32,111294,2,0,L|128:160,1,89.9999976158143,0|0,1:0|1:0,1:0:0:0:
256,352,111594,6,0,L|160:160,1,179.999995231629,0|0,1:0|1:0,1:0:0:0:
0,288,112194,6,0,L|96:256,1,89.9999976158143,0|0,1:0|1:0,1:0:0:0:
320,224,112494,2,0,L|224:192,1,89.9999976158143,0|0,1:0|1:0,1:0:0:0:
64,128,112794,6,0,L|256:64,1,179.999995231629,0|0,1:0|1:0,1:0:0:0:
320,32,113244,5,0,1:0:0:0:
352,32,113394,2,0,L|288:128,1,89.9999976158143,0|0,1:0|1:0,1:0:0:0:
160,256,113694,2,0,L|320:192,1,89.9999976158143,0|0,1:0|1:0,1:0:0:0:
512,160,113994,6,0,L|320:64,1,179.999995231629,0|0,1:0|1:0,1:0:0:0:
256,64,114444,5,0,1:0:0:0:
224,96,114594,2,0,L|288:160,1,89.9999976158143,0|0,1:0|1:0,1:0:0:0:
512,224,114894,2,0,L|448:128,1,89.9999976158143,0|0,1:0|1:0,1:0:0:0:
256,224,115194,6,0,L|416:256,1,135.000001573563,0|0,1:0|1:0,1:0:0:0:
192,320,116094,6,0,L|320:288,1,89.9999976158143,0|0,1:0|1:0,1:0:0:0:
480,288,116394,2,0,L|352:256,1,89.9999976158143,0|0,1:0|1:0,1:0:0:0:
256,128,116694,2,0,L|320:224,1,89.9999976158143,0|0,1:0|1:0,1:0:0:0:
224,352,116994,6,0,L|320:320,1,67.5000007867814,0|0,1:0|1:0,1:0:0:0:
416,320,117294,2,0,L|320:288,1,67.5000007867814,0|0,1:0|1:0,1:0:0:0:
160,256,117594,2,0,L|320:352,1,179.999995231629,0|0,1:0|1:0,1:0:0:0:
32,352,118494,6,0,L|128:320,1,89.9999976158143,0|0,1:0|1:0,1:0:0:0:
288,288,118794,2,0,L|192:256,1,89.9999976158143,0|0,1:0|1:0,1:0:0:0:
32,160,119094,2,0,L|64:256,1,89.9999976158143,0|0,1:0|1:0,1:0:0:0:
160,384,119394,6,0,L|192:320,1,67.5000007867814,0|0,1:0|1:0,1:0:0:0:
320,256,119694,2,0,L|224:288,1,67.5000007867814,0|0,1:0|1:0,1:0:0:0:
32,320,119994,2,0,L|160:192,1,179.999995231629,0|0,1:0|1:0,1:0:0:0:
352,256,120894,6,0,L|256:224,1,89.9999976158143,0|0,1:0|1:0,1:0:0:0:
64,256,121194,2,0,L|160:192,1,89.9999976158143,0|0,1:0|1:0,1:0:0:0:
224,288,121494,2,0,L|160:192,1,89.9999976158143,0|0,1:0|1:0,1:0:0:0:
0,224,121794,2,0,L|34:140,1,89.9999976158143,0|0,1:0|1:0,1:0:0:0:
64,32,122094,6,0,L|96:96,1,67.5000007867814,0|0,1:0|1:0,1:0:0:0:
224,288,122394,2,0,L|160:96,1,179.999995231629,0|0,1:0|1:0,1:0:0:0:
160,96,123294,6,2,L|192:96,1,22.4999994039536,2|2,1:2|1:2,1:2:0:0:
352,160,123594,2,2,L|320:160,1,22.4999994039536,2|2,1:2|1:2,1:2:0:0:
160,224,123894,2,2,L|192:224,1,22.4999994039536,2|2,1:2|1:2,1:2:0:0:
352,288,124194,2,2,L|320:288,1,22.4999994039536,2|2,1:2|1:2,1:2:0:0:
160,352,124494,2,2,L|192:352,1,22.4999994039536,2|2,1:2|1:2,1:2:0:0:
480,352,124794,6,0,L|352:256,1,89.9999976158143,8|0,1:2|1:0,1:0:0:0:
224,384,125094,2,0,L|352:352,1,89.9999976158143,4|0,1:3|1:0,1:0:0:0:
416,384,125394,2,0,L|256:288,1,179.999995231629,0|0,1:0|1:0,1:0:0:0:
32,352,125994,6,0,L|160:256,1,89.9999976158143,8|0,1:2|1:0,1:0:0:0:
320,320,126294,2,0,L|192:288,1,89.9999976158143,4|0,1:3|1:0,1:0:0:0:
128,320,126594,2,0,L|288:224,1,179.999995231629,0|0,1:0|1:0,1:0:0:0:
384,256,127194,6,0,L|320:160,1,89.9999976158143,8|0,1:2|1:0,1:0:0:0:
128,256,127494,2,4,L|192:160,1,89.9999976158143,4|4,1:3|1:3,1:3:0:0:
416,160,127794,5,2,1:2:0:0:
128,256,128094,1,2,1:2:0:0:
64,128,128394,5,8,1:2:0:0:
416,256,128694,1,2,1:2:0:0:
512,128,128994,5,2,1:2:0:0:
224,256,129294,1,2,1:2:0:0:
128,128,129594,5,8,1:2:0:0:
384,224,129894,1,2,1:2:0:0:
128,320,130194,1,2,1:2:0:0:
128,288,130344,6,0,L|160:192,1,89.9999976158143,0|0,1:0|1:0,1:0:0:0:
192,128,130644,2,0,L|256:224,1,89.9999976158143,0|8,1:0|1:2,1:0:0:0:
320,288,130944,2,0,L|160:224,1,89.9999976158143,0|0,1:0|1:0,1:0:0:0:
96,192,131244,1,0,1:0:0:0:
96,32,131694,5,0,1:0:0:0:
192,352,131994,1,8,1:2:0:0:
256,96,132294,5,0,1:0:0:0:
96,352,132594,1,0,1:0:0:0:
128,128,132894,5,0,1:0:0:0:
288,384,133194,1,8,1:2:0:0:
320,32,133494,5,0,1:0:0:0:
256,288,133794,1,0,1:0:0:0:
224,32,134094,5,4,1:3:0:0:
128,224,134394,2,0,L|96:32,1,179.999995231629,2|4,1:0|1:3,1:0:0:0:
192,256,134994,1,0,1:0:0:0:
384,256,135594,6,0,L|416:32,1,179.999995231629,8|4,1:2|1:3,1:0:0:0:
320,288,136194,1,0,1:0:0:0:
128,352,136794,6,0,L|96:160,1,179.999995231629,8|4,1:2|1:3,1:0:0:0:
192,384,137394,1,2,1:2:0:0:
165,178,137694,1,2,1:2:0:0:
32,320,137994,5,8,1:2:0:0:
256,224,138294,1,2,1:2:0:0:
96,160,138594,5,2,1:2:0:0:
320,288,138894,1,2,1:2:0:0:
384,64,139194,5,8,1:2:0:0:
96,192,139494,1,2,1:2:0:0:
416,224,139794,1,2,1:2:0:0:
64,352,140094,6,0,L|96:256,1,89.9999976158143,0|0,1:0|1:0,1:0:0:0:
256,256,140394,2,0,L|160:192,1,89.9999976158143,8|0,1:2|1:0,1:0:0:0:
0,224,140694,2,0,L|96:160,1,89.9999976158143,0|0,1:0|1:0,1:0:0:0:
192,64,140994,2,0,L|138:177,1,89.9999976158143,0|0,1:0|1:0,1:0:0:0:
96,288,141294,5,0,1:0:0:0:
352,160,141594,1,8,1:2:0:0:
352,320,141894,5,0,1:0:0:0:
224,32,142194,1,0,1:0:0:0:
192,352,142494,5,0,1:0:0:0:
320,96,142794,1,8,1:2:0:0:
416,224,143094,5,0,1:0:0:0:
128,160,143394,1,0,1:0:0:0:
384,320,143694,5,4,1:3:0:0:
160,256,143994,2,0,L|335:363,1,179.999995231629,2|0,1:0|1:0,1:0:0:0:
160,352,146844,6,0,L|288:256,1,119.999996821086,2|8,1:3|1:3,1:3:0:0:
384,192,147150,2,8,L|256:288,1,119.999996821086,8|8,1:3|1:3,1:3:0:0:
160,192,147457,2,0,L|288:288,1,119.999996821086,8|8,1:3|1:3,1:3:0:0:
384,352,147763,1,8,1:2:0:0:
268,144,148223,6,0,L|224:256,1,119.999996821086,2|8,1:3|1:3,1:3:0:0:
192,352,148529,1,8,1:3:0:0:
192,320,148683,6,0,L|96:192,1,119.999996821086,10|8,1:3|1:3,1:3:0:0:
32,96,148989,2,0,L|128:224,1,119.999996821086,8|8,1:3|1:3,1:3:0:0:
32,320,149296,2,0,L|128:192,1,119.999996821086,8|8,1:3|1:3,1:3:0:0:
192,96,149602,1,8,1:2:0:0:
352,32,150522,6,0,L|224:128,1,119.999996821086,2|8,1:3|1:3,1:3:0:0:
128,192,150828,2,0,L|256:96,1,119.999996821086,8|8,1:3|1:3,1:3:0:0:
352,192,151135,2,0,L|224:96,1,119.999996821086,8|8,1:3|1:3,1:3:0:0:
128,32,151441,1,8,1:2:0:0:
243,239,151901,6,0,L|288:128,1,119.999996821086,2|8,1:3|1:3,1:3:0:0:
320,32,152207,1,8,1:3:0:0:
320,64,152361,6,0,L|416:192,1,119.999996821086,10|8,1:3|1:3,1:3:0:0:
480,288,152667,2,8,L|384:160,1,119.999996821086,8|8,1:3|1:3,1:3:0:0:
480,64,152974,2,0,L|384:192,1,119.999996821086,8|8,1:3|1:3,1:3:0:0:
320,288,153293,5,8,1:2:0:0:
416,0,153766,1,8,1:2:0:0:
416,288,154240,6,0,L|384:160,1,119.999996821086,2|8,1:3|1:3,1:3:0:0:
224,128,154546,2,0,L|320:224,1,119.999996821086,8|8,1:3|1:3,1:3:0:0:
192,352,154853,2,0,L|256:224,1,119.999996821086,8|8,1:3|1:3,1:3:0:0:
320,96,155159,1,8,1:2:0:0:
32,224,155619,6,0,L|160:192,1,119.999996821086,2|8,1:3|1:3,1:3:0:0:
288,160,155925,1,8,1:3:0:0:
128,288,156079,6,0,L|192:160,1,119.999996821086,10|8,1:3|1:3,1:3:0:0:
288,96,156385,2,0,L|160:160,1,119.999996821086,8|8,1:3|1:3,1:3:0:0:
32,192,156692,2,0,L|192:224,1,119.999996821086,8|8,1:3|1:3,1:3:0:0:
320,256,156998,1,8,1:2:0:0:
480,192,157918,6,0,L|352:288,1,119.999996821086,2|8,1:3|1:3,1:3:0:0:
256,320,158224,2,0,L|416:352,1,119.999996821086,8|8,1:3|1:3,1:3:0:0:
480,320,158530,2,0,L|352:352,1,119.999996821086,8|8,1:3|1:3,1:3:0:0:
224,384,158836,1,8,1:2:0:0:
64,352,159295,6,0,L|160:224,1,119.999996821086,2|8,1:3|1:3,1:3:0:0:
192,192,159601,1,8,1:3:0:0:
320,352,159754,6,8,L|192:192,1,119.999996821086,10|8,1:3|1:3,1:3:0:0:
192,192,160059,1,8,1:3:0:0:
96,352,160213,6,0,L|192:224,1,119.999996821086,10|8,1:3|1:3,1:3:0:0:
96,160,160519,2,0,L|64:288,1,119.999996821086,8|8,1:3|1:2,1:3:0:0:
192,352,160826,2,8,L|128:224,1,119.999996821086,4|4,1:3|1:3,1:3:0:0:
64,96,161132,1,8,1:2:0:0:
160,320,167059,6,0,L|250:186,1,119.999996821086,2|8,1:3|1:3,1:3:0:0:
320,224,167365,2,0,L|192:128,1,119.999996821086,8|8,1:3|1:3,1:3:0:0:
128,160,167672,2,0,L|259:189,1,119.999996821086,8|8,1:3|1:3,1:3:0:0:
416,224,167978,1,8,1:2:0:0:
96,288,168438,6,0,L|160:128,1,119.999996821086,2|8,1:3|1:3,1:3:0:0:
160,128,168744,1,8,1:3:0:0:
160,352,168898,6,0,L|224:192,1,119.999996821086,10|8,1:3|1:3,1:3:0:0:
384,160,169204,2,0,L|224:256,1,119.999996821086,8|8,1:3|1:3,1:3:0:0:
128,256,169511,2,8,L|256:128,1,119.999996821086,8|8,1:3|1:3,1:3:0:0:
320,32,169817,5,8,1:2:0:0:
352,352,170277,1,2,1:0:0:0:
192,96,170737,6,0,L|288:224,1,119.999996821086,2|8,1:3|1:3,1:3:0:0:
384,256,171043,2,0,L|224:192,1,119.999996821086,8|8,1:3|1:3,1:3:0:0:
128,352,171350,2,0,L|288:320,1,119.999996821086,8|8,1:3|1:3,1:3:0:0:
448,288,171656,1,8,1:2:0:0:
160,96,172130,6,0,L|256:192,1,119.999996821086,2|8,1:3|1:3,1:3:0:0:
352,288,172427,1,8,1:3:0:0:
480,192,172576,6,0,L|384:64,1,119.999996821086,10|8,1:3|1:3,1:3:0:0:
352,0,172874,2,8,L|320:128,1,119.999996821086,8|8,1:3|1:3,1:3:0:0:
256,224,173172,2,0,L|416:128,1,119.999996821086,8|8,1:3|1:3,1:3:0:0:
416,128,173525,5,8,1:2:0:0:
128,288,173978,1,8,1:2:0:0:
384,352,174455,6,0,L|256:320,1,119.999996821086,2|8,1:1|1:3,1:3:0:0:
96,352,174761,2,0,L|224:320,1,119.999996821086,8|8,1:3|1:3,1:3:0:0:
416,288,175068,2,0,L|288:256,1,119.999996821086,8|8,1:3|1:3,1:3:0:0:
160,224,175374,1,8,1:2:0:0:
0,384,175834,6,0,L|64:256,1,119.999996821086,2|8,1:3|1:3,1:3:0:0:
96,192,176140,1,8,1:3:0:0:
192,288,176294,6,0,L|96:160,1,119.999996821086,10|8,1:3|1:3,1:3:0:0:
0,96,176600,2,0,L|32:256,1,119.999996821086,8|8,1:3|1:3,1:3:0:0:
64,352,176907,2,0,L|128:160,1,119.999996821086,8|8,1:3|1:3,1:3:0:0:
160,64,177213,1,8,1:2:0:0:
448,128,178133,6,0,L|320:256,1,119.999996821086,2|8,1:3|1:3,1:3:0:0:
192,224,178439,2,0,L|320:224,1,119.999996821086,8|8,1:3|1:3,1:3:0:0:
448,320,178745,2,0,L|352:224,1,119.999996821086,8|8,1:3|1:3,1:3:0:0:
224,96,179051,1,8,1:2:0:0:
480,256,179510,6,0,L|352:160,1,119.999996821086,2|8,1:3|1:3,1:3:0:0:
288,128,179816,1,8,1:3:0:0:
320,352,179969,6,0,L|297:193,1,119.999996821086,10|8,1:3|1:3,1:3:0:0:
288,128,180275,1,8,1:3:0:0:
128,320,180428,6,0,L|224:192,1,119.999996821086,10|8,1:3|1:3,1:3:0:0:
384,128,180734,2,8,L|256:224,1,119.999996821086,8|8,1:3|1:2,1:3:0:0:
96,160,181041,2,0,L|224:192,1,119.999996821086,12|12,1:3|1:3,1:3:0:0:
384,224,181347,1,8,1:2:0:0:
