osu file format v14

[General]
AudioFilename: audio.mp3
AudioLeadIn: 0
PreviewTime: 48230
Countdown: 1
SampleSet: Normal
StackLeniency: 0.7
Mode: 0
LetterboxInBreaks: 0
WidescreenStoryboard: 0

[Editor]
Bookmarks: 9830,72230
DistanceSpacing: 0.8
BeatDivisor: 4
GridSize: 4
TimelineZoom: 2.2

[Metadata]
Title:Sleep Talk
TitleUnicode:Sleep Talk
Artist:MAMAMOO
ArtistUnicode:MAMAMOO
Creator:-Moonbyul-
Version:Sleep Walk
Source:
Tags:
BeatmapID:2058987
BeatmapSetID:984051

[Difficulty]
HPDrainRate:6
CircleSize:4
OverallDifficulty:7.5
ApproachRate:8.5
SliderMultiplier:1.4
SliderTickRate:1

[Events]
//Background and Video events
0,0,"FUCKIN MOONBYUL.jpg",0,0
//Break Periods
//Storyboard Layer 0 (Background)
//Storyboard Layer 1 (Fail)
//Storyboard Layer 2 (Pass)
//Storyboard Layer 3 (Foreground)
//Storyboard Sound Samples

[TimingPoints]
230,600,4,1,0,60,1,0
230,-153.846153846154,4,1,0,60,0,0
2480,-153.846153846154,4,1,0,5,0,0
2630,-153.846153846154,4,1,0,60,0,0
4880,-153.846153846154,4,1,0,5,0,0
5030,-153.846153846154,4,1,0,60,0,0
6080,-153.846153846154,4,1,0,5,0,0
6230,-153.846153846154,4,1,0,60,0,0
8180,-153.846153846154,4,1,0,5,0,0
8330,-153.846153846154,4,1,0,75,0,0
9830,-133.333333333333,4,1,0,45,0,0
23480,-117.647058823529,4,1,0,45,0,0
29030,-90.9090909090909,4,1,0,45,0,0
45830,-66.6666666666667,4,1,0,45,0,0
46430,-100,4,1,0,45,0,0
47030,-200,4,1,0,45,0,0
47630,-333.333333333333,4,1,0,45,0,0
48230,-50,4,1,0,45,0,1
53030,-40,4,1,0,45,0,1
57830,-44.4444444444445,4,1,0,45,0,1
62630,-40,4,1,0,45,0,1
66530,-44.4444444444445,4,1,0,45,0,1
67430,-100,4,1,0,45,0,0
86630,-90.9090909090909,4,1,0,45,0,0
104030,-111.111111111111,4,1,0,45,0,0
104480,-133.333333333333,4,1,0,45,0,0
105230,-200,4,1,0,45,0,0
105830,-43.4782608695652,4,1,0,45,0,1
110630,-37.037037037037,4,1,0,45,0,1
112430,-43.4782608695652,4,1,0,45,0,1
113030,-37.037037037037,4,1,0,45,0,1
114530,-43.4782608695652,4,1,0,45,0,1
120230,-37.037037037037,4,1,0,45,0,1
124130,-66.6666666666667,4,1,0,45,0,1
125030,-80,4,1,0,45,0,0
144230,-40,4,1,0,45,0,1
149030,-35.7142857142857,4,1,0,45,0,1
150530,-40,4,1,0,45,0,1
151430,-35.7142857142857,4,1,0,45,0,1
152930,-40,4,1,0,45,0,1
158630,-35.7142857142857,4,1,0,45,0,1
162530,-40,4,1,0,45,0,1
163430,-37.7358490566038,4,1,0,45,0,1
168230,-33.3333333333333,4,1,0,45,0,1
170030,-37.7358490566038,4,1,0,45,0,1
172130,-37.7358490566038,4,1,0,45,0,1
177830,-33.3333333333333,4,1,0,45,0,1
180530,-36.3636363636364,4,1,0,45,0,1
180830,-40,4,1,0,45,0,1
181130,-44.4444444444445,4,1,0,45,0,1
181430,-50,4,1,0,45,0,1
181730,-50,4,1,0,45,0,0

[HitObjects]
60,146,230,6,0,B|114:121|191:152|191:152|187:99|204:63|234:39|277:26|327:34,1,341.249984378815
291,134,2630,2,0,B|347:204|421:152|421:152|448:211|365:227|391:279|458:328,1,341.249984378815
309,313,5030,6,0,B|255:291|212:324|212:324|175:264,1,159.249992710114
144,152,6230,5,0,0:0:0:0:
114,189,6830,1,0,0:0:0:0:
132,240,7430,2,0,B|151:290|148:318|148:318|124:303|106:274,1,136.499993751526
106,129,8630,5,0,0:0:0:0:
200,59,8930,1,0,0:0:0:0:
239,162,9230,1,0,0:0:0:0:
338,87,9530,1,0,0:0:0:0:
379,199,9830,5,0,0:0:0:0:
281,300,10130,2,0,L|207:290,1,52.5000020027161
98,208,10730,1,0,0:0:0:0:
98,208,10880,1,0,0:0:0:0:
98,208,11030,2,0,L|85:254,1,26.2500010013581
14,177,11330,2,0,L|28:130,1,26.2500010013581
55,53,11630,1,0,0:0:0:0:
150,114,11930,1,0,0:0:0:0:
253,50,12230,6,0,L|366:72,1,105.000004005432
356,70,13130,1,0,0:0:0:0:
281,150,13430,1,0,0:0:0:0:
337,209,13730,1,0,0:0:0:0:
291,265,14030,1,0,0:0:0:0:
332,307,14330,1,0,0:0:0:0:
142,343,14630,5,0,0:0:0:0:
142,343,14930,2,0,L|102:290,1,52.5000020027161
68,164,15530,1,0,0:0:0:0:
68,164,15680,1,0,0:0:0:0:
68,164,15830,2,0,L|114:171,1,26.2500010013581
231,121,16130,2,0,L|182:113,1,26.2500010013581
88,96,16430,1,0,0:0:0:0:
226,48,16730,1,0,0:0:0:0:
378,97,17030,6,0,L|356:155,1,52.5000020027161
373,169,17630,1,0,0:0:0:0:
119,224,17930,2,0,L|213:249,1,78.7500030040742
205,77,18530,1,0,0:0:0:0:
205,77,18830,2,0,L|135:96,1,52.5000020027161
34,269,19430,5,0,0:0:0:0:
197,289,19730,1,0,0:0:0:0:
197,289,20030,2,0,L|245:296,1,26.2500010013581
300,259,20330,1,0,0:0:0:0:
394,332,20630,1,0,0:0:0:0:
423,342,20780,1,0,0:0:0:0:
454,337,20930,2,0,L|486:305,1,26.2500010013581
466,190,21230,2,0,L|434:215,1,26.2500010013581
300,259,21530,2,0,P|318:244|321:189,1,78.7500030040742
270,86,22130,2,0,L|328:98,1,52.5000020027161
169,70,22730,5,0,0:0:0:0:
92,106,23030,1,0,0:0:0:0:
36,66,23330,1,0,0:0:0:0:
77,205,23630,6,0,P|71:229|70:242,1,29.7500005674362
165,266,23930,2,0,P|155:306|146:319,1,29.7500005674362
73,349,24230,1,0,0:0:0:0:
222,329,24530,1,0,0:0:0:0:
329,355,24830,1,0,0:0:0:0:
343,350,25130,1,0,0:0:0:0:
454,331,25430,1,0,0:0:0:0:
409,235,25730,6,0,L|341:248,1,59.5000011348725
270,254,26330,2,0,P|273:208|276:198,1,29.7500005674362
373,77,26630,5,0,0:0:0:0:
253,42,26930,1,0,0:0:0:0:
150,99,27230,1,0,0:0:0:0:
136,110,27530,1,0,0:0:0:0:
6,61,27830,1,0,0:0:0:0:
10,266,28130,5,0,0:0:0:0:
222,202,28430,1,0,0:0:0:0:
376,66,29030,6,0,B|405:128|340:128|383:202,1,115.50000352478
355,290,29630,6,0,P|309:255|276:250,1,77.0000023498536
311,179,30230,2,0,P|264:183|223:208,1,77.0000023498536
42,232,30830,1,0,0:0:0:0:
81,97,31130,6,0,L|69:84,6,9.6250002937317
95,114,31430,6,0,P|133:128|181:123,1,77.0000023498536
281,100,31880,1,0,0:0:0:0:
281,100,32030,2,0,P|338:83|370:83,1,77.0000023498536
387,254,32630,2,0,P|353:223|342:191,1,77.0000023498536
283,252,33230,1,0,0:0:0:0:
115,307,33530,6,0,L|110:323,6,9.6250002937317
122,278,33830,6,0,P|122:243|111:199,1,77.0000023498536
204,96,34430,2,0,P|262:102|293:125,1,77.0000023498536
339,52,35030,2,0,P|377:85|391:128,1,77.0000023498536
397,193,35630,1,0,0:0:0:0:
445,299,35930,6,0,L|458:295,6,9.6250002937317
411,314,36230,5,0,0:0:0:0:
309,281,36530,1,0,0:0:0:0:
208,306,36830,1,0,0:0:0:0:
65,197,37130,6,0,B|126:213|116:164|205:193,1,115.50000352478
189,109,37730,1,0,0:0:0:0:
224,208,38030,1,0,0:0:0:0:
393,259,38330,6,0,L|386:274,6,9.6250002937317
386,231,38630,6,0,P|384:188|406:144,1,77.0000023498536
255,60,39230,2,0,P|213:89|196:123,1,77.0000023498536
127,90,39830,2,0,P|129:143|149:177,1,77.0000023498536
208,255,40430,1,0,0:0:0:0:
83,320,40730,6,0,L|96:329,6,9.6250002937317
60,314,41030,2,0,P|39:278|33:234,1,77.0000023498536
36,119,41480,1,0,0:0:0:0:
36,119,41630,2,0,P|84:134|122:126,1,77.0000023498536
230,102,42230,2,0,P|300:79|331:85,1,77.0000023498536
407,99,42830,1,0,0:0:0:0:
460,236,43130,6,0,L|474:228,5,9.6250002937317
432,239,43430,2,0,P|405:239|357:266,1,77.0000023498536
312,335,43880,1,0,0:0:0:0:
312,335,44030,2,0,P|281:292|280:258,1,77.0000023498536
265,184,44630,2,0,P|241:135|215:114,1,77.0000023498536
127,73,45230,1,0,0:0:0:0:
43,170,45530,6,0,L|37:155,6,9.6250002937317
42,203,45830,6,0,P|112:188|156:149,1,105.000004005432
188,234,46280,1,0,0:0:0:0:
188,234,46430,2,0,P|222:185|226:136,1,105
310,152,47030,2,0,P|298:113|285:95,1,52.5
363,69,47630,2,0,P|356:59|336:42,1,31.4999990386963
451,97,48230,6,0,L|408:232,1,140
482,226,48680,1,0,0:0:0:0:
447,289,48830,2,0,L|299:320,1,140
136,110,49430,2,0,L|150:202,1,70
225,72,49730,2,0,L|217:145,1,70
46,61,50030,2,0,L|63:143,1,70
313,28,50330,2,0,L|298:100,1,70
338,308,50630,6,0,L|198:284,1,140
216,354,51080,1,0,0:0:0:0:
152,333,51230,2,0,L|100:190,1,140
74,115,51830,5,0,0:0:0:0:
255,45,52130,1,0,0:0:0:0:
262,56,52280,1,0,0:0:0:0:
270,67,52430,2,0,L|310:138,1,70
383,154,52730,1,0,0:0:0:0:
235,187,53030,6,0,P|191:174|124:190,1,87.5
103,329,53330,2,0,P|145:308|172:269,1,87.5
277,187,53630,2,0,P|321:174|388:190,1,87.5
409,329,53930,2,0,P|367:308|340:269,1,87.5
255,263,54230,2,0,L|255:354,1,87.5
254,187,54530,5,0,0:0:0:0:
343,276,54830,2,0,L|325:180,1,87.5
164,378,55130,2,0,L|182:288,1,87.5
235,196,55430,6,0,P|193:209|150:205,1,87.5
102,54,55728,2,0,P|142:73|168:107,1,87.5
276,196,56028,2,0,P|318:209|361:205,1,87.5
409,54,56329,2,0,P|369:73|343:107,1,87.5
255,121,56630,2,0,L|255:33,1,87.5
225,181,56930,6,0,P|200:239|227:285,1,87.5
252,326,57230,2,0,P|171:333|93:278,1,175
41,58,57830,6,0,L|214:95,1,157.500006008148
271,35,58280,1,0,0:0:0:0:
303,117,58430,2,0,L|172:237,1,157.500006008148
127,284,58880,5,0,0:0:0:0:
163,306,59030,1,0,0:0:0:0:
288,258,59330,2,0,P|326:274|362:327,1,78.7500030040742
394,241,59630,2,0,P|419:279|422:318,1,78.7500030040742
492,273,59930,2,0,P|496:309|480:359,1,78.7500030040742
486,152,60230,6,0,L|309:121,1,157.500006008148
266,183,60680,1,0,0:0:0:0:
222,103,60830,2,0,B|132:79|139:130|40:91,1,157.500006008148
65,98,61430,1,0,0:0:0:0:
119,28,61730,6,0,L|206:22,1,78.7500030040742
176,178,62030,1,0,0:0:0:0:
212,191,62330,1,0,0:0:0:0:
433,63,62630,6,0,P|384:68|343:99,1,87.5
492,173,62930,2,0,P|466:173|414:139,1,87.5
433,321,63230,2,0,P|384:316|343:285,1,87.5
492,211,63530,2,0,P|466:211|414:245,1,87.5
392,192,63830,2,0,L|304:192,1,87.5
266,77,64130,5,0,0:0:0:0:
251,113,64430,1,0,0:0:0:0:
262,161,64730,1,0,0:0:0:0:
79,63,65030,6,0,P|128:68|169:99,1,87.5
20,173,65330,2,0,P|46:173|98:139,1,87.5
79,321,65630,2,0,P|128:316|169:285,1,87.5
20,211,65930,2,0,P|46:211|98:245,1,87.5
120,192,66230,2,0,L|208:192,1,87.5
291,147,66530,6,0,P|320:193|353:212,1,78.7500030040742
386,139,66830,2,0,P|421:191|266:251,1,236.250009012223
287,264,67430,1,0,0:0:0:0:
168,130,68330,6,0,P|201:88|222:74,1,70
270,153,68830,2,0,L|325:152,2,46.6666666666667
206,214,69530,1,0,0:0:0:0:
96,308,69830,6,0,B|170:281|170:347|261:296,1,140
334,318,70730,1,0,0:0:0:0:
381,247,71030,1,0,0:0:0:0:
336,186,71330,1,0,0:0:0:0:
377,134,71630,1,0,0:0:0:0:
344,97,71930,1,0,0:0:0:0:
222,113,72230,5,0,0:0:0:0:
164,31,72530,1,0,0:0:0:0:
149,45,72680,1,0,0:0:0:0:
138,56,72830,2,0,L|82:68,1,35
26,130,73130,2,0,L|82:145,1,35
163,169,73430,1,0,0:0:0:0:
140,183,73580,2,0,L|101:208,1,35
23,256,73880,1,0,0:0:0:0:
53,269,74030,1,0,0:0:0:0:
161,313,74330,1,0,0:0:0:0:
288,297,74630,5,0,0:0:0:0:
364,270,74930,1,0,0:0:0:0:
457,310,75230,1,0,0:0:0:0:
476,110,75530,2,0,P|455:156|457:197,1,70
342,136,76130,2,0,P|318:121|303:105,1,35
329,44,76430,2,0,P|265:53|240:77,1,70
0,128,77030,5,0,0:0:0:0:
93,173,77330,1,0,0:0:0:0:
108,190,77480,2,0,P|120:216|125:232,1,35
61,260,77780,1,0,0:0:0:0:
77,282,77930,2,0,P|102:299|119:309,1,35
187,336,78230,1,0,0:0:0:0:
220,345,78380,1,0,0:0:0:0:
254,348,78530,1,0,0:0:0:0:
288,345,78680,1,0,0:0:0:0:
321,333,78830,1,0,0:0:0:0:
412,252,79130,6,0,P|436:278|450:310,1,70
354,180,79730,2,0,P|317:215|270:215,1,70
274,120,80330,1,0,0:0:0:0:
53,43,81230,5,0,0:0:0:0:
71,80,81380,1,0,0:0:0:0:
68,121,81530,2,0,L|49:168,1,35
22,235,81830,2,0,L|76:256,1,35
196,274,82130,2,0,L|147:295,1,35
42,342,82430,2,0,L|96:353,1,35
194,372,82730,1,0,0:0:0:0:
343,334,83030,5,0,0:0:0:0:
379,325,83330,1,0,0:0:0:0:
394,360,83630,1,0,0:0:0:0:
442,346,83930,1,0,0:0:0:0:
466,224,84230,6,0,L|421:252,1,35
305,169,84530,2,0,L|356:201,1,35
469,104,84830,2,0,L|422:125,1,35
292,65,85130,2,0,L|245:45,1,35
96,45,85430,5,0,0:0:0:0:
158,121,85730,1,0,0:0:0:0:
81,178,86030,1,0,0:0:0:0:
112,209,86330,1,0,0:0:0:0:
29,322,86630,6,0,L|164:312,1,115.50000352478
261,271,87230,2,0,P|298:290|326:328,1,77.0000023498536
384,272,87830,2,0,P|401:317|393:354,1,77.0000023498536
466,237,88430,1,0,0:0:0:0:
442,134,88730,6,0,L|458:140,6,9.6250002937317
420,109,89030,2,0,P|373:93|332:96,1,77.0000023498536
226,125,89480,1,0,0:0:0:0:
226,125,89630,2,0,P|170:149|124:146,1,77.0000023498536
101,72,90230,2,0,P|62:113|55:143,1,77.0000023498536
57,228,90680,1,0,0:0:0:0:
38,258,90830,1,0,0:0:0:0:
167,282,91130,6,0,L|152:288,6,9.6250002937317
190,302,91430,6,0,P|238:285|278:246,1,102.666669799805
292,132,92030,1,0,0:0:0:0:
338,135,92230,2,0,P|359:160|359:223,1,51.3333348999024
443,165,92630,1,0,0:0:0:0:
471,200,92830,2,0,P|438:255|410:272,1,51.3333348999024
487,310,93230,2,0,P|445:321|423:320,1,51.3333348999024
348,354,93530,6,0,L|363:359,6,9.6250002937317
305,346,93830,5,0,0:0:0:0:
288,302,94030,2,0,P|249:298|219:305,1,51.3333348999024
236,214,94430,1,0,0:0:0:0:
198,186,94630,2,0,P|159:210|146:232,1,51.3333348999024
101,145,95030,2,0,P|59:197|60:262,1,102.666669799805
77,322,95630,1,0,0:0:0:0:
156,213,95930,6,0,L|149:228,6,9.6250002937317
196,204,96230,6,0,L|230:90,1,115.50000352478
321,40,96830,2,0,P|347:80|348:118,1,77.0000023498536
434,103,97430,2,0,P|422:155|395:184,1,77.0000023498536
466,233,98030,1,0,0:0:0:0:
428,286,98330,6,0,L|438:297,6,9.6250002937317
392,279,98630,5,0,0:0:0:0:
282,310,98930,1,0,0:0:0:0:
271,313,99080,2,0,L|229:329,1,38.5000011749268
145,253,99380,1,0,0:0:0:0:
133,256,99530,2,0,P|104:271|83:290,1,38.5000011749268
28,183,99830,2,0,P|38:210|21:266,1,77.0000023498536
8,104,100430,1,0,0:0:0:0:
95,60,100730,6,0,L|86:46,6,9.6250002937317
120,72,101030,2,0,P|148:74|210:64,1,77.0000023498536
305,46,101480,1,0,0:0:0:0:
305,46,101630,2,0,L|320:92,1,38.5000011749268
428,108,101930,2,0,L|423:155,1,38.5000011749268
349,173,102230,2,0,L|368:254,1,77.0000023498536
387,324,102680,1,0,0:0:0:0:
369,319,102830,2,0,P|328:312|308:316,1,38.5000011749268
239,317,103130,6,0,L|233:301,6,9.6250002937317
229,277,103430,2,0,P|256:233|268:181,1,77.0000023498536
186,213,103880,1,0,0:0:0:0:
186,213,104030,2,0,P|158:164|160:143,1,62.9999980773926
238,132,104480,1,0,0:0:0:0:
238,132,104630,2,0,P|232:104|219:79,1,52.5000020027161
148,80,105230,2,0,P|154:56|164:36,1,35
378,53,105830,6,0,L|404:226,1,161.000003070831
484,248,106280,1,0,0:0:0:0:
425,308,106430,2,0,L|261:289,1,161.000003070831
33,239,107030,6,0,L|115:276,1,80.5000015354157
236,158,107330,2,0,L|268:237,1,80.5000015354157
120,182,107630,2,0,L|186:245,1,80.5000015354157
361,177,107930,2,0,L|352:276,1,80.5000015354157
206,342,108230,6,0,L|381:358,1,161.000003070831
461,368,108680,1,0,0:0:0:0:
420,284,108830,2,0,L|480:131,1,161.000003070831
478,134,109430,1,0,0:0:0:0:
338,61,109730,5,0,0:0:0:0:
291,74,109880,1,0,0:0:0:0:
242,78,110030,2,0,P|182:77|149:74,1,80.5000015354157
77,43,110330,2,0,P|79:103|95:143,1,80.5000015354157
96,221,110630,6,0,P|111:259|106:316,1,94.5000003604889
416,221,110930,2,0,P|401:259|406:316,1,94.5000003604889
189,277,111230,2,0,P|179:331|155:369,1,94.5000003604889
323,277,111530,2,0,P|333:331|357:369,1,94.5000003604889
256,185,111830,2,0,L|256:284,1,94.5000003604889
256,279,112130,1,0,0:0:0:0:
459,190,112430,5,0,0:0:0:0:
416,221,112580,2,0,P|375:220|338:206,1,80.5000015354157
96,163,113030,6,0,P|111:125|106:68,1,94.5000003604889
416,163,113330,2,0,P|401:125|406:68,1,94.5000003604889
189,107,113630,2,0,P|179:53|155:15,1,94.5000003604889
323,107,113930,2,0,P|333:53|357:15,1,94.5000003604889
256,199,114230,2,0,L|256:100,1,94.5000003604889
351,188,114530,6,0,P|363:215|406:247,1,80.5000015354157
438,176,114830,2,0,P|479:262|375:325,1,161.000003070831
292,290,115430,6,0,L|132:331,1,161.000003070831
33,360,115880,1,0,0:0:0:0:
68,264,116030,2,0,L|24:104,1,161.000003070831
149,64,116480,1,0,0:0:0:0:
189,35,116630,1,0,0:0:0:0:
281,102,116930,2,0,P|263:153|232:187,1,80.5000015354157
337,196,117230,2,0,P|302:237|266:255,1,80.5000015354157
335,310,117530,2,0,P|277:333|235:328,1,80.5000015354157
465,233,117830,6,0,L|394:86,1,161.000003070831
485,87,118280,1,0,0:0:0:0:
355,88,118430,2,0,B|261:85|293:132|174:129,1,161.000003070831
201,128,119030,1,0,0:0:0:0:
49,94,119330,1,0,0:0:0:0:
65,147,119480,1,0,0:0:0:0:
61,203,119630,2,0,P|54:237|59:285,1,80.5000015354157
145,244,119930,2,0,P|171:237|220:201,1,80.5000015354157
405,42,120230,6,0,L|300:34,1,94.5000003604889
107,42,120530,2,0,L|212:34,1,94.5000003604889
444,135,120830,2,0,L|336:146,1,94.5000003604889
68,135,121130,2,0,L|176:146,1,94.5000003604889
256,97,121430,2,0,L|256:192,1,94.5000003604889
336,160,121730,5,0,0:0:0:0:
384,164,122030,1,0,0:0:0:0:
409,122,122330,1,0,0:0:0:0:
405,342,122630,6,0,L|300:350,1,94.5000003604889
107,342,122930,2,0,L|212:350,1,94.5000003604889
444,249,123230,2,0,L|336:238,1,94.5000003604889
68,249,123530,2,0,L|176:238,1,94.5000003604889
256,286,123830,2,0,L|256:192,1,94.5000003604889
211,135,124130,6,0,P|194:120|142:100,1,52.5000020027161
137,180,124430,2,0,P|94:111|160:29,1,157.500006008148
143,40,125030,1,0,0:0:0:0:
292,77,125330,5,0,0:0:0:0:
329,89,125480,1,0,0:0:0:0:
360,111,125630,2,0,P|381:138|387:170,1,43.75
304,182,125930,2,0,P|329:230|350:246,1,43.75
392,271,126230,1,0,0:0:0:0:
289,330,126530,6,0,L|233:353,1,58.3333333333333
105,318,126980,2,0,P|143:302|169:264,1,87.5
94,236,127430,5,0,0:0:0:0:
31,80,127730,1,0,0:0:0:0:
73,91,127880,1,0,0:0:0:0:
115,78,128030,2,0,P|151:63|169:58,1,43.75
201,145,128330,1,0,0:0:0:0:
242,157,128480,1,0,0:0:0:0:
310,56,128630,1,0,0:0:0:0:
322,98,128780,1,0,0:0:0:0:
334,183,128930,6,0,P|353:205|373:224,1,43.75
436,319,129230,1,0,0:0:0:0:
380,307,129380,1,0,0:0:0:0:
326,326,129530,1,0,0:0:0:0:
48,334,129830,6,0,P|62:307|67:293,1,43.75
158,280,130130,2,0,P|150:245|141:227,1,43.75
53,172,130430,1,0,0:0:0:0:
71,132,130580,1,0,0:0:0:0:
97,96,130730,2,0,P|113:82|170:62,1,65.625
175,62,131030,5,0,0:0:0:0:
256,105,131180,1,0,0:0:0:0:
333,55,131330,1,0,0:0:0:0:
382,132,131480,1,0,0:0:0:0:
456,269,131930,5,0,0:0:0:0:
395,259,132080,1,0,0:0:0:0:
339,285,132230,2,0,P|312:297|284:306,1,43.75
191,219,132530,2,0,P|223:220|248:227,1,43.75
359,134,132830,1,0,0:0:0:0:
323,166,132980,1,0,0:0:0:0:
228,110,133130,2,0,P|205:123|181:132,1,43.75
87,59,133430,5,0,0:0:0:0:
41,133,133580,1,0,0:0:0:0:
93,202,133730,1,0,0:0:0:0:
27,260,133880,1,0,0:0:0:0:
103,301,134030,2,0,L|138:345,1,43.75
214,311,134330,2,0,L|202:368,1,43.75
279,198,134630,5,0,0:0:0:0:
314,253,134780,1,0,0:0:0:0:
377,269,134930,1,0,0:0:0:0:
433,235,135080,1,0,0:0:0:0:
462,176,135230,1,0,0:0:0:0:
462,176,135380,2,0,P|458:122|434:84,1,87.5
273,80,135830,5,0,0:0:0:0:
206,102,135980,1,0,0:0:0:0:
143,70,136130,1,0,0:0:0:0:
95,121,136280,1,0,0:0:0:0:
25,220,136430,5,0,0:0:0:0:
78,264,136580,1,0,0:0:0:0:
146,249,136730,1,0,0:0:0:0:
205,286,136880,1,0,0:0:0:0:
330,240,137030,5,0,0:0:0:0:
455,169,137330,2,0,L|447:220,1,43.75
360,97,137630,2,0,L|366:151,1,43.75
467,29,137930,1,0,0:0:0:0:
398,15,138080,1,0,0:0:0:0:
267,98,138230,1,0,0:0:0:0:
204,65,138380,1,0,0:0:0:0:
68,98,138530,2,0,L|83:163,1,43.75
184,160,138830,2,0,L|175:219,1,43.75
50,281,139130,1,0,0:0:0:0:
167,316,139280,5,0,0:0:0:0:
241,309,139430,1,0,0:0:0:0:
310,336,139580,1,0,0:0:0:0:
453,181,139880,5,0,0:0:0:0:
382,205,140030,1,0,0:0:0:0:
309,188,140180,1,0,0:0:0:0:
154,107,140480,5,0,0:0:0:0:
224,83,140630,1,0,0:0:0:0:
296,98,140780,1,0,0:0:0:0:
32,44,141230,6,0,P|43:103|34:162,1,87.5
22,230,141730,2,0,L|63:246,1,29.1666666666667
123,263,142130,1,0,0:0:0:0:
292,178,142430,5,0,0:0:0:0:
305,263,142730,1,0,0:0:0:0:
168,88,143030,5,0,0:0:0:0:
363,52,143630,5,0,0:0:0:0:
124,44,144230,6,0,L|96:225,1,175
10,272,144680,1,0,0:0:0:0:
82,324,144830,2,0,L|277:304,1,175
434,335,145430,6,0,L|380:237,1,87.5
496,173,145730,2,0,L|399:137,1,87.5
256,306,146030,2,0,L|285:205,1,87.5
446,34,146330,2,0,L|352:79,1,87.5
281,126,146630,6,0,L|81:97,1,175
50,36,147080,1,0,0:0:0:0:
0,109,147230,2,0,L|17:322,1,175
13,283,147830,1,0,0:0:0:0:
172,308,148130,5,0,0:0:0:0:
256,284,148280,1,0,0:0:0:0:
331,327,148430,2,0,P|368:334|420:336,1,87.5
494,242,148730,2,0,P|433:247|397:257,1,87.5
345,50,149030,6,0,L|331:156,1,97.9999970092774
176,72,149330,2,0,L|185:178,1,97.9999970092774
454,29,149630,2,0,L|460:136,1,97.9999970092774
102,30,149930,2,0,B|82:147,1,97.9999970092774
256,184,150230,2,0,L|256:84,1,97.9999970092774
256,86,150530,1,0,0:0:0:0:
409,137,150830,6,0,P|366:153|320:161,1,87.5
107,157,151130,2,0,P|162:146|213:142,1,87.5
345,334,151430,6,0,L|331:228,1,97.9999970092774
176,312,151730,2,0,L|185:206,1,97.9999970092774
454,355,152030,2,0,L|460:248,1,97.9999970092774
102,354,152330,2,0,B|82:237,1,97.9999970092774
256,200,152630,2,0,L|256:300,1,97.9999970092774
184,153,152930,6,0,P|161:137|99:134,1,87.5
122,212,153230,2,0,P|34:186|82:51,1,262.5
196,50,153830,6,0,L|391:106,1,175
445,45,154280,1,0,0:0:0:0:
463,128,154430,2,0,L|485:316,1,175
358,275,154880,5,0,0:0:0:0:
347,313,155030,1,0,0:0:0:0:
269,251,155330,2,0,P|218:269|168:266,1,87.5
201,186,155630,2,0,P|136:182|99:169,1,87.5
176,96,155930,2,0,P|114:68|91:49,1,87.5
30,54,156230,6,0,L|20:234,1,175
13,325,156680,1,0,0:0:0:0:
101,289,156830,2,0,B|198:252|198:327|304:285,1,175
271,295,157430,1,0,0:0:0:0:
115,205,157730,5,0,0:0:0:0:
172,183,157880,1,0,0:0:0:0:
232,192,158030,2,0,P|287:211|324:215,1,87.5
197,84,158330,2,0,P|272:107|295:122,1,87.5
368,28,158630,6,0,L|368:132,1,97.9999970092774
500,184,158930,2,0,L|392:184,1,97.9999970092774
368,356,159230,2,0,L|368:252,1,97.9999970092774
500,200,159530,2,0,L|392:200,1,97.9999970092774
232,192,159830,2,0,L|344:192,1,97.9999970092774
306,108,160130,5,0,0:0:0:0:
247,98,160430,1,0,0:0:0:0:
237,39,160730,1,0,0:0:0:0:
144,28,161030,6,0,L|144:132,1,97.9999970092774
12,184,161330,2,0,L|120:184,1,97.9999970092774
144,356,161630,2,0,L|144:252,1,97.9999970092774
12,200,161930,2,0,L|120:200,1,97.9999970092774
280,192,162230,2,0,L|168:192,1,97.9999970092774
313,128,162530,6,0,P|366:110|395:89,1,87.5
351,27,162830,2,0,P|437:24|417:175,1,262.5
481,305,163430,6,0,L|285:273,1,185.50000778389
222,348,163880,1,0,0:0:0:0:
189,258,164030,2,0,L|263:76,1,185.50000778389
155,57,164630,6,0,P|121:115|117:156,1,92.7500038919451
42,126,164930,2,0,P|74:202|122:228,1,92.7500038919451
8,246,165230,2,0,P|56:274|103:277,1,92.7500038919451
44,359,165530,2,0,P|105:351|157:322,1,92.7500038919451
338,369,165830,6,0,L|411:184,1,185.50000778389
505,167,166280,1,0,0:0:0:0:
434,98,166430,2,0,L|235:32,1,185.50000778389
257,39,167030,1,0,0:0:0:0:
66,84,167330,5,0,0:0:0:0:
44,154,167480,1,0,0:0:0:0:
70,223,167630,2,0,P|89:270|123:306,1,92.7500038919451
148,134,167930,2,0,P|156:178|150:232,1,92.7500038919451
284,205,168230,6,0,P|347:232|394:277,1,105.000004005432
297,298,168530,2,0,P|347:332|406:343,1,105.000004005432
284,179,168830,2,0,P|347:152|394:107,1,105.000004005432
297,86,169130,2,0,P|347:52|406:41,1,105.000004005432
512,192,169430,2,0,L|392:192,1,105.000004005432
407,192,169730,1,0,0:0:0:0:
456,125,170030,6,0,L|351:104,1,92.7500038919451
372,30,170330,2,0,L|273:62,1,92.7500038919451
228,205,170630,6,0,P|165:232|118:277,1,105.000004005432
215,298,170930,2,0,P|165:332|106:343,1,105.000004005432
228,179,171230,2,0,P|165:152|118:107,1,105.000004005432
215,86,171530,2,0,P|165:52|106:41,1,105.000004005432
0,192,171830,2,0,L|120:192,1,105.000004005432
351,222,172130,6,0,P|308:255|294:297,1,92.7500038919451
375,303,172430,2,0,P|246:367|223:254,1,278.250011675835
221,95,173030,6,0,L|426:114,1,185.50000778389
474,36,173480,1,0,0:0:0:0:
511,125,173630,2,0,L|451:316,1,185.50000778389
379,321,174080,5,0,0:0:0:0:
345,344,174230,1,0,0:0:0:0:
318,252,174530,2,0,P|258:271|228:302,1,92.7500038919451
212,203,174830,2,0,P|160:254|145:290,1,92.7500038919451
87,214,175130,2,0,P|77:291|95:328,1,92.7500038919451
8,102,175430,6,0,L|191:56,1,185.50000778389
257,136,175880,1,0,0:0:0:0:
332,47,176030,2,0,B|409:99|340:136|431:214,1,185.50000778389
419,203,176630,1,0,0:0:0:0:
282,300,176930,5,0,0:0:0:0:
210,318,177080,1,0,0:0:0:0:
141,289,177230,2,0,P|95:282|40:296,1,92.7500038919451
80,193,177530,2,0,P|142:204|194:197,1,92.7500038919451
298,42,177830,6,0,P|282:92|291:153,1,105.000004005432
501,173,178130,2,0,P|464:121|401:99,1,105.000004005432
298,342,178430,2,0,P|282:292|291:231,1,105.000004005432
501,211,178730,2,0,P|464:263|401:285,1,105.000004005432
332,192,179030,2,0,L|448:192,1,105.000004005432
393,93,179330,5,0,0:0:0:0:
345,105,179630,1,0,0:0:0:0:
305,77,179930,1,0,0:0:0:0:
214,42,180230,6,0,P|230:92|221:153,1,105.000004005432
11,173,180530,2,0,P|48:121|101:100,1,96.2500009179115
140,341,180830,2,0,P|156:291|150:246,1,87.5
11,211,181130,2,0,P|48:263|87:281,1,78.7500030040742
180,192,181430,2,0,L|69:192,1,70
305,152,181730,6,0,P|334:155|381:185,1,70
322,236,182030,2,0,P|402:258|425:128,1,210
425,138,182630,1,0,0:0:0:0:
