osu file format v14

[General]
AudioFilename: audio.mp3
AudioLeadIn: 0
PreviewTime: 164278
Countdown: 0
SampleSet: Soft
StackLeniency: 0.2
Mode: 0
LetterboxInBreaks: 0
WidescreenStoryboard: 1

[Editor]
Bookmarks: 2329,4363,6397,8431,16567,24702,32329,32838,40973,45041,49109,53177,55211,57245,65380,67414,73516,75550,82668,83685,87753,91821,99957,108092,116228,122329,124363,132499,134533,140634,148770,156906,165041,175211,181312
DistanceSpacing: 1.1
BeatDivisor: 8
GridSize: 32
TimelineZoom: 4.599998

[Metadata]
Title:Gleam
TitleUnicode:Gleam
Artist:MAMAMOO
ArtistUnicode:마마무
Creator:Everything Dust
Version:B)
Source:
Tags:Solar Moonbyul Wheein Hwasa
BeatmapID:2120129
BeatmapSetID:1012901

[Difficulty]
HPDrainRate:4
CircleSize:3
OverallDifficulty:9
ApproachRate:9
SliderMultiplier:2.7
SliderTickRate:1

[Events]
//Background and Video events
0,0,"Gleam.png",0,0
//Break Periods
2,73588,74950
2,90241,91221
//Storyboard Layer 0 (Background)
//Storyboard Layer 1 (Fail)
//Storyboard Layer 2 (Pass)
//Storyboard Layer 3 (Foreground)
//Storyboard Sound Samples

[TimingPoints]
296,508.474576271186,4,2,1,40,1,0
8431,-100,4,2,1,60,0,0
8685,-100,4,2,1,5,0,0
8812,-100,4,2,1,60,0,0
9067,-100,4,2,1,5,0,0
9194,-100,4,2,1,60,0,0
9321,-100,4,2,1,5,0,0
9448,-100,4,2,1,60,0,0
9702,-100,4,2,1,5,0,0
9829,-100,4,2,1,60,0,0
10084,-100,4,2,1,5,0,0
10211,-100,4,2,1,60,0,0
10338,-100,4,2,1,5,0,0
10465,-100,4,2,1,60,0,0
10719,-100,4,2,1,5,0,0
10846,-100,4,2,1,60,0,0
11101,-100,4,2,1,5,0,0
11228,-100,4,2,1,60,0,0
11355,-100,4,2,1,5,0,0
11482,-100,4,2,1,60,0,0
12753,-100,4,2,1,5,0,0
12880,-100,4,2,1,60,0,0
13134,-100,4,2,1,5,0,0
13261,-100,4,2,1,60,0,0
13389,-100,4,2,1,5,0,0
13516,-100,4,2,1,60,0,0
13770,-100,4,2,1,5,0,0
13897,-100,4,2,1,60,0,0
14151,-100,4,2,1,5,0,0
14278,-100,4,2,1,60,0,0
14406,-100,4,2,1,5,0,0
14533,-100,4,2,1,60,0,0
14787,-100,4,2,1,5,0,0
14914,-100,4,2,1,60,0,0
15423,-100,4,2,1,5,0,0
15550,-100,4,2,1,60,0,0
16249,-100,4,2,1,5,0,0
16312,-100,4,2,1,60,0,0
16567,-100,4,2,1,60,0,0
17838,-100,4,2,1,60,0,0
18092,-100,4,2,1,60,0,0
18219,-100,4,2,1,5,0,0
18346,-100,4,2,1,60,0,0
18473,-100,4,2,1,5,0,0
18601,-100,4,2,1,60,0,0
19872,-100,4,2,1,60,0,0
20126,-100,4,2,1,60,0,0
20253,-100,4,2,1,5,0,0
20380,-100,4,2,1,60,0,0
20507,-100,4,2,1,5,0,0
20634,-100,4,2,1,60,0,0
21651,-66.6666666666667,4,2,1,60,0,0
21779,-66.6666666666667,4,2,1,5,0,0
21906,-100,4,2,1,60,0,0
22096,-100,4,2,1,5,0,0
22160,-100,4,2,1,60,0,0
22795,-100,4,2,1,5,0,0
22923,-100,4,2,1,60,0,0
24067,-100,4,2,1,5,0,0
24194,-66.6666666666667,4,2,1,60,0,0
24702,-100,4,2,1,60,0,0
25211,-80,4,2,1,60,0,0
25719,-100,4,2,1,60,0,0
26228,-100,4,2,1,60,0,0
28770,-66.6666666666667,4,2,1,60,0,0
29151,-66.6666666666667,4,2,1,60,0,0
29533,-100,4,2,1,60,0,0
30804,-66.6666666666667,4,2,1,60,0,0
31567,-100,4,2,1,60,0,0
32838,-100,4,2,1,60,0,0
33092,-100,4,2,1,5,0,0
33219,-100,4,2,1,60,0,0
33855,-66.6666666666667,4,2,1,60,0,0
34363,-66.6666666666667,4,2,1,60,0,0
34554,-66.6666666666667,4,2,1,5,0,0
34618,-100,4,2,1,60,0,0
39279,-100,4,2,1,60,0,0
39533,-100,4,2,1,5,0,0
39575,-100,4,2,1,60,0,0
39702,-303.030303030303,4,2,1,60,0,0
40465,-100,4,2,1,60,0,0
40973,-100,4,2,1,60,0,0
43262,-66.6666666666667,4,2,1,60,0,0
43770,-66.6666666666667,4,2,1,5,0,0
44024,-66.6666666666667,4,2,1,60,0,0
44406,-66.6666666666667,4,2,1,5,0,0
44533,-133.333333333333,4,2,1,60,0,0
44914,-133.333333333333,4,2,1,5,0,0
45041,-66.6666666666667,4,2,1,60,0,0
45804,-133.333333333333,4,2,1,60,0,0
46312,-133.333333333333,4,2,1,5,0,0
46567,-66.6666666666667,4,2,1,60,0,0
49109,-100,4,2,1,60,0,0
50253,-100,4,2,1,5,0,0
50380,-100,4,2,1,60,0,0
51779,-100,4,2,1,5,0,0
51906,-100,4,2,1,60,0,0
52414,-100,4,2,1,5,0,0
52541,-100,4,2,1,60,0,0
53177,-66.6666666666667,4,2,1,60,0,0
53431,-66.6666666666667,4,2,1,5,0,0
53558,-100,4,2,1,60,0,0
54448,-100,4,2,1,5,0,0
54575,-50,4,2,1,60,0,0
54639,-100,4,2,1,5,0,0
54957,-100,4,2,1,60,0,0
55211,-100,4,2,1,60,0,0
55338,-100,4,2,1,5,0,0
55719,-80,4,2,1,60,0,0
55973,-80,4,2,1,5,0,0
56228,-66.6666666666667,4,2,1,60,0,0
56482,-66.6666666666667,4,2,1,5,0,0
56736,-57.1428571428571,4,2,1,60,0,0
56990,-57.1428571428571,4,2,1,5,0,0
57245,-50,4,2,1,70,0,1
57944,-50,4,2,1,5,0,1
58007,-50,4,2,1,70,0,1
58262,-200,4,2,1,70,0,1
58304,-200,4,2,1,5,0,1
58431,-200,4,2,1,70,0,1
58473,-200,4,2,1,5,0,1
58600,-200,4,2,1,70,0,1
58643,-200,4,2,1,5,0,1
58770,-200,4,2,1,70,0,1
58812,-200,4,2,1,5,0,1
58939,-200,4,2,1,70,0,1
58982,-200,4,2,1,5,0,1
59109,-200,4,2,1,70,0,1
59151,-200,4,2,1,5,0,1
59279,-50,4,2,1,70,0,1
59533,-50,4,2,1,5,0,1
59660,-50,4,2,1,70,0,1
59914,-50,4,2,1,5,0,1
60041,-50,4,2,1,70,0,1
60168,-50,4,2,1,5,0,1
60295,-50,4,2,1,70,0,1
60550,-50,4,2,1,5,0,1
60677,-50,4,2,1,70,0,1
61185,-50,4,2,1,5,0,1
61312,-50,4,2,1,70,0,1
61440,-50,4,2,1,5,0,1
61503,-50,4,2,1,70,0,1
61630,-50,4,2,1,5,0,1
61694,-50,4,2,1,70,0,1
61821,-151.515151515152,4,2,1,70,0,1
62202,-50,4,2,1,5,0,1
62329,-100,4,2,1,70,0,1
62457,-50,4,2,1,5,0,1
62584,-50,4,2,1,70,0,1
63219,-50,4,2,1,5,0,1
63346,-50,4,2,1,70,0,1
63473,-50,4,2,1,5,0,1
63537,-50,4,2,1,70,0,1
63664,-50,4,2,1,5,0,1
63728,-50,4,2,1,70,0,1
63982,-50,4,2,1,5,0,1
64109,-50,4,2,1,70,0,1
64490,-50,4,2,1,5,0,1
64618,-50,4,2,1,70,0,1
64745,-50,4,2,1,5,0,1
64872,-50,4,2,1,70,0,1
64999,-50,4,2,1,5,0,1
65126,-50,4,2,1,70,0,1
65253,-50,4,2,1,5,0,1
65380,-100,4,2,1,70,0,1
65762,-100,4,2,1,5,0,1
65889,-80,4,2,1,70,0,1
66270,-80,4,2,1,5,0,1
66397,-57.1428571428571,4,2,1,70,0,1
66779,-57.1428571428571,4,2,1,5,0,1
66906,-44.4444444444445,4,2,1,70,0,1
67287,-44.4444444444445,4,2,1,5,0,1
67414,-100,4,2,1,70,0,1
71736,-100,4,2,1,70,0,1
72880,-100,4,2,1,5,0,1
73007,-66.6666666666667,4,2,1,70,0,1
73389,-100,4,2,1,5,0,1
73516,-66.6666666666667,4,2,1,60,0,0
77584,-66.6666666666667,4,2,1,60,0,0
78346,-66.6666666666667,4,2,1,60,0,0
83431,-400,4,2,1,60,0,0
83685,-66.6666666666667,4,2,1,60,0,0
84067,-100,4,2,1,60,0,0
86990,-66.6666666666667,4,2,1,60,0,0
87753,-66.6666666666667,4,2,1,60,0,0
88516,-100,4,2,1,60,0,0
89533,-400,4,2,1,60,0,0
89660,-400,4,2,1,5,0,0
89787,-200,4,2,1,60,0,0
90041,-200,4,2,1,5,0,0
91821,-100,4,2,1,60,0,0
95889,525.474576271186,4,2,1,60,1,0
95976,-100,4,2,1,5,0,0
96064,-100,4,2,1,60,0,0
96151,-100,4,2,1,5,0,0
96217,-100,4,2,1,60,0,0
96589,-100,4,2,1,5,0,0
96651,508.474576271186,4,2,1,60,1,0
97074,-100,4,2,1,5,0,0
97159,-100,4,2,1,60,0,0
97923,508.474576271186,4,2,1,60,1,0
98600,-1000,4,2,1,60,0,0
98770,-100,4,2,1,60,0,0
98939,-100,4,2,1,60,0,0
99448,-100,4,2,1,60,0,0
99702,-100,4,2,1,60,0,0
99956,-303.030303030303,4,2,1,60,0,0
100338,-100,4,2,1,60,0,0
100465,-100,4,2,1,60,0,0
100592,-100,4,2,1,5,0,0
100719,-100,4,2,1,60,0,0
102117,-100,4,2,1,5,0,0
102245,-100,4,2,1,60,0,0
103770,-200,4,2,1,60,0,0
103897,-200,4,2,1,5,0,0
104024,-100,4,2,1,60,0,0
104533,-100,4,2,1,60,0,0
104787,-400,4,2,1,60,0,0
105041,-100,4,2,1,60,0,0
105168,-100,4,2,1,5,0,0
105295,-100,4,2,1,60,0,0
105423,-200,4,2,1,60,0,0
105804,-100,4,2,1,60,0,0
106567,548.474576271186,4,2,1,60,1,0
106567,-200,4,2,1,60,0,0
107389,-100,4,2,1,60,0,0
107938,-100,4,2,1,5,0,0
108092,508.474576271186,4,2,1,60,1,0
108092,-100,4,2,1,60,0,0
110507,-100,4,2,1,5,0,0
110634,-66.6666666666667,4,2,1,30,0,0
110888,-66.6666666666667,4,2,1,5,0,0
111142,-100,4,2,1,60,0,0
111651,-66.6666666666667,4,2,1,60,0,0
112159,-133.333333333333,4,2,1,60,0,0
112541,-66.6666666666667,4,2,1,60,0,0
112922,-133.333333333333,4,2,1,60,0,0
113430,-133.333333333333,4,2,1,5,0,0
113685,-66.6666666666667,4,2,1,60,0,0
116227,-100,4,2,1,60,0,0
116990,-66.6666666666667,4,2,1,60,0,0
117244,-133.333333333333,4,2,1,60,0,0
117371,-100,4,2,1,5,0,0
117498,-100,4,2,1,60,0,0
117753,-66.6666666666667,4,2,1,60,0,0
117880,-66.6666666666667,4,2,1,5,0,0
118007,-100,4,2,1,60,0,0
118642,-100,4,2,1,30,0,0
118897,-100,4,2,1,5,0,0
119024,-100,4,2,1,60,0,0
119278,-66.6666666666667,4,2,1,60,0,0
119532,-100,4,2,1,5,0,0
119659,-100,4,2,1,60,0,0
120295,-66.6666666666667,4,2,1,60,0,0
120549,-66.6666666666667,4,2,1,5,0,0
120676,-100,4,2,1,60,0,0
121566,-100,4,2,1,5,0,0
121693,-50,4,2,1,60,0,0
121757,-100,4,2,1,5,0,0
122075,-100,4,2,1,60,0,0
122329,-100,4,2,1,60,0,0
122456,-100,4,2,1,5,0,0
122837,-80,4,2,1,60,0,0
123091,-80,4,2,1,5,0,0
123346,-66.6666666666667,4,2,1,60,0,0
123600,-66.6666666666667,4,2,1,5,0,0
123854,-57.1428571428571,4,2,1,60,0,0
124108,-57.1428571428571,4,2,1,5,0,0
124363,-50,4,2,1,70,0,1
125062,-50,4,2,1,5,0,1
125125,-50,4,2,1,70,0,1
125380,-200,4,2,1,70,0,1
125422,-200,4,2,1,5,0,1
125549,-200,4,2,1,70,0,1
125591,-200,4,2,1,5,0,1
125718,-200,4,2,1,70,0,1
125761,-200,4,2,1,5,0,1
125888,-200,4,2,1,70,0,1
125930,-200,4,2,1,5,0,1
126057,-200,4,2,1,70,0,1
126100,-200,4,2,1,5,0,1
126227,-200,4,2,1,70,0,1
126269,-200,4,2,1,5,0,1
126397,-50,4,2,1,70,0,1
126651,-50,4,2,1,5,0,1
126778,-50,4,2,1,70,0,1
127032,-50,4,2,1,5,0,1
127159,-50,4,2,1,70,0,1
127286,-50,4,2,1,5,0,1
127413,-50,4,2,1,70,0,1
127668,-50,4,2,1,5,0,1
127795,-50,4,2,1,70,0,1
128303,-50,4,2,1,5,0,1
128430,-50,4,2,1,70,0,1
128558,-50,4,2,1,5,0,1
128621,-50,4,2,1,70,0,1
128748,-50,4,2,1,5,0,1
128812,-50,4,2,1,70,0,1
128939,-151.515151515152,4,2,1,70,0,1
129320,-50,4,2,1,5,0,1
129447,-100,4,2,1,70,0,1
129575,-50,4,2,1,5,0,1
129702,-50,4,2,1,70,0,1
130337,-50,4,2,1,5,0,1
130464,-50,4,2,1,70,0,1
130591,-50,4,2,1,5,0,1
130655,-50,4,2,1,70,0,1
130782,-50,4,2,1,5,0,1
130846,-50,4,2,1,70,0,1
131100,-50,4,2,1,5,0,1
131227,-50,4,2,1,70,0,1
131608,-50,4,2,1,5,0,1
131736,-50,4,2,1,70,0,1
131863,-50,4,2,1,5,0,1
131990,-50,4,2,1,70,0,1
132117,-50,4,2,1,5,0,1
132244,-50,4,2,1,70,0,1
132371,-50,4,2,1,5,0,1
132498,-50,4,2,1,70,0,1
132880,-50,4,2,1,5,0,1
133007,-44.4444444444445,4,2,1,70,0,1
133388,-44.4444444444445,4,2,1,5,0,1
133515,-40,4,2,1,70,0,1
133897,-40,4,2,1,5,0,1
134024,-33.3333333333333,4,2,1,70,0,1
134405,-33.3333333333333,4,2,1,5,0,1
134532,-100,4,2,1,70,0,1
136058,-400,4,2,1,70,0,1
136121,-400,4,2,1,5,0,1
136248,-400,4,2,1,70,0,1
136312,-400,4,2,1,5,0,1
136439,-400,4,2,1,70,0,1
136503,-400,4,2,1,5,0,1
136566,-100,4,2,1,70,0,1
137075,-400,4,2,1,70,0,1
137138,-400,4,2,1,5,0,1
137265,-400,4,2,1,70,0,1
137329,-400,4,2,1,5,0,1
137456,-400,4,2,1,70,0,1
137520,-400,4,2,1,5,0,1
137583,-100,4,2,1,70,0,1
138091,-400,4,2,1,70,0,1
138154,-400,4,2,1,5,0,1
138281,-400,4,2,1,70,0,1
138345,-400,4,2,1,5,0,1
138472,-400,4,2,1,70,0,1
138536,-400,4,2,1,5,0,1
138599,-100,4,2,1,70,0,1
138854,-100,4,2,1,70,0,1
139108,-400,4,2,1,70,0,1
139171,-400,4,2,1,5,0,1
139298,-400,4,2,1,70,0,1
139362,-400,4,2,1,5,0,1
139489,-400,4,2,1,70,0,1
139553,-400,4,2,1,5,0,1
139616,-133.333333333333,4,2,1,70,0,1
139998,-100,4,2,1,5,0,1
140125,-66.6666666666667,4,2,1,35,0,1
140507,-100,4,2,1,5,0,1
140634,-100,4,2,1,60,0,0
141015,-1000,4,2,1,60,0,0
141651,-1000,4,2,1,60,0,0
141905,-1000,4,2,1,5,0,0
142032,-100,4,2,1,60,0,0
143049,-1000,4,2,1,60,0,0
143685,-1000,4,2,1,60,0,0
143939,-1000,4,2,1,5,0,0
144066,-100,4,2,1,60,0,0
145083,-1000,4,2,1,60,0,0
145719,-1000,4,2,1,60,0,0
145973,-1000,4,2,1,5,0,0
146100,-100,4,2,1,60,0,0
146736,-133.333333333333,4,2,1,60,0,0
148261,-100,4,2,1,60,0,0
148770,-200,4,2,1,60,0,0
148812,-200,4,2,1,5,0,0
148939,-200,4,2,1,60,0,0
148982,-200,4,2,1,5,0,0
149109,-200,4,2,1,60,0,0
149152,-200,4,2,1,5,0,0
149278,-200,4,2,1,60,0,0
149321,-200,4,2,1,5,0,0
149447,-200,4,2,1,60,0,0
149490,-200,4,2,1,5,0,0
149617,-200,4,2,1,60,0,0
149660,-200,4,2,1,5,0,0
149786,-66.6666666666667,4,2,1,60,0,0
150168,-66.6666666666667,4,2,1,5,0,0
150295,-133.333333333333,4,2,1,60,0,0
150676,-133.333333333333,4,2,1,60,0,0
150803,-200,4,2,1,60,0,0
150845,-200,4,2,1,5,0,0
150972,-200,4,2,1,60,0,0
151015,-200,4,2,1,5,0,0
151142,-200,4,2,1,60,0,0
151185,-200,4,2,1,5,0,0
151311,-200,4,2,1,60,0,0
151354,-200,4,2,1,5,0,0
151480,-200,4,2,1,60,0,0
151523,-200,4,2,1,5,0,0
151650,-200,4,2,1,60,0,0
151693,-200,4,2,1,5,0,0
151819,-133.333333333333,4,2,1,60,0,0
152032,-133.333333333333,4,2,1,30,0,0
152201,-66.6666666666667,4,2,1,5,0,0
152328,-133.333333333333,4,2,1,60,0,0
152709,-133.333333333333,4,2,1,60,0,0
152837,-200,4,2,1,60,0,0
152879,-200,4,2,1,5,0,0
153006,-200,4,2,1,60,0,0
153049,-200,4,2,1,5,0,0
153176,-200,4,2,1,60,0,0
153219,-200,4,2,1,5,0,0
153345,-200,4,2,1,60,0,0
153388,-200,4,2,1,5,0,0
153514,-200,4,2,1,60,0,0
153557,-200,4,2,1,5,0,0
153684,-200,4,2,1,60,0,0
153727,-200,4,2,1,5,0,0
153853,-66.6666666666667,4,2,1,60,0,0
154235,-66.6666666666667,4,2,1,5,0,0
154362,-133.333333333333,4,2,1,60,0,0
154743,-133.333333333333,4,2,1,30,0,0
154871,-200,4,2,1,60,0,0
154913,-200,4,2,1,5,0,0
155040,-200,4,2,1,60,0,0
155083,-200,4,2,1,5,0,0
155210,-200,4,2,1,60,0,0
155253,-200,4,2,1,5,0,0
155379,-200,4,2,1,60,0,0
155422,-200,4,2,1,5,0,0
155548,-200,4,2,1,60,0,0
155591,-200,4,2,1,5,0,0
155718,-200,4,2,1,60,0,0
155761,-200,4,2,1,5,0,0
155887,-133.333333333333,4,2,1,60,0,0
156079,-133.333333333333,4,2,1,30,0,0
156269,-66.6666666666667,4,2,1,5,0,0
156396,-133.333333333333,4,2,1,60,0,0
156777,-133.333333333333,4,2,1,60,0,0
156906,-100,4,2,1,60,0,0
157286,-133.333333333333,4,2,1,60,0,0
157541,-133.333333333333,4,2,1,5,0,0
157668,-100,4,2,1,60,0,0
158303,-133.333333333333,4,2,1,60,0,0
158558,-133.333333333333,4,2,1,5,0,0
158685,-100,4,2,1,60,0,0
159320,-133.333333333333,4,2,1,60,0,0
159575,-133.333333333333,4,2,1,5,0,0
159702,-100,4,2,1,60,0,0
159956,-100,4,2,1,60,0,0
160973,-100,4,2,1,60,0,0
161227,-100,4,2,1,5,0,0
161354,-66.6666666666667,4,2,1,60,0,0
161608,-66.6666666666667,4,2,1,5,0,0
161736,-66.6666666666667,4,2,1,60,0,0
161990,-100,4,2,1,60,0,0
162244,-100,4,2,1,5,0,0
162371,-66.6666666666667,4,2,1,60,0,0
162625,-66.6666666666667,4,2,1,5,0,0
162753,-100,4,2,1,60,0,0
163261,-100,4,2,1,5,0,0
163388,-100,4,2,1,60,0,0
163642,-100,4,2,1,5,0,0
163769,-100,4,2,1,60,0,0
163897,-100,4,2,1,5,0,0
164024,-66.6666666666667,4,2,1,60,0,0
164278,-100,4,2,1,5,0,0
164405,-100,4,2,1,60,0,0
165041,-50,4,2,1,70,0,1
165740,-50,4,2,1,5,0,1
165803,-50,4,2,1,70,0,1
166058,-200,4,2,1,70,0,1
166100,-200,4,2,1,5,0,1
166227,-200,4,2,1,70,0,1
166269,-200,4,2,1,5,0,1
166396,-200,4,2,1,70,0,1
166439,-200,4,2,1,5,0,1
166566,-200,4,2,1,70,0,1
166608,-200,4,2,1,5,0,1
166735,-200,4,2,1,70,0,1
166778,-200,4,2,1,5,0,1
166905,-200,4,2,1,70,0,1
166947,-200,4,2,1,5,0,1
167075,-50,4,2,1,70,0,1
167329,-50,4,2,1,5,0,1
167456,-50,4,2,1,70,0,1
167710,-50,4,2,1,5,0,1
167837,-50,4,2,1,70,0,1
167964,-50,4,2,1,5,0,1
168091,-50,4,2,1,70,0,1
168346,-50,4,2,1,5,0,1
168473,-50,4,2,1,70,0,1
168791,-50,4,2,1,5,0,1
168854,-50,4,2,1,70,0,1
169045,-50,4,2,1,5,0,1
169108,-50,4,2,1,70,0,1
169236,-50,4,2,1,5,0,1
169299,-50,4,2,1,70,0,1
169426,-50,4,2,1,5,0,1
169490,-50,4,2,1,70,0,1
169617,-66.6666666666667,4,2,1,70,0,1
169744,-66.6666666666667,4,2,1,5,0,1
169871,-66.6666666666667,4,2,1,70,0,1
169998,-50,4,2,1,5,0,1
170125,-66.6666666666667,4,2,1,70,0,1
170380,-50,4,2,1,5,0,1
170507,-50,4,2,1,70,0,1
170825,-50,4,2,1,5,0,1
170888,-50,4,2,1,70,0,1
171015,-50,4,2,1,5,0,1
171142,-50,4,2,1,70,0,1
171269,-50,4,2,1,5,0,1
171333,-50,4,2,1,70,0,1
171460,-50,4,2,1,5,0,1
171524,-50,4,2,1,70,0,1
171778,-50,4,2,1,5,0,1
171905,-50,4,2,1,70,0,1
172032,-50,4,2,1,5,0,1
172286,-50,4,2,1,5,0,1
172414,-50,4,2,1,70,0,1
172541,-50,4,2,1,5,0,1
172668,-50,4,2,1,70,0,1
172795,-50,4,2,1,5,0,1
172922,-50,4,2,1,70,0,1
173049,-50,4,2,1,5,0,1
173176,-50,4,2,1,70,0,1
173558,-50,4,2,1,5,0,1
173685,-44.4444444444445,4,2,1,70,0,1
174066,-44.4444444444445,4,2,1,5,0,1
174193,-40,4,2,1,70,0,1
174575,-40,4,2,1,5,0,1
174702,-33.3333333333333,4,2,1,70,0,1
175083,-33.3333333333333,4,2,1,5,0,1
175210,-100,4,2,1,70,0,1
176736,-400,4,2,1,70,0,1
176799,-400,4,2,1,5,0,1
176926,-400,4,2,1,70,0,1
176990,-400,4,2,1,5,0,1
177117,-400,4,2,1,70,0,1
177181,-400,4,2,1,5,0,1
177244,-100,4,2,1,70,0,1
177753,-400,4,2,1,70,0,1
177816,-400,4,2,1,5,0,1
177943,-400,4,2,1,70,0,1
178007,-400,4,2,1,5,0,1
178134,-400,4,2,1,70,0,1
178198,-400,4,2,1,5,0,1
178261,-100,4,2,1,70,0,1
178769,-400,4,2,1,70,0,1
178832,-400,4,2,1,5,0,1
178959,-400,4,2,1,70,0,1
179023,-400,4,2,1,5,0,1
179150,-400,4,2,1,70,0,1
179214,-400,4,2,1,5,0,1
179277,-100,4,2,1,70,0,1
179532,-100,4,2,1,70,0,1
179786,-400,4,2,1,70,0,1
179849,-400,4,2,1,5,0,1
179976,-400,4,2,1,70,0,1
180040,-400,4,2,1,5,0,1
180167,-400,4,2,1,70,0,1
180231,-400,4,2,1,5,0,1
180294,-133.333333333333,4,2,1,70,0,1
180676,-100,4,2,1,5,0,1
180803,-50,4,2,1,70,0,1
181058,-100,4,2,1,5,0,1
181312,-100,4,2,1,5,0,0

[Colours]
Combo1 : 155,195,107
Combo2 : 5,169,245
Combo3 : 183,119,202
Combo4 : 248,225,149
SliderBorder : 133,119,118
SliderTrackOverride : 137,77,40

[HitObjects]
0,83,296,5,0,0:0:0:0:
294,11,677,1,0,0:0:0:0:
0,83,1058,1,0,0:0:0:0:
267,68,1313,5,0,0:0:0:0:
122,26,1440,1,0,0:0:0:0:
157,172,1694,5,0,0:0:0:0:
267,68,1821,1,0,0:0:0:0:
15,140,2075,1,0,0:0:0:0:
512,192,2329,5,0,0:0:0:0:
218,264,2710,1,0,0:0:0:0:
512,192,3091,1,0,0:0:0:0:
245,207,3346,5,0,0:0:0:0:
355,103,3473,1,0,0:0:0:0:
389,248,3728,5,0,0:0:0:0:
244,206,3855,1,0,0:0:0:0:
497,135,4108,1,0,0:0:0:0:
0,301,4363,5,0,0:0:0:0:
294,373,4744,1,0,0:0:0:0:
0,301,5125,1,0,0:0:0:0:
267,316,5380,5,0,0:0:0:0:
157,212,5507,1,0,0:0:0:0:
122,358,5762,5,0,0:0:0:0:
267,316,5889,1,0,0:0:0:0:
15,244,6142,1,0,0:0:0:0:
512,192,6397,5,0,0:0:0:0:
214,220,6778,1,0,0:0:0:0:
358,206,7159,1,0,0:0:0:0:
140,358,8431,6,0,P|114:316|131:204,1,135
267,32,8812,2,0,P|264:81|186:163,1,135
45,199,9194,2,0,P|65:169|107:153,1,67.5
428,355,9448,6,0,L|392:197,1,135
185,280,9829,2,0,L|221:122,1,135
468,38,10211,2,0,L|450:117,1,67.5
372,358,10465,6,0,P|398:316|381:204,1,135
245,32,10846,2,0,P|247:81|325:163,1,135
419,155,11228,2,0,P|411:187|389:212,1,67.5
245,207,11482,5,0,0:0:0:0:
355,103,11609,1,0,0:0:0:0:
389,248,11864,5,0,0:0:0:0:
244,206,11991,1,0,0:0:0:0:
497,135,12244,1,0,0:0:0:0:
92,111,12499,6,0,L|103:279,1,135
295,378,12880,2,0,L|287:244,1,135
13,21,13262,2,0,L|18:105,1,67.5
103,171,13516,6,0,P|156:130|183:69,1,135
0,159,13897,2,0,P|31:246|105:290,1,135
314,346,14279,2,0,L|320:262,1,67.5
420,111,14533,6,0,L|409:279,1,135
216,378,14914,2,0,L|225:244,1,135
499,21,15296,2,0,L|494:105,1,67.5
225,244,15550,5,0,0:0:0:0:
249,163,15677,1,0,0:0:0:0:
329,184,15804,1,0,0:0:0:0:
308,264,15931,1,0,0:0:0:0:
225,244,16058,6,0,P|206:205|220:129,1,101.25
237,91,16312,1,0,0:0:0:0:
237,91,16440,1,0,0:0:0:0:
512,301,16567,5,0,0:0:0:0:
218,373,16948,1,0,0:0:0:0:
512,301,17329,5,0,0:0:0:0:
512,301,17457,1,0,0:0:0:0:
512,301,17584,2,0,L|481:220,1,67.5
232,190,17838,2,0,L|263:271,1,67.5
317,280,18092,2,0,L|237:244,1,67.5
0,301,18346,2,0,L|79:336,1,67.5
294,373,18601,5,0,0:0:0:0:
0,301,18982,1,0,0:0:0:0:
294,373,19363,5,0,0:0:0:0:
0,83,19618,2,0,L|31:164,1,67.5
280,194,19872,2,0,L|249:113,1,67.5
195,104,20126,2,0,L|274:139,1,67.5
512,83,20380,2,0,L|432:47,1,67.5
218,11,20634,5,0,0:0:0:0:
512,83,21015,1,0,0:0:0:0:
218,11,21397,5,0,0:0:0:0:
218,11,21524,1,0,0:0:0:0:
104,56,21651,2,0,P|158:64|236:13,1,101.250003862381
351,56,21906,2,0,P|301:80|267:166,1,101.250003862381
256,288,22160,1,0,0:0:0:0:
256,288,22414,1,0,0:0:0:0:
256,288,22541,2,0,B|224:256|288:192|256:128,1,135
256,32,22923,1,0,0:0:0:0:
256,288,23177,5,0,0:0:0:0:
256,32,23431,2,0,B|206:105|266:213|266:213|252:204|252:204|288:263|238:371,1,337.5
80,351,24194,6,0,P|58:311|65:229,1,101.250003862381
358,202,24448,2,0,P|353:156|300:93,1,101.250003862381
73,48,24702,2,0,B|39:80|59:149|147:97|227:187,1,202.5
490,107,25211,2,0,P|395:82|269:191,1,253.125
96,344,25719,6,0,P|88:282|102:252,1,67.5
373,263,25973,2,0,P|394:237|405:206,1,67.5
144,53,26228,2,0,P|152:114|173:140,1,67.5
147,224,26482,1,0,0:0:0:0:
321,291,26609,2,0,P|312:229|200:182,1,135
147,224,26990,2,0,P|168:246|216:257,1,67.5
455,186,27245,5,0,0:0:0:0:
202,257,27498,1,0,0:0:0:0:
455,186,27753,1,0,0:0:0:0:
371,111,27880,1,0,0:0:0:0:
430,33,28007,6,0,P|438:95|424:125,1,67.5
276,254,28262,2,0,P|305:198|333:182,1,67.5
507,217,28516,2,0,P|468:167|437:156,1,67.5
57,186,28770,6,0,P|110:230|275:234,1,202.500007724762
459,259,29151,2,0,P|389:252|251:344,1,202.500007724762
60,355,29533,6,0,P|94:352|154:294,1,67.5
323,224,29787,2,0,P|303:195|223:172,1,67.5
162,194,30041,5,0,0:0:0:0:
56,149,30168,1,0,0:0:0:0:
28,36,30295,2,0,P|56:55|79:135,1,67.5
12,273,30550,2,0,P|0:240|26:161,1,67.5
300,287,30804,6,0,B|345:227|286:158|298:88,1,202.500007724762
216,228,31185,2,0,B|171:168|233:107|218:29,1,202.500007724762
311,168,31567,5,0,0:0:0:0:
136,384,31821,1,0,0:0:0:0:
51,326,31948,1,0,0:0:0:0:
358,305,32202,1,0,0:0:0:0:
413,245,32329,6,0,L|400:164,1,67.5
473,31,32584,2,0,L|460:112,1,67.5
28,88,32838,2,0,L|60:219,1,135
322,235,33219,5,0,0:0:0:0:
188,163,33346,1,0,0:0:0:0:
193,311,33601,5,0,0:0:0:0:
323,167,33855,6,0,P|315:236|350:294,1,101.250003862381
512,384,34109,2,0,P|478:322|417:295,1,101.250003862381
100,319,34363,6,0,P|210:327|269:276,1,151.875005793572
310,239,34618,1,0,0:0:0:0:
111,217,34745,2,0,L|211:194,2,101.25
151,135,35253,5,0,0:0:0:0:
17,207,35380,1,0,0:0:0:0:
22,59,35635,5,0,0:0:0:0:
352,260,35889,1,0,0:0:0:0:
343,239,36016,1,0,0:0:0:0:
335,218,36143,1,0,0:0:0:0:
327,197,36270,1,0,0:0:0:0:
254,190,36397,5,0,0:0:0:0:
332,121,36567,5,0,0:0:0:0:
233,87,36736,5,0,0:0:0:0:
365,174,36906,5,0,0:0:0:0:
374,18,37076,5,0,0:0:0:0:
233,86,37245,5,0,0:0:0:0:
474,177,37414,5,0,0:0:0:0:
114,105,37668,1,0,0:0:0:0:
305,273,37923,1,0,0:0:0:0:
369,217,38050,1,0,0:0:0:0:
137,284,38304,1,0,0:0:0:0:
104,186,38431,5,0,0:0:0:0:
205,205,38601,5,0,0:0:0:0:
137,284,38770,5,0,0:0:0:0:
128,126,38940,5,0,0:0:0:0:
267,197,39110,5,0,0:0:0:0:
137,284,39279,2,0,P|112:217|145:121,1,135
154,120,39575,1,0,0:0:0:0:
323,232,39702,2,0,P|368:183|384:118,1,133.649999592133
234,112,40973,5,0,0:0:0:0:
323,232,41228,1,0,0:0:0:0:
383,94,41736,5,0,0:0:0:0:
234,112,41990,1,0,0:0:0:0:
76,296,42499,5,0,0:0:0:0:
448,192,42753,1,0,0:0:0:0:
76,296,43262,6,0,B|6:286|41:118|134:118|232:113|246:-33|53:-40|49:96|113:96|189:87|134:51,1,405.000015449524
447,368,44024,6,0,P|442:288|234:101,1,303.750011587143
35,85,44533,2,0,P|75:112|181:128,1,151.875005793572
501,95,45041,2,0,P|443:78|258:177,1,202.500007724762
266,170,45423,1,0,0:0:0:0:
244,216,45550,1,0,0:0:0:0:
220,261,45677,1,0,0:0:0:0:
198,306,45804,2,0,P|256:277|333:145,1,202.500007724762
182,155,46567,5,0,0:0:0:0:
182,155,47584,1,0,0:0:0:0:
291,384,48092,5,0,0:0:0:0:
151,74,48601,1,0,0:0:0:0:
110,285,49109,5,0,0:0:0:0:
350,42,49363,2,0,P|377:98|367:153,1,67.5
110,65,49872,5,0,0:0:0:0:
99,145,49999,1,0,0:0:0:0:
141,213,50126,2,0,P|165:264|154:318,1,67.5
223,330,50380,1,0,0:0:0:0:
303,326,50507,1,0,0:0:0:0:
363,271,50634,5,0,0:0:0:0:
258,223,50889,1,0,0:0:0:0:
258,223,50952,1,0,0:0:0:0:
258,223,51016,1,0,0:0:0:0:
258,223,51143,5,0,0:0:0:0:
451,125,51397,5,0,0:0:0:0:
247,115,51524,2,0,P|302:151|369:158,1,135
451,125,51906,5,0,0:0:0:0:
474,48,52033,1,0,0:0:0:0:
382,344,52160,2,0,L|198:298,1,135
52,353,52541,1,0,0:0:0:0:
137,384,52668,1,0,0:0:0:0:
37,129,52923,1,0,0:0:0:0:
380,365,53177,6,0,B|436:236|349:243|386:120,1,202.500007724762
269,264,53558,1,0,0:0:0:0:
196,248,53685,1,0,0:0:0:0:
140,198,53812,1,0,0:0:0:0:
63,180,53940,2,0,B|62:103|210:72|191:172|250:162|358:134,1,270
426,165,54575,6,0,P|446:138|452:105,1,67.5
128,320,54957,1,0,0:0:0:0:
128,320,55020,1,0,0:0:0:0:
128,320,55084,1,0,0:0:0:0:
128,320,55211,6,0,L|71:246,1,67.5
262,268,55719,6,0,P|342:246|408:194,1,168.75
0,184,56228,6,0,B|-26:140|-26:140|64:115|58:-9,1,202.500007724762
436,256,56736,6,0,P|455:205|336:27,1,236.250002253056
100,248,57245,6,0,B|125:162|93:96|93:96|121:28,2,180
453,207,57753,2,0,P|377:182|241:218,1,202.5
156,306,58008,1,0,0:0:0:0:
434,308,58262,6,0,L|426:315,1,11.25
295,291,58431,6,0,L|302:298,1,11.25
401,226,58601,6,0,L|398:236,1,11.25
452,332,58770,6,0,L|442:337,1,11.25
322,279,58939,6,0,L|327:288,1,11.25
441,244,59109,6,0,L|435:253,1,11.25
67,303,59279,2,0,B|96:290|138:221|138:221|106:326|172:381,1,270
313,306,59661,5,0,0:0:0:0:
385,235,59787,2,0,P|389:168|366:106,1,135
209,29,60041,2,0,P|205:96|229:159,1,135
504,88,60295,6,0,B|483:137|485:170|485:170|395:130|264:196,1,270
191,238,60678,1,0,0:0:0:0:
60,76,60804,6,0,B|85:54|139:39|139:39|82:217|209:156|216:345,1,405
104,305,61312,6,0,P|106:255|198:155,1,135
283,83,61503,2,0,P|282:132|189:232,1,135
181,215,61694,1,0,0:0:0:0:
58,159,61821,2,0,P|104:112|168:94,1,133.649999592133
354,56,62329,6,0,P|452:75|511:153,1,202.5
68,125,62838,6,0,B|17:197|158:252|300:74|436:167,1,405
457,290,63346,6,0,P|409:242|344:225,1,135
141,286,63537,2,0,P|207:297|270:274,1,135
298,241,63728,1,0,0:0:0:0:
233,138,63855,2,0,P|205:198|205:265,1,135
367,364,64110,5,0,0:0:0:0:
52,43,64363,2,0,P|53:120|111:202,1,135
259,384,64618,2,0,P|258:307|200:225,1,135
324,42,64872,6,0,P|323:119|265:201,1,135
117,383,65126,2,0,P|118:306|176:224,1,135
413,24,65380,6,0,B|502:74|476:189|476:189|495:204,1,202.5
62,32,65889,6,0,B|33:54|53:104|53:104|178:88|236:134,1,253.125
410,362,66397,6,0,B|446:366|486:298|486:298|367:240|329:106,1,354.375003379583
47,212,66906,6,0,B|28:191|28:191|22:327|22:327|145:236|311:261,1,455.625017380715
447,280,67414,5,0,0:0:0:0:
423,199,67541,1,0,0:0:0:0:
343,220,67668,1,0,0:0:0:0:
364,300,67795,1,0,0:0:0:0:
447,280,67923,5,0,0:0:0:0:
65,280,68177,1,0,0:0:0:0:
65,280,68431,5,0,0:0:0:0:
89,199,68558,1,0,0:0:0:0:
169,220,68685,1,0,0:0:0:0:
148,300,68812,1,0,0:0:0:0:
64,279,68940,5,0,0:0:0:0:
31,108,69130,1,0,0:0:0:0:
169,220,69321,1,0,0:0:0:0:
82,196,69448,5,0,0:0:0:0:
82,196,69512,1,0,0:0:0:0:
82,196,69575,1,0,0:0:0:0:
82,196,69702,6,0,L|171:225,1,67.5
370,285,69957,5,0,0:0:0:0:
199,318,70147,1,0,0:0:0:0:
311,180,70338,1,0,0:0:0:0:
287,267,70465,5,0,0:0:0:0:
287,267,70529,1,0,0:0:0:0:
287,267,70592,1,0,0:0:0:0:
287,267,70719,6,0,L|316:178,1,67.5
358,41,70973,5,0,0:0:0:0:
391,212,71163,1,0,0:0:0:0:
253,100,71354,1,0,0:0:0:0:
340,124,71481,5,0,0:0:0:0:
340,124,71545,1,0,0:0:0:0:
340,124,71608,1,0,0:0:0:0:
340,124,71735,6,0,L|251:95,1,67.5
52,35,71990,5,0,0:0:0:0:
223,2,72180,1,0,0:0:0:0:
111,140,72371,1,0,0:0:0:0:
0,175,72499,6,0,P|80:235|198:226,1,202.5
443,122,73007,2,0,P|466:267|373:382,1,303.750011587143
456,121,75550,6,0,P|367:119|261:212,1,202.500007724762
110,384,75931,2,0,P|162:312|147:172,1,202.500007724762
97,57,76312,1,0,0:0:0:0:
329,340,76567,5,0,0:0:0:0:
433,230,76694,1,0,0:0:0:0:
288,196,76949,5,0,0:0:0:0:
329,339,77076,1,0,0:0:0:0:
401,88,77329,1,0,0:0:0:0:
62,260,77584,6,0,L|249:361,1,202.500007724762
512,384,77965,2,0,L|451:180,1,202.500007724762
415,57,78346,1,0,0:0:0:0:
183,340,78601,5,0,0:0:0:0:
79,230,78728,1,0,0:0:0:0:
224,196,78983,5,0,0:0:0:0:
183,339,79110,1,0,0:0:0:0:
111,88,79363,1,0,0:0:0:0:
37,304,79618,6,0,P|185:304|251:201,1,202.500007724762
390,83,79999,2,0,P|268:167|273:290,1,202.500007724762
349,348,80380,2,0,L|337:229,1,101.250003862381
38,86,80634,6,0,P|186:86|252:189,1,202.500007724762
391,307,81015,2,0,P|269:222|274:99,1,202.500007724762
350,42,81396,2,0,L|338:160,1,101.250003862381
74,343,81651,6,0,L|96:116,1,202.500007724762
350,42,82033,2,0,L|173:186,1,202.500007724762
314,355,82414,2,0,L|325:236,1,101.250003862381
103,35,82668,1,0,0:0:0:0:
404,343,82923,5,0,0:0:0:0:
433,279,83049,1,0,0:0:0:0:
415,220,83176,1,0,0:0:0:0:
396,172,83304,1,0,0:0:0:0:
390,129,83431,2,0,L|406:133,1,16.875
489,53,83685,2,0,P|504:115|405:295,1,202.500007724762
316,318,84067,1,0,0:0:0:0:
151,315,84194,5,0,0:0:0:0:
111,288,84321,1,0,0:0:0:0:
101,248,84448,1,0,0:0:0:0:
101,214,84575,5,0,0:0:0:0:
169,231,84702,1,0,0:0:0:0:
239,226,84829,1,0,0:0:0:0:
305,202,84957,5,0,0:0:0:0:
321,189,85084,1,0,0:0:0:0:
323,182,85211,1,0,0:0:0:0:
319,176,85338,1,0,0:0:0:0:
312,174,85465,1,0,0:0:0:0:
1,2,85719,2,0,P|46:78|148:82,1,135
250,35,86101,5,0,0:0:0:0:
177,165,86228,1,0,0:0:0:0:
406,38,86481,5,0,0:0:0:0:
177,165,86736,1,0,0:0:0:0:
484,276,86990,6,0,L|376:307,1,101.250003862381
267,279,87245,2,0,L|364:251,1,101.250003862381
476,384,87499,1,0,0:0:0:0:
108,337,87753,2,0,B|15:251|280:188|120:58|107:255,2,303.750011587143
302,365,89024,5,0,0:0:0:0:
307,331,89151,1,0,0:0:0:0:
295,309,89279,1,0,0:0:0:0:
286,292,89406,1,0,0:0:0:0:
286,278,89533,2,0,L|312:300,2,33.75
68,97,91821,5,0,0:0:0:0:
140,60,91948,1,0,0:0:0:0:
220,63,92075,1,0,0:0:0:0:
297,118,92202,1,0,0:0:0:0:
375,100,92329,1,0,0:0:0:0:
435,46,92456,1,0,0:0:0:0:
327,349,92838,5,0,0:0:0:0:
249,324,92965,1,0,0:0:0:0:
195,265,93092,1,0,0:0:0:0:
179,170,93219,1,0,0:0:0:0:
112,128,93346,2,0,L|140:241,1,67.5
289,384,93601,2,0,L|261:271,1,67.5
435,312,93855,5,0,0:0:0:0:
468,238,93982,1,0,0:0:0:0:
453,158,94109,2,0,P|435:123|406:96,1,67.5
77,312,94363,5,0,0:0:0:0:
44,238,94490,1,0,0:0:0:0:
59,158,94617,2,0,P|77:123|106:96,1,67.5
394,63,94873,5,0,0:0:0:0:
335,8,94999,1,0,0:0:0:0:
255,2,95126,2,0,L|279:120,1,67.5
326,349,95380,1,0,0:0:0:0:
0,215,95889,6,0,L|83:199,1,45
179,211,96064,2,0,L|134:219,1,45
76,263,96217,1,0,0:0:0:0:
76,263,96283,1,0,0:0:0:0:
262,354,96414,2,0,L|244:265,1,90
233,210,96651,5,0,0:0:0:0:
233,210,96779,1,0,0:0:0:0:
233,210,96905,2,0,L|215:121,1,90
201,54,97160,1,0,0:0:0:0:
201,54,97287,5,0,0:0:0:0:
67,79,97414,1,0,0:0:0:0:
60,309,97923,5,0,0:0:0:0:
134,341,98050,1,0,0:0:0:0:
214,341,98177,1,0,0:0:0:0:
277,291,98304,1,0,0:0:0:0:
354,269,98431,5,0,0:0:0:0:
363,274,98600,2,0,L|360:280,2,4.5
474,351,98940,5,0,0:0:0:0:
487,250,99067,1,0,0:0:0:0:
431,165,99194,1,0,0:0:0:0:
339,121,99321,1,0,0:0:0:0:
236,40,99448,2,0,L|281:138,1,67.5
254,178,99702,5,0,0:0:0:0:
254,178,99829,1,0,0:0:0:0:
151,97,99956,2,0,L|181:162,1,66.8249997960663
49,114,100465,6,0,L|56:247,1,67.5
332,269,100719,5,0,0:0:0:0:
332,269,100846,1,0,0:0:0:0:
332,269,100973,2,0,L|290:142,1,67.5
133,17,101228,5,0,0:0:0:0:
133,17,101355,1,0,0:0:0:0:
133,17,101482,2,0,L|105:147,1,67.5
229,366,101736,5,0,0:0:0:0:
229,366,101863,1,0,0:0:0:0:
229,366,101990,2,0,L|289:247,1,67.5
374,320,102245,5,0,0:0:0:0:
424,258,102372,1,0,0:0:0:0:
439,206,102499,1,0,0:0:0:0:
439,172,102626,1,0,0:0:0:0:
434,159,102753,2,0,L|374:278,1,67.5
111,251,103007,2,0,L|69:124,1,67.5
235,31,103261,5,0,0:0:0:0:
314,40,103388,1,0,0:0:0:0:
361,66,103515,1,0,0:0:0:0:
385,90,103642,1,0,0:0:0:0:
382,136,103770,6,0,L|391:104,1,33.75
168,178,104024,2,0,B|221:111|323:204|405:148,1,202.5
429,239,104533,5,0,0:0:0:0:
427,232,104660,1,0,0:0:0:0:
425,225,104787,2,0,L|420:254,1,16.875
228,347,105041,6,0,L|245:231,1,67.5
0,173,105295,1,0,0:0:0:0:
0,173,105423,2,0,L|59:248,1,67.5
247,254,105804,5,0,0:0:0:0:
267,253,105931,1,0,0:0:0:0:
281,238,106058,1,0,0:0:0:0:
277,231,106185,1,0,0:0:0:0:
272,236,106312,1,0,0:0:0:0:
274,242,106439,1,0,0:0:0:0:
276,243,106567,6,0,L|257:140,2,67.5
292,322,107389,1,0,0:0:0:0:
375,347,107526,2,0,B|395:264|312:246|340:142,1,202.5
47,186,108092,5,0,0:0:0:0:
136,66,108347,1,0,0:0:0:0:
196,204,108855,5,0,0:0:0:0:
47,186,109109,1,0,0:0:0:0:
376,66,109617,5,0,0:0:0:0:
256,342,109871,1,0,0:0:0:0:
105,115,110380,6,0,P|111:162|92:209,1,67.5
35,151,110634,2,0,B|58:237|167:185|223:285,1,202.500007724762
512,169,111142,6,0,P|446:236|305:246,1,202.5
0,375,111651,2,0,P|-24:277|118:117,1,303.750011587143
414,61,112159,2,0,P|383:102|303:125,1,101.250003862381
277,213,112541,1,0,0:0:0:0:
207,200,112668,1,0,0:0:0:0:
137,188,112795,1,0,0:0:0:0:
77,177,112922,2,0,P|130:239|271:258,1,202.500007724762
404,216,113685,5,0,0:0:0:0:
404,216,114702,1,0,0:0:0:0:
69,366,115210,5,0,0:0:0:0:
296,58,115719,1,0,0:0:0:0:
25,153,116227,6,0,P|33:198|66:226,1,67.5
354,349,116481,1,0,0:0:0:0:
242,356,116608,1,0,0:0:0:0:
481,318,116990,6,0,P|448:228|399:208,1,101.250003862381
309,248,117244,2,0,L|298:198,1,50.6250019311906
344,152,117498,1,0,0:0:0:0:
344,152,117625,1,0,0:0:0:0:
204,250,117753,6,0,P|163:163|184:114,1,101.250003862381
105,97,118007,1,0,0:0:0:0:
105,97,118070,1,0,0:0:0:0:
105,97,118134,1,0,0:0:0:0:
105,97,118261,6,0,L|199:88,1,67.5
393,77,118515,5,0,0:0:0:0:
370,17,118642,2,0,L|319:195,1,135
269,364,119024,1,0,0:0:0:0:
350,317,119151,1,0,0:0:0:0:
64,384,119278,6,0,P|22:293|32:194,1,202.500007724762
270,62,119659,1,0,0:0:0:0:
185,31,119786,1,0,0:0:0:0:
472,132,120041,1,0,0:0:0:0:
131,200,120295,6,0,B|188:149|197:375|371:231,1,202.500007724762
472,132,120676,5,0,0:0:0:0:
415,183,120803,1,0,0:0:0:0:
358,232,120930,1,0,0:0:0:0:
295,275,121058,2,0,B|253:199|56:393|31:216,1,270
239,355,121693,1,0,0:0:0:0:
435,330,122075,5,0,0:0:0:0:
435,330,122138,1,0,0:0:0:0:
435,330,122202,1,0,0:0:0:0:
435,330,122329,6,0,L|393:239,1,67.5
41,314,122837,2,0,B|76:252|162:267|211:225,1,168.75
434,121,123346,2,0,B|431:67|409:53|409:53|407:182|283:194,1,202.500007724762
76,28,123854,2,0,B|-33:56|207:71|31:320,1,236.250002253056
450,323,124363,6,0,B|441:245|302:267|337:156,2,180
61,246,124871,2,0,P|136:270|273:235,1,202.5
417,174,125126,1,0,0:0:0:0:
174,90,125380,6,0,L|183:84,1,11.25
308,131,125549,6,0,L|302:123,1,11.25
192,176,125719,6,0,L|197:167,1,11.25
160,63,125888,6,0,L|171:60,1,11.25
279,138,126057,6,0,L|276:128,1,11.25
156,152,126227,6,0,L|163:144,1,11.25
331,30,126397,2,0,B|401:122|160:93|176:315,1,270
382,312,126779,5,0,0:0:0:0:
438,229,126905,2,0,P|371:225|309:248,1,135
96,330,127159,2,0,P|163:334|226:310,1,135
438,229,127413,6,0,B|457:179|482:157|482:157|390:122|344:-17,1,270
337,183,127796,1,0,0:0:0:0:
124,134,127922,6,0,B|102:159|87:213|87:213|265:156|204:283|393:290,1,405
408,79,128430,6,0,P|406:129|314:229,1,135
187,66,128621,2,0,P|236:67|336:160,1,135
227,168,128812,1,0,0:0:0:0:
135,307,128939,2,0,P|134:241|166:183,1,133.649999592133
512,25,129447,6,0,P|525:123|470:205,1,202.5
71,36,129956,6,0,B|-15:50|19:273|245:73|301:325,1,405
66,326,130464,6,0,P|68:276|160:176,1,135
326,95,130655,2,0,P|295:134|162:163,1,135
157,177,130846,1,0,0:0:0:0:
22,128,130973,2,0,P|68:81|137:63,1,135
448,133,131227,5,0,0:0:0:0:
495,23,131481,2,0,P|418:24|336:82,1,135
154,230,131736,2,0,P|231:229|313:171,1,135
141,20,131990,2,0,P|142:97|200:179,1,135
446,307,132245,2,0,P|445:230|387:148,1,135
219,324,132498,6,0,B|168:362|113:339|113:339|145:284|157:182|-60:202|72:-20,1,405
410,125,133007,6,0,B|521:173|533:-33|366:-43|376:78|125:160|108:-39,1,455.625017380715
15,212,133515,6,0,B|43:274|135:197|128:363|128:363|227:343|320:206|247:116,1,506.25
450,175,134024,6,0,B|518:129|500:15|500:15|411:100|312:-24|128:38|155:206,1,607.500023174287
306,243,134532,5,0,0:0:0:0:
364,181,134659,1,0,0:0:0:0:
305,122,134786,1,0,0:0:0:0:
247,181,134913,1,0,0:0:0:0:
306,243,135041,5,0,0:0:0:0:
306,243,135295,1,0,0:0:0:0:
306,243,135549,5,0,0:0:0:0:
364,305,135676,1,0,0:0:0:0:
305,364,135803,1,0,0:0:0:0:
247,305,135930,1,0,0:0:0:0:
422,286,136058,6,0,L|418:293,1,8.4375
386,187,136248,6,0,L|390:197,1,8.4375
471,138,136439,6,0,L|467:148,1,8.4375
264,277,136566,5,0,0:0:0:0:
264,277,136630,1,0,0:0:0:0:
264,277,136693,1,0,0:0:0:0:
264,277,136820,6,0,L|353:248,1,67.5
380,165,137075,6,0,L|383:172,1,8.4375
409,59,137265,6,0,L|405:69,1,8.4375
321,27,137456,6,0,L|325:37,1,8.4375
426,216,137583,5,0,0:0:0:0:
426,216,137647,1,0,0:0:0:0:
426,216,137710,1,0,0:0:0:0:
426,216,137837,6,0,L|337:187,1,67.5
133,87,138091,6,0,L|136:79,1,8.4375
146,212,138282,6,0,L|142:202,1,8.4375
62,243,138472,6,0,L|66:233,1,8.4375
4,70,138599,5,0,0:0:0:0:
4,70,138663,1,0,0:0:0:0:
4,70,138726,1,0,0:0:0:0:
4,70,138853,6,0,L|33:159,1,67.5
149,290,139108,6,0,L|145:297,1,8.4375
258,225,139299,6,0,L|248:229,1,8.4375
209,129,139489,6,0,L|204:138,1,8.4375
108,277,139617,2,0,P|49:199|57:84,2,202.500007724762
186,291,141015,6,0,L|202:276,1,20.25
159,212,141651,6,0,L|159:225,1,13.5
122,358,142032,5,0,0:0:0:0:
267,316,142159,1,0,0:0:0:0:
15,244,142414,5,0,0:0:0:0:
267,316,142668,1,0,0:0:0:0:
336,188,143049,6,0,L|320:203,1,20.25
363,267,143685,6,0,L|362:254,1,13.5
400,121,144066,5,0,0:0:0:0:
507,235,144193,1,0,0:0:0:0:
255,163,144447,5,0,0:0:0:0:
507,235,144702,1,0,0:0:0:0:
181,85,145083,6,0,L|197:70,1,20.25
154,6,145719,6,0,L|161:20,1,13.5
117,152,146100,5,0,0:0:0:0:
262,110,146227,1,0,0:0:0:0:
10,38,146481,5,0,0:0:0:0:
262,110,146736,2,0,B|234:152|276:207|351:129|544:178|435:259,2,303.750011587143
136,190,148769,6,0,L|149:220,1,22.5
76,285,148939,6,0,L|82:270,1,11.25
3,196,149108,6,0,L|9:211,1,11.25
177,318,149278,6,0,L|170:303,1,11.25
310,312,149448,6,0,L|305:301,1,11.25
237,223,149617,6,0,L|232:233,1,11.25
371,347,149786,2,0,B|498:302|363:169|372:107|402:62,1,303.750011587143
156,153,150295,2,0,P|199:110|314:99,1,151.875005793572
330,193,150803,6,0,L|345:198,1,11.25
240,291,150973,6,0,L|251:295,1,11.25
354,302,151142,6,0,L|350:291,1,11.25
122,255,151312,6,0,L|137:261,1,11.25
146,364,151482,6,0,L|139:349,1,11.25
32,353,151651,6,0,L|46:359,1,11.25
257,374,151820,6,0,L|344:344,1,84.3750032186509
376,194,152837,6,0,L|369:179,1,11.25
436,99,153007,6,0,L|430:114,1,11.25
509,188,153176,6,0,L|503:173,1,11.25
335,66,153346,6,0,L|342:81,1,11.25
202,72,153516,6,0,L|207:83,1,11.25
275,161,153685,6,0,L|280:151,1,11.25
68,78,153854,2,0,B|31:152|90:163|90:163|183:177|281:150|303:224,1,337.500012874604
436,266,154363,2,0,P|375:266|286:192,1,151.875005793572
170,360,154871,6,0,L|155:355,1,11.25
146,251,155041,6,0,L|150:262,1,11.25
260,262,155210,6,0,L|249:258,1,11.25
473,332,155380,6,0,L|482:319,1,11.25
438,226,155550,6,0,L|439:242,1,11.25
345,292,155719,6,0,L|354:279,1,11.25
481,156,155888,2,0,L|458:81,1,75.9375028967858
237,200,156906,5,0,0:0:0:0:
148,97,157075,1,0,0:0:0:0:
333,242,157286,6,0,P|337:184|315:138,1,101.250003862381
148,97,157668,1,0,0:0:0:0:
333,242,157922,5,0,0:0:0:0:
422,139,158091,1,0,0:0:0:0:
237,284,158303,6,0,P|233:226|255:180,1,101.250003862381
422,139,158684,1,0,0:0:0:0:
237,284,158939,5,0,0:0:0:0:
148,181,159108,1,0,0:0:0:0:
333,326,159320,6,0,P|337:268|315:222,1,101.250003862381
148,181,159701,1,0,0:0:0:0:
288,224,159957,5,0,0:0:0:0:
224,160,160465,1,0,0:0:0:0:
276,331,160973,6,0,P|365:286|389:228,1,135
168,87,161354,2,0,P|120:174|161:302,1,202.500007724762
384,182,161736,1,0,0:0:0:0:
276,57,161990,6,0,P|365:102|389:160,1,135
168,301,162371,2,0,P|120:213|161:85,1,202.500007724762
380,214,162753,1,0,0:0:0:0:
232,27,163007,5,0,0:0:0:0:
161,91,163134,2,0,P|150:123|151:157,1,67.5
384,384,163388,2,0,P|342:299|274:259,1,135
129,247,163769,2,0,P|156:267|187:278,1,67.5
474,195,164024,2,0,B|527:277|417:241|368:333,1,202.500007724762
107,348,164405,5,0,0:0:0:0:
0,234,164532,1,0,0:0:0:0:
252,306,164786,1,0,0:0:0:0:
0,234,165041,6,0,B|-33:168|117:116|106:69,2,202.5
298,359,165549,2,0,B|314:271|201:330|156:172,1,202.5
204,41,165804,1,0,0:0:0:0:
170,333,166058,6,0,L|160:328,1,11.25
139,196,166227,6,0,L|135:205,1,11.25
236,274,166397,6,0,L|225:274,1,11.25
154,358,166566,6,0,L|145:349,1,11.25
159,218,166735,6,0,L|151:225,1,11.25
233,317,166905,6,0,L|222:314,1,11.25
90,350,167075,2,0,B|134:243|230:466|414:341,1,270
410,289,167457,5,0,0:0:0:0:
283,32,167583,2,0,P|261:95|267:161,1,135
483,359,167837,2,0,P|504:295|497:228,1,135
74,155,168091,6,0,B|55:205|30:227|30:227|122:262|168:401,1,270
410,289,168474,1,0,0:0:0:0:
290,276,168600,6,0,B|276:260|266:226|266:226|378:262|340:182|459:177,1,202.5
502,227,168854,2,0,P|480:130|407:63,1,202.5
70,78,169108,6,0,P|106:111|242:117,1,135
392,161,169299,2,0,P|342:154|227:227,1,135
213,315,169490,1,0,0:0:0:0:
44,334,169617,2,0,P|43:294|96:221,1,101.250003862381
213,315,169871,5,0,0:0:0:0:
498,126,170125,2,0,P|488:199|382:272,1,202.500007724762
213,315,170507,1,0,0:0:0:0:
291,319,170634,6,0,B|334:312|317:200|204:300|176:174,1,202.5
97,219,170888,2,0,B|80:162|130:137|120:86,1,135
199,363,171142,6,0,P|249:361|349:269,1,135
245,261,171333,2,0,P|268:198|317:153,1,135
425,308,171524,1,0,0:0:0:0:
511,255,171651,6,0,P|509:204|417:105,1,135
194,73,171905,2,0,P|224:112|357:141,1,135
396,130,172159,6,0,P|450:168|482:227,1,135
187,296,172414,2,0,P|164:232|171:166,1,135
339,354,172668,6,0,P|374:297|381:231,1,135
263,41,172922,2,0,P|267:107|299:165,1,135
472,220,173176,6,0,B|492:238|469:312|469:312|294:365|346:252|144:342,1,405
67,34,173685,6,0,B|29:85|52:140|52:140|107:108|209:96|189:313|411:181,1,455.625017380715
455,37,174193,6,0,B|382:-3|294:84|294:84|425:83|433:143|546:139|463:366|413:325,1,506.25
80,352,174702,6,0,B|-2:318|46:94|201:213|235:341|457:315|529:126,1,607.500023174287
343,50,175210,5,0,0:0:0:0:
285,112,175337,1,0,0:0:0:0:
344,171,175464,1,0,0:0:0:0:
402,112,175591,1,0,0:0:0:0:
343,50,175719,5,0,0:0:0:0:
169,334,175973,1,0,0:0:0:0:
169,334,176227,5,0,0:0:0:0:
110,276,176354,1,0,0:0:0:0:
169,217,176481,1,0,0:0:0:0:
231,275,176608,1,0,0:0:0:0:
30,150,176736,6,0,L|36:157,1,8.4375
161,41,176926,6,0,L|162:50,1,8.4375
71,43,177117,6,0,L|72:52,1,8.4375
223,233,177244,5,0,0:0:0:0:
223,233,177308,1,0,0:0:0:0:
223,233,177371,1,0,0:0:0:0:
223,233,177498,6,0,L|194:144,1,67.5
101,235,177753,6,0,L|107:228,1,8.4375
232,344,177943,6,0,L|233:335,1,8.4375
142,342,178134,6,0,L|143:333,1,8.4375
332,190,178261,5,0,0:0:0:0:
332,190,178325,1,0,0:0:0:0:
332,190,178388,1,0,0:0:0:0:
332,190,178515,6,0,L|303:279,1,67.5
482,234,178769,6,0,L|476:227,1,8.4375
351,343,178960,6,0,L|350:334,1,8.4375
441,341,179150,6,0,L|440:332,1,8.4375
289,151,179277,5,0,0:0:0:0:
289,151,179341,1,0,0:0:0:0:
289,151,179404,1,0,0:0:0:0:
289,151,179531,6,0,L|318:240,1,67.5
411,149,179786,6,0,L|405:156,1,8.4375
280,40,179977,6,0,L|279:49,1,8.4375
370,42,180167,6,0,L|369:51,1,8.4375
97,133,180295,2,0,P|156:177|242:170,1,151.875005793572
269,59,180803,2,0,B|220:123|342:172|248:339,1,270
