osu file format v14

[General]
AudioFilename: audio.mp3
AudioLeadIn: 0
PreviewTime: 93705
Countdown: 0
SampleSet: Normal
StackLeniency: 0.7
Mode: 1
LetterboxInBreaks: 0
WidescreenStoryboard: 1

[Editor]
Bookmarks: 12000,45882,68470,91058,93882,115058,116470,139058,155999,179999,202587,225175,247763,270351,292940,315528
DistanceSpacing: 0.3
BeatDivisor: 4
GridSize: 32
TimelineZoom: 2.500001

[Metadata]
Title:The Venerable Ancient Battlefield ~ Suwa Foughten Field RMX
TitleUnicode:The Venerable Ancient Battlefield ~ Suwa Foughten Field RMX
Artist:MAMA PURITY
ArtistUnicode:MAMA PURITY
Creator:eterpay
Version:Muzukashii
Source:東方Project
Tags:moon mom mum kanako yasaka touhou toho mountain of faith
BeatmapID:1145873
BeatmapSetID:538001

[Difficulty]
HPDrainRate:6
CircleSize:2
OverallDifficulty:5
ApproachRate:5
SliderMultiplier:1.39999963465119
SliderTickRate:1

[Events]
//Background and Video events
0,0,"kanakobg.jpg",0,0
//Break Periods
2,156199,160446
//Storyboard Layer 0 (Background)
//Storyboard Layer 1 (Fail)
//Storyboard Layer 2 (Pass)
//Storyboard Layer 3 (Foreground)
//Storyboard Sound Samples

[TimingPoints]
706,352.941176470588,4,1,0,100,1,0
706,-133.333333333333,4,1,0,100,0,0
4941,-100,4,1,0,100,0,0
6000,-133.333333333333,4,1,0,100,0,0
6353,-133.333333333333,4,1,0,100,0,0
12000,-125,4,1,0,100,0,0
16235,-100,4,1,0,100,0,0
17647,-125,4,1,0,100,0,0
23295,-117.647058823529,4,1,0,100,0,0
27529,-100,4,1,0,100,0,0
28941,-117.647058823529,4,1,0,100,0,0
34589,-111.111111111111,4,1,0,100,0,0
38823,-100,4,1,0,100,0,0
40235,-111.111111111111,4,1,0,100,0,0
45176,-100,4,1,0,100,0,0
45882,-100,4,1,0,100,0,1
68470,-100,4,1,0,100,0,0
93882,-100,4,1,0,100,0,0
115411,-100,4,1,0,100,0,0
127764,-95.2380952380952,4,1,0,100,0,0
138705,-105.263157894737,4,1,0,100,0,0
138882,-125,4,1,0,100,0,0
139058,352.941176470588,3,1,0,100,1,0
139058,-133.333333333333,3,1,0,100,0,0
155999,352.941176470588,4,1,0,100,1,0
155999,-133.333333333333,4,1,0,100,0,0
156351,-100,4,1,0,100,0,0
167295,-95.2380952380952,4,1,0,100,0,0
170117,-90.9090909090909,4,1,0,100,0,0
172941,-86.9565217391304,4,1,0,100,0,0
173646,-90.9090909090909,4,1,0,100,0,0
174353,-95.2380952380952,4,1,0,100,0,0
176116,-100,4,1,0,100,0,0
177176,-111.111111111111,4,1,0,100,0,0
178587,-125,4,1,0,100,0,0
179293,-111.111111111111,4,1,0,100,0,0
179646,-100,4,1,0,100,0,0
179822,-100,4,1,0,100,0,0
179999,-100,4,1,0,100,0,0
219881,-100,4,1,0,100,0,0
220587,-105.263157894737,4,1,0,100,0,0
221998,-117.647058823529,4,1,0,100,0,0
223763,-111.111111111111,4,1,0,100,0,0
224293,-107.52688172043,4,1,0,100,0,0
224469,-105.263157894737,4,1,0,100,0,0
224557,-102.040816326531,4,1,0,100,0,0
224646,-100,4,1,0,100,0,0
224734,-97.0873786407767,4,1,0,100,0,0
224822,-95.2380952380952,4,1,0,100,0,0
224910,-92.5925925925926,4,1,0,100,0,0
224998,-90.9090909090909,4,1,0,100,0,0
225087,-88.4955752212389,4,1,0,100,0,0
225175,-86.9565217391304,4,1,0,100,0,1
247763,-117.647058823529,4,1,0,100,0,0
251998,-100,4,1,0,100,0,0
253410,-117.647058823529,4,1,0,100,0,0
259057,-111.111111111111,4,1,0,100,0,0
263293,-100,4,1,0,100,0,0
264704,-111.111111111111,4,1,0,100,0,0
269646,-100,4,1,0,100,0,0
270351,-100,4,1,0,100,0,1
292940,-100,4,1,0,100,0,0

[HitObjects]
256,192,706,5,0,0:0:0:0:
256,192,1411,1,8,0:0:0:0:
256,192,1588,1,8,0:0:0:0:
256,192,2117,1,0,0:0:0:0:
256,192,2823,1,8,0:0:0:0:
256,192,3000,1,8,0:0:0:0:
256,192,3529,1,0,0:0:0:0:
256,192,4235,1,8,0:0:0:0:
256,192,4411,1,8,0:0:0:0:
256,192,4941,1,0,0:0:0:0:
256,192,5294,1,0,0:0:0:0:
256,192,5647,1,0,0:0:0:0:
256,192,6353,1,0,0:0:0:0:
256,192,6529,1,0,0:0:0:0:
256,192,7058,1,8,0:0:0:0:
256,192,7235,1,8,0:0:0:0:
256,192,7764,1,0,0:0:0:0:
256,192,7941,1,0,0:0:0:0:
256,192,8470,1,8,0:0:0:0:
256,192,8647,1,8,0:0:0:0:
256,192,9176,1,8,0:0:0:0:
256,192,9705,1,0,0:0:0:0:
256,192,9882,1,8,0:0:0:0:
256,192,10058,1,8,0:0:0:0:
256,192,10235,1,8,0:0:0:0:
256,192,10411,1,8,0:0:0:0:
256,192,10588,1,0,0:0:0:0:
256,192,11117,1,0,0:0:0:0:
256,192,11294,1,8,0:0:0:0:
256,192,11470,1,0,0:0:0:0:
256,192,11647,1,8,0:0:0:0:
256,192,11823,1,0,0:0:0:0:
256,192,12000,5,0,0:0:0:0:
256,192,12529,1,0,0:0:0:0:
256,192,12705,1,8,0:0:0:0:
256,192,12882,1,0,0:0:0:0:
256,192,13235,1,0,0:0:0:0:
256,192,13411,1,0,0:0:0:0:
256,192,13588,1,0,0:0:0:0:
256,192,13941,1,0,0:0:0:0:
256,192,14117,1,8,0:0:0:0:
256,192,14294,1,0,0:0:0:0:
256,192,14647,1,0,0:0:0:0:
256,192,14823,1,0,0:0:0:0:
256,192,15000,1,0,0:0:0:0:
256,192,15176,1,8,0:0:0:0:
256,192,15353,1,8,0:0:0:0:
256,192,15529,1,0,0:0:0:0:
256,192,15705,1,0,0:0:0:0:
256,192,15882,1,8,0:0:0:0:
256,192,16058,1,8,0:0:0:0:
256,192,16235,1,0,0:0:0:0:
256,192,16588,1,0,0:0:0:0:
256,192,16941,1,0,0:0:0:0:
256,192,17647,1,12,0:0:0:0:
256,192,17823,1,0,0:0:0:0:
256,192,18176,1,0,0:0:0:0:
256,192,18353,1,8,0:0:0:0:
256,192,18529,1,0,0:0:0:0:
256,192,18882,1,0,0:0:0:0:
256,192,19058,1,8,0:0:0:0:
256,192,19235,1,0,0:0:0:0:
256,192,19588,1,0,0:0:0:0:
256,192,19764,1,8,0:0:0:0:
256,192,19941,1,0,0:0:0:0:
256,192,20117,1,0,0:0:0:0:
256,192,20294,1,0,0:0:0:0:
256,192,20470,1,8,0:0:0:0:
256,192,21000,1,8,0:0:0:0:
256,192,21088,1,8,0:0:0:0:
256,192,21176,1,0,0:0:0:0:
256,192,21353,1,0,0:0:0:0:
256,192,21529,1,0,0:0:0:0:
256,192,21705,1,0,0:0:0:0:
256,192,21882,1,8,0:0:0:0:
256,192,22058,1,0,0:0:0:0:
256,192,22235,1,8,0:0:0:0:
256,192,22411,1,0,0:0:0:0:
256,192,22588,1,8,0:0:0:0:
256,192,22676,1,8,0:0:0:0:
256,192,22764,1,0,0:0:0:0:
256,192,22941,1,8,0:0:0:0:
256,192,23117,1,0,0:0:0:0:
256,192,23294,1,8,0:0:0:0:
256,192,23823,1,0,0:0:0:0:
256,192,24000,1,8,0:0:0:0:
256,192,24176,1,8,0:0:0:0:
256,192,24529,1,0,0:0:0:0:
256,192,24705,1,8,0:0:0:0:
256,192,24882,1,8,0:0:0:0:
256,192,25235,1,0,0:0:0:0:
256,192,25411,1,8,0:0:0:0:
256,192,25588,1,8,0:0:0:0:
256,192,25941,1,8,0:0:0:0:
256,192,26117,1,0,0:0:0:0:
256,192,26294,1,0,0:0:0:0:
256,192,26470,1,8,0:0:0:0:
256,192,26647,1,8,0:0:0:0:
256,192,26823,1,0,0:0:0:0:
256,192,27000,1,0,0:0:0:0:
256,192,27176,1,8,0:0:0:0:
256,192,27353,1,8,0:0:0:0:
256,192,27529,1,0,0:0:0:0:
256,192,27705,1,8,0:0:0:0:
256,192,27882,1,0,0:0:0:0:
256,192,28058,1,8,0:0:0:0:
256,192,28235,1,0,0:0:0:0:
256,192,28941,1,4,0:0:0:0:
256,192,29117,1,0,0:0:0:0:
256,192,29470,1,0,0:0:0:0:
256,192,29647,1,8,0:0:0:0:
256,192,29823,1,8,0:0:0:0:
256,192,30176,1,8,0:0:0:0:
256,192,30353,1,0,0:0:0:0:
256,192,30529,1,0,0:0:0:0:
256,192,30882,1,0,0:0:0:0:
256,192,31058,1,8,0:0:0:0:
256,192,31235,1,8,0:0:0:0:
256,192,31588,1,8,0:0:0:0:
256,192,31764,1,0,0:0:0:0:
256,192,32294,1,8,0:0:0:0:
256,192,32382,1,8,0:0:0:0:
256,192,32470,1,0,0:0:0:0:
256,192,32647,1,0,0:0:0:0:
256,192,32823,1,0,0:0:0:0:
256,192,33000,1,0,0:0:0:0:
256,192,33176,1,8,0:0:0:0:
256,192,33353,1,0,0:0:0:0:
256,192,33529,1,8,0:0:0:0:
256,192,33705,1,0,0:0:0:0:
256,192,33882,1,0,0:0:0:0:
256,192,33970,1,0,0:0:0:0:
256,192,34058,1,0,0:0:0:0:
256,192,34147,1,0,0:0:0:0:
256,192,34235,1,0,0:0:0:0:
256,192,34411,1,8,0:0:0:0:
256,192,34588,1,0,0:0:0:0:
256,192,34764,1,0,0:0:0:0:
256,192,34941,1,0,0:0:0:0:
256,192,35117,1,0,0:0:0:0:
256,192,35294,1,0,0:0:0:0:
256,192,35470,1,0,0:0:0:0:
256,192,35558,1,0,0:0:0:0:
256,192,35647,1,8,0:0:0:0:
256,192,35823,1,8,0:0:0:0:
256,192,36000,1,0,0:0:0:0:
256,192,36176,1,0,0:0:0:0:
256,192,36353,1,0,0:0:0:0:
256,192,36529,1,0,0:0:0:0:
256,192,36705,1,8,0:0:0:0:
256,192,36882,1,0,0:0:0:0:
256,192,36970,1,0,0:0:0:0:
256,192,37058,1,8,0:0:0:0:
256,192,37235,1,8,0:0:0:0:
256,192,37411,1,0,0:0:0:0:
256,192,37588,1,8,0:0:0:0:
256,192,37764,1,0,0:0:0:0:
256,192,37941,1,8,0:0:0:0:
256,192,38117,1,0,0:0:0:0:
256,192,38294,1,8,0:0:0:0:
256,192,38470,1,0,0:0:0:0:
256,192,38647,1,8,0:0:0:0:
256,192,38823,1,0,0:0:0:0:
256,192,39000,1,0,0:0:0:0:
256,192,39176,1,8,0:0:0:0:
256,192,39353,1,8,0:0:0:0:
256,192,39529,1,8,0:0:0:0:
256,192,40235,1,0,0:0:0:0:
256,192,40411,1,0,0:0:0:0:
256,192,40500,1,0,0:0:0:0:
256,192,40588,1,0,0:0:0:0:
256,192,40764,1,0,0:0:0:0:
256,192,40941,1,0,0:0:0:0:
256,192,41117,1,0,0:0:0:0:
256,192,41294,1,8,0:0:0:0:
256,192,41470,1,8,0:0:0:0:
256,192,41558,1,8,0:0:0:0:
256,192,41647,1,8,0:0:0:0:
256,192,41823,1,0,0:0:0:0:
256,192,42000,1,0,0:0:0:0:
256,192,42176,1,0,0:0:0:0:
256,192,42353,1,8,0:0:0:0:
256,192,42529,1,0,0:0:0:0:
256,192,42617,1,0,0:0:0:0:
256,192,42705,1,8,0:0:0:0:
256,192,42882,1,8,0:0:0:0:
256,192,43058,1,8,0:0:0:0:
256,192,43235,1,0,0:0:0:0:
256,192,43411,1,0,0:0:0:0:
256,192,43588,1,0,0:0:0:0:
256,192,43764,1,8,0:0:0:0:
256,192,43941,1,0,0:0:0:0:
256,192,44117,1,8,0:0:0:0:
256,192,44294,1,0,0:0:0:0:
256,192,44470,1,8,0:0:0:0:
256,192,44823,1,8,0:0:0:0:
256,192,45176,1,12,0:0:0:0:
256,192,45353,1,12,0:0:0:0:
256,192,45529,1,12,0:0:0:0:
256,192,45882,1,8,0:0:0:0:
256,192,45970,1,8,0:0:0:0:
256,192,46058,1,8,0:0:0:0:
256,192,46235,1,8,0:0:0:0:
256,192,46588,1,8,0:0:0:0:
256,192,46941,1,0,0:0:0:0:
256,192,47117,1,8,0:0:0:0:
256,192,47294,1,0,0:0:0:0:
256,192,47470,1,0,0:0:0:0:
256,192,47647,1,8,0:0:0:0:
256,192,48000,1,0,0:0:0:0:
256,192,48176,1,0,0:0:0:0:
256,192,48353,1,8,0:0:0:0:
256,192,48705,1,8,0:0:0:0:
256,192,48823,1,0,0:0:0:0:
256,192,48941,1,0,0:0:0:0:
256,192,49058,1,8,0:0:0:0:
256,192,49411,1,8,0:0:0:0:
256,192,49764,1,0,0:0:0:0:
256,192,49941,1,8,0:0:0:0:
256,192,50117,1,0,0:0:0:0:
256,192,50294,1,0,0:0:0:0:
256,192,50470,1,8,0:0:0:0:
256,192,50647,1,0,0:0:0:0:
256,192,50823,1,8,0:0:0:0:
256,192,50941,1,0,0:0:0:0:
256,192,51058,1,0,0:0:0:0:
256,192,51176,1,0,0:0:0:0:
256,192,51529,1,0,0:0:0:0:
256,192,51705,1,0,0:0:0:0:
256,192,51882,1,8,0:0:0:0:
256,192,52058,1,0,0:0:0:0:
256,192,52147,1,0,0:0:0:0:
256,192,52235,1,8,0:0:0:0:
256,192,52588,1,0,0:0:0:0:
256,192,52764,1,8,0:0:0:0:
256,192,52941,1,0,0:0:0:0:
256,192,53117,1,0,0:0:0:0:
256,192,53294,1,8,0:0:0:0:
256,192,53647,1,0,0:0:0:0:
256,192,53823,1,0,0:0:0:0:
256,192,54000,1,8,0:0:0:0:
256,192,54353,1,4,0:0:0:0:
256,192,54882,1,8,0:0:0:0:
256,192,54970,1,8,0:0:0:0:
256,192,55058,1,8,0:0:0:0:
256,192,55235,1,0,0:0:0:0:
256,192,55411,1,0,0:0:0:0:
256,192,55588,1,0,0:0:0:0:
256,192,55764,1,8,0:0:0:0:
256,192,55941,1,8,0:0:0:0:
256,192,56117,1,8,0:0:0:0:
256,192,56294,1,0,0:0:0:0:
256,192,56470,1,8,0:0:0:0:
256,192,56558,1,8,0:0:0:0:
256,192,56647,1,8,0:0:0:0:
256,192,56735,1,8,0:0:0:0:
256,192,56823,1,8,0:0:0:0:
256,192,57000,1,8,0:0:0:0:
256,192,57176,1,0,0:0:0:0:
256,192,57353,1,0,0:0:0:0:
256,192,57529,1,8,0:0:0:0:
256,192,57705,1,0,0:0:0:0:
256,192,57882,1,8,0:0:0:0:
256,192,58058,1,0,0:0:0:0:
256,192,58235,1,0,0:0:0:0:
256,192,58411,1,8,0:0:0:0:
256,192,58588,1,0,0:0:0:0:
256,192,58764,1,0,0:0:0:0:
256,192,58941,1,8,0:0:0:0:
256,192,59117,1,0,0:0:0:0:
256,192,59294,1,0,0:0:0:0:
256,192,59382,1,0,0:0:0:0:
256,192,59470,1,0,0:0:0:0:
256,192,59647,1,8,0:0:0:0:
256,192,60000,1,0,0:0:0:0:
256,192,60088,1,0,0:0:0:0:
256,192,60176,1,0,0:0:0:0:
256,192,60264,1,0,0:0:0:0:
256,192,60353,1,0,0:0:0:0:
256,192,60705,1,8,0:0:0:0:
256,192,60882,1,0,0:0:0:0:
256,192,61058,1,0,0:0:0:0:
256,192,61235,1,8,0:0:0:0:
256,192,61411,1,0,0:0:0:0:
256,192,61500,1,0,0:0:0:0:
256,192,61588,1,0,0:0:0:0:
256,192,61764,1,8,0:0:0:0:
256,192,61941,1,0,0:0:0:0:
256,192,62117,1,8,0:0:0:0:
256,192,62235,1,0,0:0:0:0:
256,192,62353,1,0,0:0:0:0:
256,192,62470,1,0,0:0:0:0:
256,192,62823,2,0,L|256:32,1,139.999963465119
256,192,63529,1,8,0:0:0:0:
256,192,63882,1,0,0:0:0:0:
256,192,63970,1,0,0:0:0:0:
256,192,64058,1,8,0:0:0:0:
256,192,64235,1,0,0:0:0:0:
256,192,64411,1,0,0:0:0:0:
256,192,64588,1,8,0:0:0:0:
256,192,64941,1,8,0:0:0:0:
256,192,65117,1,0,0:0:0:0:
256,192,65294,1,8,0:0:0:0:
256,192,65647,1,4,0:0:0:0:
256,192,66176,1,8,0:0:0:0:
256,192,66264,1,8,0:0:0:0:
256,192,66353,1,8,0:0:0:0:
256,192,66529,1,0,0:0:0:0:
256,192,66705,1,0,0:0:0:0:
256,192,66882,1,0,0:0:0:0:
256,192,67058,1,8,0:0:0:0:
256,192,67235,1,8,0:0:0:0:
256,192,67411,1,8,0:0:0:0:
256,192,67588,1,0,0:0:0:0:
256,192,67764,1,8,0:0:0:0:
256,192,67941,1,8,0:0:0:0:
256,192,68117,1,8,0:0:0:0:
256,192,68294,1,8,0:0:0:0:
256,192,68470,1,0,0:0:0:0:
256,192,68647,1,0,0:0:0:0:
256,192,68823,1,8,0:0:0:0:
256,192,69000,1,8,0:0:0:0:
256,192,69088,1,8,0:0:0:0:
256,192,69176,1,8,0:0:0:0:
256,192,69353,1,0,0:0:0:0:
256,192,69529,1,8,0:0:0:0:
256,192,69705,1,8,0:0:0:0:
256,192,69882,1,8,0:0:0:0:
256,192,70058,1,0,0:0:0:0:
256,192,70235,1,8,0:0:0:0:
256,192,70411,1,0,0:0:0:0:
256,192,70588,1,8,0:0:0:0:
256,192,70764,1,0,0:0:0:0:
256,192,70941,1,0,0:0:0:0:
256,192,71117,1,0,0:0:0:0:
256,192,71294,1,8,0:0:0:0:
256,192,71470,1,8,0:0:0:0:
256,192,71647,1,0,0:0:0:0:
256,192,71823,1,8,0:0:0:0:
256,192,72000,1,0,0:0:0:0:
256,192,72176,1,8,0:0:0:0:
256,192,72353,1,0,0:0:0:0:
256,192,72529,1,8,0:0:0:0:
256,192,72705,1,0,0:0:0:0:
256,192,72882,1,8,0:0:0:0:
256,192,73058,1,8,0:0:0:0:
256,192,73235,1,0,0:0:0:0:
256,192,73411,1,8,0:0:0:0:
256,192,73529,1,0,0:0:0:0:
256,192,73647,1,0,0:0:0:0:
256,192,73764,1,8,0:0:0:0:
256,192,74117,1,8,0:0:0:0:
256,192,74294,1,0,0:0:0:0:
256,192,74470,1,8,0:0:0:0:
256,192,74647,1,8,0:0:0:0:
256,192,74735,1,8,0:0:0:0:
256,192,74823,1,8,0:0:0:0:
256,192,75000,1,0,0:0:0:0:
256,192,75176,1,8,0:0:0:0:
256,192,75353,1,8,0:0:0:0:
256,192,75529,1,8,0:0:0:0:
256,192,75705,1,0,0:0:0:0:
256,192,75882,1,8,0:0:0:0:
256,192,76058,1,0,0:0:0:0:
256,192,76235,1,8,0:0:0:0:
256,192,76411,1,0,0:0:0:0:
256,192,76588,1,8,0:0:0:0:
256,192,76764,1,8,0:0:0:0:
256,192,76853,1,0,0:0:0:0:
256,192,76941,1,8,0:0:0:0:
256,192,77470,1,8,0:0:0:0:
256,192,77558,1,8,0:0:0:0:
256,192,77647,1,0,0:0:0:0:
256,192,77823,1,0,0:0:0:0:
256,192,78000,1,0,0:0:0:0:
256,192,78176,1,0,0:0:0:0:
256,192,78353,1,8,0:0:0:0:
256,192,78529,1,8,0:0:0:0:
256,192,78705,1,8,0:0:0:0:
256,192,78882,1,0,0:0:0:0:
256,192,79058,1,8,0:0:0:0:
256,192,79235,1,8,0:0:0:0:
256,192,79411,1,8,0:0:0:0:
256,192,79588,1,8,0:0:0:0:
256,192,79764,1,0,0:0:0:0:
256,192,79941,1,0,0:0:0:0:
256,192,80117,1,0,0:0:0:0:
256,192,80294,1,0,0:0:0:0:
256,192,80382,1,0,0:0:0:0:
256,192,80470,1,8,0:0:0:0:
256,192,80647,1,8,0:0:0:0:
256,192,80823,1,0,0:0:0:0:
256,192,81000,1,0,0:0:0:0:
256,192,81176,1,8,0:0:0:0:
256,192,81353,1,8,0:0:0:0:
256,192,81529,1,0,0:0:0:0:
256,192,81705,1,0,0:0:0:0:
256,192,81882,1,8,0:0:0:0:
256,192,82058,1,0,0:0:0:0:
256,192,82235,1,8,0:0:0:0:
256,192,82411,1,8,0:0:0:0:
256,192,82588,1,0,0:0:0:0:
256,192,82764,1,8,0:0:0:0:
256,192,82941,1,0,0:0:0:0:
256,192,83117,1,8,0:0:0:0:
256,192,83294,1,0,0:0:0:0:
256,192,83470,1,8,0:0:0:0:
256,192,83647,1,0,0:0:0:0:
256,192,83823,1,8,0:0:0:0:
256,192,84000,1,0,0:0:0:0:
256,192,84176,1,0,0:0:0:0:
256,192,84353,1,8,0:0:0:0:
256,192,84529,1,8,0:0:0:0:
256,192,84705,1,8,0:0:0:0:
256,192,84823,1,8,0:0:0:0:
256,192,84941,1,0,0:0:0:0:
256,192,85058,1,8,0:0:0:0:
256,192,85411,2,0,L|256:32,1,139.999963465119
256,192,85941,1,8,0:0:0:0:
256,192,86117,1,8,0:0:0:0:
256,192,86205,1,0,0:0:0:0:
256,192,86294,1,0,0:0:0:0:
256,192,86470,1,8,0:0:0:0:
256,192,86647,1,0,0:0:0:0:
256,192,86823,1,8,0:0:0:0:
256,192,87000,1,0,0:0:0:0:
256,192,87176,1,8,0:0:0:0:
256,192,87353,1,8,0:0:0:0:
256,192,87529,1,8,0:0:0:0:
256,192,87705,1,0,0:0:0:0:
256,192,87882,1,8,0:0:0:0:
256,192,88058,1,8,0:0:0:0:
256,192,88235,1,8,0:0:0:0:
256,192,88764,1,8,0:0:0:0:
256,192,88941,1,8,0:0:0:0:
256,192,89117,1,0,0:0:0:0:
256,192,89294,1,8,0:0:0:0:
256,192,89470,1,0,0:0:0:0:
256,192,89647,1,8,0:0:0:0:
256,192,89735,1,0,0:0:0:0:
256,192,89823,1,0,0:0:0:0:
256,192,90000,1,8,0:0:0:0:
256,192,90176,1,0,0:0:0:0:
256,192,90353,1,8,0:0:0:0:
256,192,90441,1,8,0:0:0:0:
256,192,90529,1,8,0:0:0:0:
256,192,90705,1,8,0:0:0:0:
256,192,90882,1,8,0:0:0:0:
256,192,91058,1,0,0:0:0:0:
256,192,91235,12,0,93882,0:0:0:0:
256,192,94235,5,8,0:0:0:0:
256,192,94411,1,0,0:0:0:0:
256,192,94764,1,0,0:0:0:0:
256,192,94941,1,8,0:0:0:0:
256,192,95117,1,0,0:0:0:0:
256,192,95294,1,0,0:0:0:0:
256,192,95647,1,8,0:0:0:0:
256,192,95823,1,0,0:0:0:0:
256,192,96176,1,8,0:0:0:0:
256,192,96264,1,0,0:0:0:0:
256,192,96353,1,8,0:0:0:0:
256,192,96529,1,0,0:0:0:0:
256,192,96705,1,0,0:0:0:0:
256,192,97058,1,8,0:0:0:0:
256,192,97235,1,0,0:0:0:0:
256,192,97588,1,0,0:0:0:0:
256,192,97764,1,8,0:0:0:0:
256,192,97941,1,0,0:0:0:0:
256,192,98117,1,0,0:0:0:0:
256,192,98470,1,8,0:0:0:0:
256,192,98647,1,0,0:0:0:0:
256,192,99000,1,8,0:0:0:0:
256,192,99088,1,8,0:0:0:0:
256,192,99176,1,8,0:0:0:0:
256,192,99353,1,0,0:0:0:0:
256,192,99529,1,0,0:0:0:0:
256,192,99705,1,0,0:0:0:0:
256,192,99882,5,8,0:0:0:0:
256,192,100058,1,0,0:0:0:0:
256,192,100411,1,0,0:0:0:0:
256,192,100588,1,8,0:0:0:0:
256,192,100764,1,0,0:0:0:0:
256,192,100941,1,0,0:0:0:0:
256,192,101117,1,0,0:0:0:0:
256,192,101294,1,8,0:0:0:0:
256,192,101470,1,0,0:0:0:0:
256,192,101823,1,8,0:0:0:0:
256,192,101911,1,0,0:0:0:0:
256,192,102000,1,8,0:0:0:0:
256,192,102176,1,8,0:0:0:0:
256,192,102353,1,0,0:0:0:0:
256,192,102529,1,0,0:0:0:0:
256,192,102705,5,8,0:0:0:0:
256,192,102882,1,0,0:0:0:0:
256,192,103058,1,0,0:0:0:0:
256,192,103235,1,0,0:0:0:0:
256,192,103323,1,0,0:0:0:0:
256,192,103411,1,8,0:0:0:0:
256,192,103588,1,0,0:0:0:0:
256,192,103764,1,8,0:0:0:0:
256,192,103941,1,0,0:0:0:0:
256,192,104117,1,8,0:0:0:0:
256,192,104294,1,0,0:0:0:0:
256,192,104470,1,0,0:0:0:0:
256,192,104647,1,8,0:0:0:0:
256,192,104735,1,0,0:0:0:0:
256,192,104823,1,8,0:0:0:0:
256,192,105000,1,8,0:0:0:0:
256,192,105176,1,0,0:0:0:0:
256,192,105529,5,8,0:0:0:0:
256,192,105617,1,8,0:0:0:0:
256,192,105705,1,0,0:0:0:0:
256,192,106058,1,0,0:0:0:0:
256,192,106147,1,0,0:0:0:0:
256,192,106235,1,8,0:0:0:0:
256,192,106411,1,0,0:0:0:0:
256,192,106588,1,0,0:0:0:0:
256,192,106764,1,0,0:0:0:0:
256,192,106941,1,8,0:0:0:0:
256,192,107029,1,8,0:0:0:0:
256,192,107117,1,0,0:0:0:0:
256,192,107470,1,8,0:0:0:0:
256,192,107558,1,0,0:0:0:0:
256,192,107647,1,8,0:0:0:0:
256,192,107823,1,8,0:0:0:0:
256,192,108000,1,0,0:0:0:0:
256,192,108176,1,0,0:0:0:0:
256,192,108353,5,8,0:0:0:0:
256,192,108441,1,8,0:0:0:0:
256,192,108529,1,0,0:0:0:0:
256,192,108882,1,0,0:0:0:0:
256,192,108970,1,0,0:0:0:0:
256,192,109058,1,8,0:0:0:0:
256,192,109235,1,0,0:0:0:0:
256,192,109411,1,0,0:0:0:0:
256,192,109588,1,0,0:0:0:0:
256,192,109764,1,8,0:0:0:0:
256,192,109853,1,8,0:0:0:0:
256,192,109941,1,0,0:0:0:0:
256,192,110294,1,8,0:0:0:0:
256,192,110382,1,0,0:0:0:0:
256,192,110470,1,8,0:0:0:0:
256,192,110647,1,8,0:0:0:0:
256,192,110823,1,0,0:0:0:0:
256,192,111000,1,0,0:0:0:0:
256,192,111176,5,8,0:0:0:0:
256,192,111264,1,8,0:0:0:0:
256,192,111353,1,0,0:0:0:0:
256,192,111705,1,0,0:0:0:0:
256,192,111794,1,0,0:0:0:0:
256,192,111882,1,8,0:0:0:0:
256,192,112058,1,0,0:0:0:0:
256,192,112235,1,0,0:0:0:0:
256,192,112411,1,0,0:0:0:0:
256,192,112588,1,8,0:0:0:0:
256,192,112676,1,8,0:0:0:0:
256,192,112764,1,0,0:0:0:0:
256,192,113117,1,8,0:0:0:0:
256,192,113205,1,0,0:0:0:0:
256,192,113294,1,8,0:0:0:0:
256,192,113470,1,8,0:0:0:0:
256,192,113647,1,0,0:0:0:0:
256,192,113823,1,0,0:0:0:0:
256,192,114000,1,8,0:0:0:0:
256,192,114088,1,8,0:0:0:0:
256,192,114176,1,0,0:0:0:0:
256,192,114353,1,0,0:0:0:0:
256,192,114529,1,0,0:0:0:0:
256,192,114705,1,8,0:0:0:0:
256,192,114882,1,0,0:0:0:0:
256,192,114970,1,0,0:0:0:0:
256,192,115058,1,8,0:0:0:0:
256,192,116470,5,0,0:0:0:0:
256,192,116647,1,0,0:0:0:0:
256,192,116823,1,8,0:0:0:0:
256,192,117000,1,0,0:0:0:0:
256,192,117176,1,8,0:0:0:0:
256,192,117264,1,8,0:0:0:0:
256,192,117353,1,8,0:0:0:0:
256,192,117529,1,8,0:0:0:0:
256,192,117705,1,0,0:0:0:0:
256,192,117882,1,8,0:0:0:0:
256,192,118058,1,0,0:0:0:0:
256,192,118235,1,0,0:0:0:0:
256,192,118411,1,8,0:0:0:0:
256,192,118588,1,0,0:0:0:0:
256,192,118764,1,0,0:0:0:0:
256,192,118853,1,0,0:0:0:0:
256,192,118941,1,8,0:0:0:0:
256,192,119117,1,0,0:0:0:0:
256,192,119294,1,8,0:0:0:0:
256,192,119470,1,0,0:0:0:0:
256,192,119647,1,8,0:0:0:0:
256,192,119823,1,0,0:0:0:0:
256,192,120000,1,0,0:0:0:0:
256,192,120176,1,8,0:0:0:0:
256,192,120264,1,8,0:0:0:0:
256,192,120353,1,0,0:0:0:0:
256,192,120529,1,0,0:0:0:0:
256,192,120705,1,8,0:0:0:0:
256,192,120882,1,0,0:0:0:0:
256,192,121058,1,0,0:0:0:0:
256,192,121235,1,8,0:0:0:0:
256,192,121411,1,0,0:0:0:0:
256,192,121588,1,8,0:0:0:0:
256,192,121676,1,8,0:0:0:0:
256,192,121764,1,8,0:0:0:0:
256,192,121941,1,8,0:0:0:0:
256,192,122117,1,8,0:0:0:0:
256,192,122294,1,0,0:0:0:0:
256,192,122470,1,8,0:0:0:0:
256,192,122647,1,0,0:0:0:0:
256,192,122823,1,8,0:0:0:0:
256,192,123000,1,8,0:0:0:0:
256,192,123088,1,0,0:0:0:0:
256,192,123176,1,8,0:0:0:0:
256,192,123353,1,0,0:0:0:0:
256,192,123529,1,8,0:0:0:0:
256,192,123705,1,0,0:0:0:0:
256,192,123882,1,0,0:0:0:0:
256,192,124058,1,8,0:0:0:0:
256,192,124235,1,0,0:0:0:0:
256,192,124411,1,8,0:0:0:0:
256,192,124500,1,0,0:0:0:0:
256,192,124588,1,8,0:0:0:0:
256,192,124764,1,8,0:0:0:0:
256,192,124941,1,8,0:0:0:0:
256,192,125117,1,0,0:0:0:0:
256,192,125294,1,8,0:0:0:0:
256,192,125470,1,0,0:0:0:0:
256,192,125647,1,0,0:0:0:0:
256,192,125823,1,8,0:0:0:0:
256,192,126000,1,8,0:0:0:0:
256,192,126176,1,0,0:0:0:0:
256,192,126353,1,8,0:0:0:0:
256,192,126529,1,8,0:0:0:0:
256,192,126705,1,0,0:0:0:0:
256,192,126882,1,0,0:0:0:0:
256,192,126970,1,0,0:0:0:0:
256,192,127058,1,0,0:0:0:0:
256,192,127147,1,0,0:0:0:0:
256,192,127235,1,0,0:0:0:0:
256,192,127411,1,8,0:0:0:0:
256,192,127588,1,8,0:0:0:0:
256,192,127764,1,8,0:0:0:0:
256,192,127941,1,0,0:0:0:0:
256,192,128117,1,8,0:0:0:0:
256,192,128294,1,0,0:0:0:0:
256,192,128470,1,0,0:0:0:0:
256,192,128558,1,0,0:0:0:0:
256,192,128647,1,8,0:0:0:0:
256,192,128823,1,8,0:0:0:0:
256,192,129000,1,0,0:0:0:0:
256,192,129088,1,0,0:0:0:0:
256,192,129176,1,8,0:0:0:0:
256,192,129353,1,8,0:0:0:0:
256,192,129529,1,0,0:0:0:0:
256,192,129617,1,0,0:0:0:0:
256,192,129705,1,8,0:0:0:0:
256,192,129882,1,8,0:0:0:0:
256,192,130058,1,0,0:0:0:0:
256,192,130147,1,0,0:0:0:0:
256,192,130235,1,8,0:0:0:0:
256,192,130411,1,0,0:0:0:0:
256,192,130588,1,8,0:0:0:0:
256,192,130764,1,0,0:0:0:0:
256,192,130941,1,8,0:0:0:0:
256,192,131117,1,0,0:0:0:0:
256,192,131294,1,0,0:0:0:0:
256,192,131382,1,0,0:0:0:0:
256,192,131470,1,8,0:0:0:0:
256,192,131647,1,8,0:0:0:0:
256,192,131823,1,0,0:0:0:0:
256,192,131911,1,0,0:0:0:0:
256,192,132000,1,8,0:0:0:0:
256,192,132176,1,8,0:0:0:0:
256,192,132353,1,0,0:0:0:0:
256,192,132441,1,0,0:0:0:0:
256,192,132529,1,8,0:0:0:0:
256,192,132705,1,8,0:0:0:0:
256,192,132882,1,0,0:0:0:0:
256,192,133058,1,8,0:0:0:0:
256,192,133235,1,8,0:0:0:0:
256,192,133411,1,8,0:0:0:0:
256,192,133500,1,8,0:0:0:0:
256,192,133588,1,0,0:0:0:0:
256,192,133764,1,8,0:0:0:0:
256,192,133941,1,0,0:0:0:0:
256,192,134117,1,0,0:0:0:0:
256,192,134205,1,0,0:0:0:0:
256,192,134294,1,8,0:0:0:0:
256,192,134470,1,0,0:0:0:0:
256,192,134647,1,0,0:0:0:0:
256,192,134823,1,8,0:0:0:0:
256,192,135000,1,0,0:0:0:0:
256,192,135176,1,0,0:0:0:0:
256,192,135264,1,0,0:0:0:0:
256,192,135353,1,8,0:0:0:0:
256,192,135529,1,0,0:0:0:0:
256,192,135705,1,0,0:0:0:0:
256,192,135882,1,8,0:0:0:0:
256,192,136058,1,0,0:0:0:0:
256,192,136235,1,8,0:0:0:0:
256,192,136323,1,8,0:0:0:0:
256,192,136411,1,0,0:0:0:0:
256,192,136588,1,8,0:0:0:0:
256,192,136764,1,0,0:0:0:0:
256,192,136941,1,0,0:0:0:0:
256,192,137117,1,0,0:0:0:0:
256,192,137205,1,0,0:0:0:0:
256,192,137294,1,0,0:0:0:0:
256,192,137470,1,0,0:0:0:0:
256,192,137558,1,0,0:0:0:0:
256,192,137647,1,8,0:0:0:0:
256,192,137823,1,8,0:0:0:0:
256,192,137911,1,8,0:0:0:0:
256,192,138000,1,8,0:0:0:0:
256,192,138088,1,8,0:0:0:0:
256,192,138176,1,8,0:0:0:0:
256,192,138705,5,0,0:0:0:0:
256,192,138882,1,0,0:0:0:0:
256,192,139058,1,8,0:0:0:0:
256,192,139410,1,0,0:0:0:0:
256,192,139763,1,0,0:0:0:0:
256,192,139940,1,0,0:0:0:0:
256,192,140116,1,8,0:0:0:0:
256,192,140469,1,8,0:0:0:0:
256,192,140822,1,0,0:0:0:0:
256,192,141175,1,8,0:0:0:0:
256,192,141528,1,8,0:0:0:0:
256,192,141881,1,0,0:0:0:0:
256,192,142234,1,8,0:0:0:0:
256,192,143293,1,8,0:0:0:0:
256,192,143646,1,0,0:0:0:0:
256,192,143999,1,0,0:0:0:0:
256,192,144175,1,0,0:0:0:0:
256,192,144352,1,8,0:0:0:0:
256,192,144705,1,8,0:0:0:0:
256,192,145058,1,8,0:0:0:0:
256,192,145410,1,8,0:0:0:0:
256,192,146469,1,0,0:0:0:0:
256,192,147175,1,8,0:0:0:0:
256,192,147528,1,0,0:0:0:0:
256,192,147705,1,0,0:0:0:0:
256,192,147881,1,8,0:0:0:0:
256,192,148058,1,0,0:0:0:0:
256,192,148234,1,8,0:0:0:0:
256,192,148587,1,0,0:0:0:0:
256,192,148763,1,0,0:0:0:0:
256,192,148940,1,8,0:0:0:0:
256,192,149116,1,0,0:0:0:0:
256,192,149293,1,8,0:0:0:0:
256,192,149646,1,8,0:0:0:0:
256,192,149822,1,0,0:0:0:0:
256,192,149999,1,8,0:0:0:0:
256,192,150175,1,0,0:0:0:0:
256,192,150352,1,8,0:0:0:0:
256,192,150528,1,0,0:0:0:0:
256,192,150705,1,8,0:0:0:0:
256,192,151763,1,8,0:0:0:0:
256,192,152116,1,0,0:0:0:0:
256,192,152293,1,0,0:0:0:0:
256,192,152469,1,0,0:0:0:0:
256,192,152822,1,8,0:0:0:0:
256,192,153175,1,0,0:0:0:0:
256,192,153352,1,0,0:0:0:0:
256,192,153528,1,8,0:0:0:0:
256,192,153881,1,8,0:0:0:0:
256,192,154058,1,8,0:0:0:0:
256,192,154234,1,8,0:0:0:0:
256,192,154410,1,8,0:0:0:0:
256,192,154587,1,8,0:0:0:0:
256,192,154763,1,0,0:0:0:0:
256,192,154940,1,8,0:0:0:0:
256,192,155116,1,0,0:0:0:0:
256,192,155293,1,0,0:0:0:0:
256,192,155469,1,0,0:0:0:0:
256,192,155646,1,8,0:0:0:0:
256,192,155822,1,0,0:0:0:0:
256,192,155999,1,8,0:0:0:0:
256,192,161646,5,0,0:0:0:0:
256,192,161822,1,8,0:0:0:0:
256,192,162175,1,8,0:0:0:0:
256,192,162528,1,8,0:0:0:0:
256,192,162881,1,8,0:0:0:0:
256,192,163234,1,8,0:0:0:0:
256,192,163587,1,8,0:0:0:0:
256,192,163940,1,8,0:0:0:0:
256,192,164028,1,8,0:0:0:0:
256,192,164116,1,8,0:0:0:0:
256,192,164293,1,8,0:0:0:0:
256,192,164469,1,0,0:0:0:0:
256,192,164646,1,8,0:0:0:0:
256,192,164999,1,8,0:0:0:0:
256,192,165351,1,8,0:0:0:0:
256,192,165704,1,8,0:0:0:0:
256,192,166057,1,8,0:0:0:0:
256,192,166410,1,8,0:0:0:0:
256,192,166763,1,8,0:0:0:0:
256,192,167116,1,8,0:0:0:0:
256,192,167204,1,8,0:0:0:0:
256,192,167293,5,0,0:0:0:0:
256,192,167469,1,8,0:0:0:0:
256,192,167646,1,0,0:0:0:0:
256,192,167822,1,8,0:0:0:0:
256,192,167999,1,0,0:0:0:0:
256,192,168175,1,8,0:0:0:0:
256,192,168351,1,0,0:0:0:0:
256,192,168528,1,8,0:0:0:0:
256,192,168616,1,8,0:0:0:0:
256,192,168704,1,0,0:0:0:0:
256,192,168881,1,8,0:0:0:0:
256,192,169057,1,0,0:0:0:0:
256,192,169234,1,8,0:0:0:0:
256,192,169410,1,0,0:0:0:0:
256,192,169587,1,8,0:0:0:0:
256,192,169763,1,0,0:0:0:0:
256,192,169940,1,8,0:0:0:0:
256,192,170028,1,8,0:0:0:0:
256,192,170116,1,0,0:0:0:0:
256,192,170293,1,8,0:0:0:0:
256,192,170469,1,0,0:0:0:0:
256,192,170646,1,8,0:0:0:0:
256,192,170822,1,0,0:0:0:0:
256,192,170999,1,8,0:0:0:0:
256,192,171175,1,0,0:0:0:0:
256,192,171351,1,8,0:0:0:0:
256,192,171440,1,8,0:0:0:0:
256,192,171528,1,0,0:0:0:0:
256,192,171704,1,8,0:0:0:0:
256,192,171881,1,0,0:0:0:0:
256,192,172057,1,8,0:0:0:0:
256,192,172234,1,0,0:0:0:0:
256,192,172410,1,8,0:0:0:0:
256,192,172587,1,0,0:0:0:0:
256,192,172763,1,8,0:0:0:0:
256,192,172851,1,0,0:0:0:0:
256,192,172940,1,0,0:0:0:0:
256,192,173116,1,8,0:0:0:0:
256,192,173293,1,0,0:0:0:0:
256,192,173469,1,0,0:0:0:0:
256,192,173646,1,0,0:0:0:0:
256,192,173822,1,8,0:0:0:0:
256,192,173999,1,0,0:0:0:0:
256,192,174175,1,0,0:0:0:0:
256,192,174263,1,0,0:0:0:0:
256,192,174351,1,0,0:0:0:0:
256,192,174528,1,8,0:0:0:0:
256,192,174704,1,0,0:0:0:0:
256,192,174881,1,0,0:0:0:0:
256,192,175057,1,0,0:0:0:0:
256,192,175234,1,8,0:0:0:0:
256,192,175410,1,0,0:0:0:0:
256,192,175587,1,0,0:0:0:0:
256,192,175675,1,0,0:0:0:0:
256,192,175763,1,0,0:0:0:0:
256,192,175940,1,8,0:0:0:0:
256,192,176116,1,0,0:0:0:0:
256,192,176293,1,0,0:0:0:0:
256,192,176469,1,0,0:0:0:0:
256,192,176646,1,8,0:0:0:0:
256,192,176822,1,0,0:0:0:0:
256,192,176910,1,0,0:0:0:0:
256,192,176999,1,0,0:0:0:0:
256,192,177175,1,8,0:0:0:0:
256,192,178587,1,4,0:0:0:0:
256,192,179293,1,12,0:0:0:0:
256,192,179646,1,0,0:0:0:0:
256,192,179822,1,0,0:0:0:0:
256,192,179910,1,0,0:0:0:0:
256,192,179999,1,8,0:0:0:0:
256,192,180175,1,0,0:0:0:0:
256,192,180351,1,0,0:0:0:0:
256,192,180528,1,0,0:0:0:0:
256,192,180704,1,8,0:0:0:0:
256,192,180881,1,0,0:0:0:0:
256,192,181234,1,0,0:0:0:0:
256,192,181322,1,0,0:0:0:0:
256,192,181410,1,8,0:0:0:0:
256,192,181587,1,0,0:0:0:0:
256,192,181675,1,0,0:0:0:0:
256,192,181763,1,8,0:0:0:0:
256,192,181940,1,0,0:0:0:0:
256,192,182116,1,8,0:0:0:0:
256,192,182293,1,0,0:0:0:0:
256,192,182646,1,0,0:0:0:0:
256,192,182822,1,0,0:0:0:0:
256,192,182998,1,8,0:0:0:0:
256,192,183087,1,8,0:0:0:0:
256,192,183175,1,0,0:0:0:0:
256,192,183351,1,0,0:0:0:0:
256,192,183528,1,8,0:0:0:0:
256,192,183704,1,0,0:0:0:0:
256,192,183881,1,8,0:0:0:0:
256,192,184057,1,0,0:0:0:0:
256,192,184234,1,0,0:0:0:0:
256,192,184322,1,0,0:0:0:0:
256,192,184410,1,0,0:0:0:0:
256,192,184498,1,0,0:0:0:0:
256,192,184587,1,0,0:0:0:0:
256,192,184763,1,0,0:0:0:0:
256,192,184940,1,8,0:0:0:0:
256,192,185116,1,0,0:0:0:0:
256,192,185293,1,8,0:0:0:0:
256,192,185469,1,8,0:0:0:0:
256,192,185646,1,8,0:0:0:0:
256,192,185822,1,0,0:0:0:0:
256,192,186175,1,0,0:0:0:0:
256,192,186263,1,0,0:0:0:0:
256,192,186351,1,8,0:0:0:0:
256,192,186528,1,0,0:0:0:0:
256,192,186881,1,0,0:0:0:0:
256,192,187057,1,0,0:0:0:0:
256,192,187146,1,0,0:0:0:0:
256,192,187234,1,0,0:0:0:0:
256,192,187322,1,0,0:0:0:0:
256,192,187410,1,0,0:0:0:0:
256,192,187587,1,0,0:0:0:0:
256,192,187763,1,8,0:0:0:0:
256,192,187940,1,0,0:0:0:0:
256,192,188293,1,8,0:0:0:0:
256,192,188469,1,0,0:0:0:0:
256,192,188646,1,0,0:0:0:0:
256,192,188822,1,0,0:0:0:0:
256,192,188910,1,8,0:0:0:0:
256,192,188998,1,8,0:0:0:0:
256,192,189175,1,8,0:0:0:0:
256,192,189351,1,0,0:0:0:0:
256,192,189528,1,8,0:0:0:0:
256,192,189704,1,0,0:0:0:0:
256,192,189881,1,0,0:0:0:0:
256,192,189969,1,8,0:0:0:0:
256,192,190057,1,0,0:0:0:0:
256,192,190234,1,0,0:0:0:0:
256,192,190410,1,8,0:0:0:0:
256,192,190587,1,0,0:0:0:0:
256,192,190675,1,0,0:0:0:0:
256,192,190763,1,8,0:0:0:0:
256,192,190940,1,8,0:0:0:0:
256,192,191116,1,8,0:0:0:0:
256,192,191293,1,8,0:0:0:0:
256,192,191469,1,0,0:0:0:0:
256,192,191646,1,0,0:0:0:0:
256,192,191822,1,0,0:0:0:0:
256,192,191998,1,8,0:0:0:0:
256,192,192175,1,0,0:0:0:0:
256,192,192528,1,0,0:0:0:0:
256,192,192616,1,0,0:0:0:0:
256,192,192704,1,8,0:0:0:0:
256,192,192881,1,0,0:0:0:0:
256,192,192969,1,0,0:0:0:0:
256,192,193057,1,8,0:0:0:0:
256,192,193234,1,0,0:0:0:0:
256,192,193410,1,8,0:0:0:0:
256,192,193587,1,0,0:0:0:0:
256,192,193940,1,0,0:0:0:0:
256,192,194116,1,0,0:0:0:0:
256,192,194293,1,8,0:0:0:0:
256,192,194381,1,8,0:0:0:0:
256,192,194469,1,0,0:0:0:0:
256,192,194646,1,0,0:0:0:0:
256,192,194822,1,8,0:0:0:0:
256,192,194998,1,0,0:0:0:0:
256,192,195175,1,8,0:0:0:0:
256,192,195351,1,0,0:0:0:0:
256,192,195528,1,0,0:0:0:0:
256,192,195616,1,0,0:0:0:0:
256,192,195704,1,0,0:0:0:0:
256,192,195793,1,0,0:0:0:0:
256,192,195881,1,0,0:0:0:0:
256,192,196057,1,0,0:0:0:0:
256,192,196234,1,8,0:0:0:0:
256,192,196410,1,0,0:0:0:0:
256,192,196587,1,8,0:0:0:0:
256,192,196763,1,8,0:0:0:0:
256,192,196940,1,8,0:0:0:0:
256,192,197116,1,0,0:0:0:0:
256,192,197469,1,0,0:0:0:0:
256,192,197557,1,0,0:0:0:0:
256,192,197646,1,8,0:0:0:0:
256,192,197822,1,0,0:0:0:0:
256,192,198175,1,0,0:0:0:0:
256,192,198351,1,0,0:0:0:0:
256,192,198440,1,0,0:0:0:0:
256,192,198528,1,0,0:0:0:0:
256,192,198616,1,0,0:0:0:0:
256,192,198704,1,0,0:0:0:0:
256,192,198881,1,0,0:0:0:0:
256,192,199057,1,8,0:0:0:0:
256,192,199234,1,0,0:0:0:0:
256,192,199587,1,8,0:0:0:0:
256,192,199763,1,0,0:0:0:0:
256,192,199940,1,0,0:0:0:0:
256,192,200116,1,0,0:0:0:0:
256,192,200204,1,0,0:0:0:0:
256,192,200293,1,8,0:0:0:0:
256,192,200469,1,8,0:0:0:0:
256,192,200646,1,0,0:0:0:0:
256,192,200822,1,8,0:0:0:0:
256,192,200998,1,0,0:0:0:0:
256,192,201175,1,0,0:0:0:0:
256,192,201351,1,0,0:0:0:0:
256,192,201440,1,0,0:0:0:0:
256,192,201528,1,0,0:0:0:0:
256,192,201704,1,8,0:0:0:0:
256,192,201881,1,0,0:0:0:0:
256,192,201969,1,0,0:0:0:0:
256,192,202057,1,0,0:0:0:0:
256,192,202234,1,8,0:0:0:0:
256,192,202410,1,8,0:0:0:0:
256,192,202498,1,0,0:0:0:0:
256,192,202587,1,8,0:0:0:0:
256,192,202763,1,0,0:0:0:0:
256,192,202940,1,0,0:0:0:0:
256,192,203116,1,0,0:0:0:0:
256,192,203293,1,8,0:0:0:0:
256,192,203469,1,0,0:0:0:0:
256,192,203646,1,0,0:0:0:0:
256,192,203822,1,0,0:0:0:0:
256,192,203910,1,0,0:0:0:0:
256,192,203998,1,8,0:0:0:0:
256,192,204175,1,0,0:0:0:0:
256,192,204263,1,0,0:0:0:0:
256,192,204351,1,8,0:0:0:0:
256,192,204528,1,0,0:0:0:0:
256,192,204704,1,8,0:0:0:0:
256,192,204881,1,0,0:0:0:0:
256,192,205057,1,0,0:0:0:0:
256,192,205234,1,0,0:0:0:0:
256,192,205322,1,0,0:0:0:0:
256,192,205410,1,0,0:0:0:0:
256,192,205587,1,8,0:0:0:0:
256,192,205763,1,8,0:0:0:0:
256,192,205851,1,8,0:0:0:0:
256,192,205940,1,8,0:0:0:0:
256,192,206116,1,8,0:0:0:0:
256,192,206293,1,8,0:0:0:0:
256,192,206469,1,8,0:0:0:0:
256,192,206646,1,0,0:0:0:0:
256,192,206734,1,0,0:0:0:0:
256,192,206822,1,8,0:0:0:0:
256,192,206998,1,8,0:0:0:0:
256,192,207175,1,8,0:0:0:0:
256,192,207351,1,8,0:0:0:0:
256,192,207528,1,0,0:0:0:0:
256,192,207616,1,0,0:0:0:0:
256,192,207704,1,8,0:0:0:0:
256,192,208057,1,8,0:0:0:0:
256,192,208146,1,8,0:0:0:0:
256,192,208234,1,0,0:0:0:0:
256,192,208410,1,0,0:0:0:0:
256,192,208587,1,0,0:0:0:0:
256,192,208763,1,0,0:0:0:0:
256,192,208851,1,0,0:0:0:0:
256,192,208940,1,8,0:0:0:0:
256,192,209116,1,0,0:0:0:0:
256,192,209293,1,0,0:0:0:0:
256,192,209469,1,0,0:0:0:0:
256,192,209557,1,0,0:0:0:0:
256,192,209646,1,8,0:0:0:0:
256,192,209822,1,0,0:0:0:0:
256,192,209910,1,0,0:0:0:0:
256,192,209998,1,8,0:0:0:0:
256,192,210175,1,0,0:0:0:0:
256,192,210351,1,8,0:0:0:0:
256,192,210528,1,0,0:0:0:0:
256,192,210704,1,0,0:0:0:0:
256,192,210793,1,0,0:0:0:0:
256,192,210881,1,0,0:0:0:0:
256,192,210969,1,0,0:0:0:0:
256,192,211057,1,0,0:0:0:0:
256,192,211234,1,8,0:0:0:0:
256,192,211410,1,0,0:0:0:0:
256,192,211498,1,8,0:0:0:0:
256,192,211587,1,8,0:0:0:0:
256,192,211763,1,8,0:0:0:0:
256,192,211940,1,0,0:0:0:0:
256,192,212116,1,8,0:0:0:0:
256,192,212293,1,0,0:0:0:0:
256,192,212469,1,8,0:0:0:0:
256,192,212646,1,8,0:0:0:0:
256,192,212734,1,0,0:0:0:0:
256,192,212822,1,8,0:0:0:0:
256,192,212998,1,0,0:0:0:0:
256,192,213175,1,8,0:0:0:0:
256,192,213351,1,0,0:0:0:0:
256,192,213528,1,0,0:0:0:0:
256,192,213616,1,0,0:0:0:0:
256,192,213704,1,0,0:0:0:0:
256,192,213881,1,8,0:0:0:0:
256,192,214057,1,0,0:0:0:0:
256,192,214234,1,0,0:0:0:0:
256,192,214410,1,0,0:0:0:0:
256,192,214587,1,8,0:0:0:0:
256,192,214763,1,0,0:0:0:0:
256,192,214940,1,0,0:0:0:0:
256,192,215116,1,0,0:0:0:0:
256,192,215204,1,0,0:0:0:0:
256,192,215293,1,8,0:0:0:0:
256,192,215469,1,0,0:0:0:0:
256,192,215557,1,0,0:0:0:0:
256,192,215646,1,8,0:0:0:0:
256,192,215822,1,0,0:0:0:0:
256,192,215998,1,8,0:0:0:0:
256,192,216175,1,0,0:0:0:0:
256,192,216351,1,0,0:0:0:0:
256,192,216528,1,0,0:0:0:0:
256,192,216616,1,0,0:0:0:0:
256,192,216704,1,0,0:0:0:0:
256,192,216881,1,8,0:0:0:0:
256,192,217057,1,8,0:0:0:0:
256,192,217146,1,8,0:0:0:0:
256,192,217234,1,8,0:0:0:0:
256,192,217410,1,8,0:0:0:0:
256,192,217587,1,8,0:0:0:0:
256,192,217763,1,8,0:0:0:0:
256,192,217940,1,0,0:0:0:0:
256,192,218028,1,0,0:0:0:0:
256,192,218116,1,8,0:0:0:0:
256,192,218293,1,8,0:0:0:0:
256,192,218469,1,8,0:0:0:0:
256,192,218646,1,8,0:0:0:0:
256,192,218822,1,0,0:0:0:0:
256,192,218910,1,0,0:0:0:0:
256,192,218998,1,8,0:0:0:0:
256,192,219351,1,8,0:0:0:0:
256,192,219440,1,8,0:0:0:0:
256,192,219528,1,0,0:0:0:0:
256,192,220057,1,0,0:0:0:0:
256,192,220146,1,0,0:0:0:0:
256,192,220234,1,8,0:0:0:0:
256,192,220410,1,0,0:0:0:0:
256,192,220763,1,0,0:0:0:0:
256,192,220940,1,8,0:0:0:0:
256,192,221116,1,0,0:0:0:0:
256,192,221293,1,8,0:0:0:0:
256,192,221469,1,0,0:0:0:0:
256,192,221557,1,0,0:0:0:0:
256,192,221646,1,8,0:0:0:0:
256,192,222175,1,0,0:0:0:0:
256,192,222351,1,0,0:0:0:0:
256,192,222528,1,8,0:0:0:0:
256,192,222704,1,8,0:0:0:0:
256,192,222793,1,0,0:0:0:0:
256,192,222881,1,8,0:0:0:0:
256,192,223057,1,8,0:0:0:0:
256,192,223234,1,0,0:0:0:0:
256,192,223410,1,8,0:0:0:0:
256,192,223587,1,0,0:0:0:0:
256,192,223763,1,8,0:0:0:0:
256,192,223940,1,0,0:0:0:0:
256,192,224028,1,0,0:0:0:0:
256,192,224116,1,0,0:0:0:0:
256,192,224293,1,8,0:0:0:0:
256,192,224469,1,0,0:0:0:0:
256,192,224557,1,0,0:0:0:0:
256,192,224646,1,0,0:0:0:0:
256,192,224734,1,0,0:0:0:0:
256,192,224822,1,0,0:0:0:0:
256,192,224998,1,0,0:0:0:0:
256,192,225175,1,8,0:0:0:0:
256,192,225351,1,0,0:0:0:0:
256,192,225528,1,12,0:0:0:0:
256,192,225704,1,0,0:0:0:0:
256,192,225793,1,0,0:0:0:0:
256,192,225881,1,0,0:0:0:0:
256,192,226057,1,0,0:0:0:0:
256,192,226234,1,12,0:0:0:0:
256,192,226410,1,0,0:0:0:0:
256,192,226498,1,0,0:0:0:0:
256,192,226587,1,0,0:0:0:0:
256,192,226763,1,0,0:0:0:0:
256,192,226940,1,12,0:0:0:0:
256,192,227116,1,0,0:0:0:0:
256,192,227204,1,0,0:0:0:0:
256,192,227293,1,0,0:0:0:0:
256,192,227469,1,0,0:0:0:0:
256,192,227646,1,12,0:0:0:0:
256,192,227822,1,0,0:0:0:0:
256,192,227910,1,8,0:0:0:0:
256,192,227998,1,0,0:0:0:0:
256,192,228175,1,0,0:0:0:0:
256,192,228351,1,12,0:0:0:0:
256,192,228528,1,0,0:0:0:0:
256,192,228616,1,8,0:0:0:0:
256,192,228704,1,0,0:0:0:0:
256,192,228881,1,0,0:0:0:0:
256,192,229057,1,12,0:0:0:0:
256,192,229234,1,0,0:0:0:0:
256,192,229322,1,8,0:0:0:0:
256,192,229410,1,0,0:0:0:0:
256,192,229587,1,0,0:0:0:0:
256,192,229763,1,12,0:0:0:0:
256,192,229940,1,0,0:0:0:0:
256,192,230116,1,12,0:0:0:0:
256,192,230469,1,12,0:0:0:0:
256,192,230822,1,0,0:0:0:0:
256,192,230998,1,0,0:0:0:0:
256,192,231175,1,12,0:0:0:0:
256,192,231351,1,8,0:0:0:0:
256,192,231440,1,8,0:0:0:0:
256,192,231528,1,0,0:0:0:0:
256,192,231704,1,0,0:0:0:0:
256,192,231881,1,12,0:0:0:0:
256,192,232057,1,8,0:0:0:0:
256,192,232146,1,8,0:0:0:0:
256,192,232234,1,0,0:0:0:0:
256,192,232410,1,0,0:0:0:0:
256,192,232587,1,12,0:0:0:0:
256,192,232763,1,8,0:0:0:0:
256,192,232851,1,8,0:0:0:0:
256,192,232940,1,0,0:0:0:0:
256,192,233116,1,0,0:0:0:0:
256,192,233293,1,12,0:0:0:0:
256,192,233469,1,8,0:0:0:0:
256,192,233646,1,0,0:0:0:0:
256,192,233734,1,0,0:0:0:0:
256,192,233822,1,0,0:0:0:0:
256,192,233998,1,12,0:0:0:0:
256,192,234175,1,8,0:0:0:0:
256,192,234351,1,0,0:0:0:0:
256,192,234440,1,0,0:0:0:0:
256,192,234528,1,0,0:0:0:0:
256,192,234704,1,12,0:0:0:0:
256,192,234881,1,8,0:0:0:0:
256,192,235057,1,0,0:0:0:0:
256,192,235234,1,0,0:0:0:0:
256,192,235410,1,12,0:0:0:0:
256,192,235587,1,0,0:0:0:0:
256,192,235763,1,12,0:0:0:0:
256,192,235940,1,0,0:0:0:0:
256,192,236116,1,12,0:0:0:0:
256,192,236293,1,8,0:0:0:0:
256,192,236469,1,0,0:0:0:0:
256,192,236646,1,0,0:0:0:0:
256,192,236822,1,4,0:0:0:0:
256,192,236998,1,0,0:0:0:0:
256,192,237087,1,0,0:0:0:0:
256,192,237175,1,8,0:0:0:0:
256,192,237351,1,8,0:0:0:0:
256,192,237528,1,12,0:0:0:0:
256,192,237704,1,8,0:0:0:0:
256,192,237793,1,8,0:0:0:0:
256,192,237881,1,0,0:0:0:0:
256,192,238057,1,0,0:0:0:0:
256,192,238234,1,4,0:0:0:0:
256,192,238410,1,0,0:0:0:0:
256,192,238587,1,12,0:0:0:0:
256,192,238763,1,0,0:0:0:0:
256,192,238940,1,12,0:0:0:0:
256,192,239116,1,0,0:0:0:0:
256,192,239293,1,0,0:0:0:0:
256,192,239381,1,0,0:0:0:0:
256,192,239469,1,0,0:0:0:0:
256,192,239646,1,4,0:0:0:0:
256,192,239822,1,0,0:0:0:0:
256,192,239910,1,0,0:0:0:0:
256,192,239998,1,8,0:0:0:0:
256,192,240175,1,0,0:0:0:0:
256,192,240351,1,4,0:0:0:0:
256,192,240528,1,0,0:0:0:0:
256,192,240704,1,8,0:0:0:0:
256,192,240793,1,8,0:0:0:0:
256,192,240881,1,8,0:0:0:0:
256,192,241057,1,12,0:0:0:0:
256,192,241234,1,0,0:0:0:0:
256,192,241410,1,8,0:0:0:0:
256,192,241498,1,8,0:0:0:0:
256,192,241587,1,8,0:0:0:0:
256,192,241763,1,12,0:0:0:0:
256,192,241940,1,0,0:0:0:0:
256,192,242116,1,8,0:0:0:0:
256,192,242293,1,8,0:0:0:0:
256,192,242469,1,8,0:0:0:0:
256,192,242646,1,8,0:0:0:0:
256,192,242734,1,8,0:0:0:0:
256,192,242822,1,8,0:0:0:0:
256,192,242998,1,8,0:0:0:0:
256,192,243175,1,8,0:0:0:0:
256,192,243351,1,8,0:0:0:0:
256,192,243528,1,4,0:0:0:0:
256,192,244234,1,4,0:0:0:0:
256,192,244410,1,12,0:0:0:0:
256,192,244763,1,12,0:0:0:0:
256,192,244940,1,4,0:0:0:0:
256,192,245116,12,0,247410,0:0:0:0:
256,192,247763,5,8,0:0:0:0:
256,192,248292,1,0,0:0:0:0:
256,192,248469,1,8,0:0:0:0:
256,192,248645,1,8,0:0:0:0:
256,192,248998,1,0,0:0:0:0:
256,192,249174,1,8,0:0:0:0:
256,192,249351,1,8,0:0:0:0:
256,192,249704,1,0,0:0:0:0:
256,192,249880,1,8,0:0:0:0:
256,192,250057,1,8,0:0:0:0:
256,192,250410,1,8,0:0:0:0:
256,192,250586,1,0,0:0:0:0:
256,192,250763,1,0,0:0:0:0:
256,192,250939,1,8,0:0:0:0:
256,192,251116,1,8,0:0:0:0:
256,192,251292,1,0,0:0:0:0:
256,192,251469,1,0,0:0:0:0:
256,192,251645,1,8,0:0:0:0:
256,192,251822,1,8,0:0:0:0:
256,192,251998,1,0,0:0:0:0:
256,192,252174,1,8,0:0:0:0:
256,192,252351,1,0,0:0:0:0:
256,192,252527,1,8,0:0:0:0:
256,192,252704,1,0,0:0:0:0:
256,192,253410,1,4,0:0:0:0:
256,192,253586,1,0,0:0:0:0:
256,192,253939,1,0,0:0:0:0:
256,192,254116,1,8,0:0:0:0:
256,192,254292,1,8,0:0:0:0:
256,192,254645,1,8,0:0:0:0:
256,192,254822,1,0,0:0:0:0:
256,192,254998,1,0,0:0:0:0:
256,192,255351,1,0,0:0:0:0:
256,192,255527,1,8,0:0:0:0:
256,192,255704,1,8,0:0:0:0:
256,192,256057,1,8,0:0:0:0:
256,192,256233,1,0,0:0:0:0:
256,192,256763,1,8,0:0:0:0:
256,192,256851,1,8,0:0:0:0:
256,192,256939,1,0,0:0:0:0:
256,192,257116,1,0,0:0:0:0:
256,192,257292,1,0,0:0:0:0:
256,192,257469,1,0,0:0:0:0:
256,192,257645,1,8,0:0:0:0:
256,192,257822,1,0,0:0:0:0:
256,192,257998,1,8,0:0:0:0:
256,192,258174,1,0,0:0:0:0:
256,192,258351,1,0,0:0:0:0:
256,192,258439,1,0,0:0:0:0:
256,192,258527,1,0,0:0:0:0:
256,192,258616,1,0,0:0:0:0:
256,192,258704,1,0,0:0:0:0:
256,192,258880,1,8,0:0:0:0:
256,192,259057,1,0,0:0:0:0:
256,192,259233,1,0,0:0:0:0:
256,192,259410,1,0,0:0:0:0:
256,192,259586,1,0,0:0:0:0:
256,192,259763,1,0,0:0:0:0:
256,192,259939,1,0,0:0:0:0:
256,192,260027,1,0,0:0:0:0:
256,192,260116,1,8,0:0:0:0:
256,192,260292,1,8,0:0:0:0:
256,192,260469,1,0,0:0:0:0:
256,192,260645,1,0,0:0:0:0:
256,192,260822,1,0,0:0:0:0:
256,192,260998,1,0,0:0:0:0:
256,192,261174,1,8,0:0:0:0:
256,192,261351,1,0,0:0:0:0:
256,192,261439,1,0,0:0:0:0:
256,192,261527,1,8,0:0:0:0:
256,192,261704,1,8,0:0:0:0:
256,192,261880,1,0,0:0:0:0:
256,192,262057,1,8,0:0:0:0:
256,192,262233,1,0,0:0:0:0:
256,192,262410,1,8,0:0:0:0:
256,192,262586,1,0,0:0:0:0:
256,192,262763,1,8,0:0:0:0:
256,192,262939,1,0,0:0:0:0:
256,192,263116,1,8,0:0:0:0:
256,192,263292,1,0,0:0:0:0:
256,192,263469,1,0,0:0:0:0:
256,192,263645,1,8,0:0:0:0:
256,192,263822,1,8,0:0:0:0:
256,192,263998,1,8,0:0:0:0:
256,192,264704,1,0,0:0:0:0:
256,192,264880,1,0,0:0:0:0:
256,192,264969,1,0,0:0:0:0:
256,192,265057,1,0,0:0:0:0:
256,192,265233,1,0,0:0:0:0:
256,192,265410,1,0,0:0:0:0:
256,192,265586,1,0,0:0:0:0:
256,192,265763,1,8,0:0:0:0:
256,192,265939,1,8,0:0:0:0:
256,192,266027,1,8,0:0:0:0:
256,192,266116,1,8,0:0:0:0:
256,192,266292,1,0,0:0:0:0:
256,192,266469,1,0,0:0:0:0:
256,192,266645,1,0,0:0:0:0:
256,192,266822,1,8,0:0:0:0:
256,192,266998,1,0,0:0:0:0:
256,192,267086,1,0,0:0:0:0:
256,192,267174,1,8,0:0:0:0:
256,192,267351,1,8,0:0:0:0:
256,192,267527,1,8,0:0:0:0:
256,192,267704,1,0,0:0:0:0:
256,192,267880,1,0,0:0:0:0:
256,192,268057,1,0,0:0:0:0:
256,192,268233,1,8,0:0:0:0:
256,192,268410,1,0,0:0:0:0:
256,192,268586,1,8,0:0:0:0:
256,192,268763,1,0,0:0:0:0:
256,192,268939,1,8,0:0:0:0:
256,192,269292,1,8,0:0:0:0:
256,192,269645,1,12,0:0:0:0:
256,192,269822,1,12,0:0:0:0:
256,192,269998,1,12,0:0:0:0:
256,192,270351,1,8,0:0:0:0:
256,192,270439,1,8,0:0:0:0:
256,192,270527,1,8,0:0:0:0:
256,192,270704,1,8,0:0:0:0:
256,192,271057,1,8,0:0:0:0:
256,192,271410,1,0,0:0:0:0:
256,192,271586,1,8,0:0:0:0:
256,192,271763,1,0,0:0:0:0:
256,192,271939,1,0,0:0:0:0:
256,192,272116,1,8,0:0:0:0:
256,192,272469,1,0,0:0:0:0:
256,192,272645,1,0,0:0:0:0:
256,192,272822,1,8,0:0:0:0:
256,192,273174,1,8,0:0:0:0:
256,192,273292,1,0,0:0:0:0:
256,192,273410,1,0,0:0:0:0:
256,192,273527,1,8,0:0:0:0:
256,192,273880,1,8,0:0:0:0:
256,192,274233,1,0,0:0:0:0:
256,192,274410,1,8,0:0:0:0:
256,192,274586,1,0,0:0:0:0:
256,192,274763,1,0,0:0:0:0:
256,192,274939,1,8,0:0:0:0:
256,192,275116,1,0,0:0:0:0:
256,192,275292,1,8,0:0:0:0:
256,192,275410,1,0,0:0:0:0:
256,192,275527,1,0,0:0:0:0:
256,192,275645,1,0,0:0:0:0:
256,192,275998,1,0,0:0:0:0:
256,192,276174,1,0,0:0:0:0:
256,192,276351,1,8,0:0:0:0:
256,192,276527,1,0,0:0:0:0:
256,192,276616,1,0,0:0:0:0:
256,192,276704,1,8,0:0:0:0:
256,192,277057,1,0,0:0:0:0:
256,192,277233,1,8,0:0:0:0:
256,192,277410,1,0,0:0:0:0:
256,192,277586,1,0,0:0:0:0:
256,192,277763,1,8,0:0:0:0:
256,192,278116,1,0,0:0:0:0:
256,192,278292,1,0,0:0:0:0:
256,192,278469,1,8,0:0:0:0:
256,192,278822,1,4,0:0:0:0:
256,192,279351,1,8,0:0:0:0:
256,192,279439,1,8,0:0:0:0:
256,192,279527,1,8,0:0:0:0:
256,192,279704,1,0,0:0:0:0:
256,192,279880,1,0,0:0:0:0:
256,192,280057,1,0,0:0:0:0:
256,192,280233,1,8,0:0:0:0:
256,192,280410,1,8,0:0:0:0:
256,192,280586,1,8,0:0:0:0:
256,192,280763,1,0,0:0:0:0:
256,192,280939,1,8,0:0:0:0:
256,192,281027,1,8,0:0:0:0:
256,192,281116,1,8,0:0:0:0:
256,192,281204,1,8,0:0:0:0:
256,192,281292,1,8,0:0:0:0:
256,192,281469,1,8,0:0:0:0:
256,192,281645,1,0,0:0:0:0:
256,192,281822,1,0,0:0:0:0:
256,192,281998,1,8,0:0:0:0:
256,192,282174,1,0,0:0:0:0:
256,192,282351,1,8,0:0:0:0:
256,192,282527,1,0,0:0:0:0:
256,192,282704,1,0,0:0:0:0:
256,192,282880,1,8,0:0:0:0:
256,192,283057,1,0,0:0:0:0:
256,192,283233,1,0,0:0:0:0:
256,192,283410,1,8,0:0:0:0:
256,192,283586,1,0,0:0:0:0:
256,192,283763,1,0,0:0:0:0:
256,192,283851,1,0,0:0:0:0:
256,192,283939,1,0,0:0:0:0:
256,192,284116,1,8,0:0:0:0:
256,192,284469,1,0,0:0:0:0:
256,192,284557,1,0,0:0:0:0:
256,192,284645,1,0,0:0:0:0:
256,192,284733,1,0,0:0:0:0:
256,192,284822,1,0,0:0:0:0:
256,192,285174,1,8,0:0:0:0:
256,192,285351,1,0,0:0:0:0:
256,192,285527,1,0,0:0:0:0:
256,192,285704,1,8,0:0:0:0:
256,192,285880,1,0,0:0:0:0:
256,192,285969,1,0,0:0:0:0:
256,192,286057,1,0,0:0:0:0:
256,192,286233,1,8,0:0:0:0:
256,192,286410,1,0,0:0:0:0:
256,192,286586,1,8,0:0:0:0:
256,192,286704,1,0,0:0:0:0:
256,192,286822,1,0,0:0:0:0:
256,192,286939,1,0,0:0:0:0:
256,192,287292,2,0,L|256:32,1,139.999963465119
256,192,287998,1,8,0:0:0:0:
256,192,288351,1,0,0:0:0:0:
256,192,288439,1,0,0:0:0:0:
256,192,288527,1,8,0:0:0:0:
256,192,288704,1,0,0:0:0:0:
256,192,288880,1,0,0:0:0:0:
256,192,289057,1,8,0:0:0:0:
256,192,289410,1,8,0:0:0:0:
256,192,289586,1,0,0:0:0:0:
256,192,289763,1,8,0:0:0:0:
256,192,290116,1,4,0:0:0:0:
256,192,290645,1,8,0:0:0:0:
256,192,290733,1,8,0:0:0:0:
256,192,290822,1,8,0:0:0:0:
256,192,290998,1,0,0:0:0:0:
256,192,291174,1,0,0:0:0:0:
256,192,291351,1,0,0:0:0:0:
256,192,291527,1,8,0:0:0:0:
256,192,291704,1,8,0:0:0:0:
256,192,291880,1,8,0:0:0:0:
256,192,292057,1,0,0:0:0:0:
256,192,292233,1,8,0:0:0:0:
256,192,292410,1,8,0:0:0:0:
256,192,292586,1,8,0:0:0:0:
256,192,292763,1,8,0:0:0:0:
256,192,292939,1,0,0:0:0:0:
256,192,293116,1,0,0:0:0:0:
256,192,293292,1,8,0:0:0:0:
256,192,293469,1,8,0:0:0:0:
256,192,293557,1,8,0:0:0:0:
256,192,293645,1,8,0:0:0:0:
256,192,293822,1,0,0:0:0:0:
256,192,293998,1,8,0:0:0:0:
256,192,294174,1,8,0:0:0:0:
256,192,294351,1,8,0:0:0:0:
256,192,294527,1,0,0:0:0:0:
256,192,294704,1,8,0:0:0:0:
256,192,294880,1,0,0:0:0:0:
256,192,295057,1,8,0:0:0:0:
256,192,295233,1,0,0:0:0:0:
256,192,295410,1,0,0:0:0:0:
256,192,295586,1,0,0:0:0:0:
256,192,295763,1,8,0:0:0:0:
256,192,295939,1,8,0:0:0:0:
256,192,296116,1,0,0:0:0:0:
256,192,296292,1,8,0:0:0:0:
256,192,296469,1,0,0:0:0:0:
256,192,296645,1,8,0:0:0:0:
256,192,296822,1,0,0:0:0:0:
256,192,296998,1,8,0:0:0:0:
256,192,297174,1,0,0:0:0:0:
256,192,297351,1,8,0:0:0:0:
256,192,297527,1,8,0:0:0:0:
256,192,297704,1,0,0:0:0:0:
256,192,297880,1,8,0:0:0:0:
256,192,297998,1,0,0:0:0:0:
256,192,298116,1,0,0:0:0:0:
256,192,298233,1,8,0:0:0:0:
256,192,298586,1,8,0:0:0:0:
256,192,298763,1,0,0:0:0:0:
256,192,298939,1,8,0:0:0:0:
256,192,299116,1,8,0:0:0:0:
256,192,299204,1,8,0:0:0:0:
256,192,299292,1,8,0:0:0:0:
256,192,299469,1,0,0:0:0:0:
256,192,299645,1,8,0:0:0:0:
256,192,299822,1,8,0:0:0:0:
256,192,299998,1,8,0:0:0:0:
256,192,300174,1,0,0:0:0:0:
256,192,300351,1,8,0:0:0:0:
256,192,300527,1,0,0:0:0:0:
256,192,300704,1,8,0:0:0:0:
256,192,300880,1,0,0:0:0:0:
256,192,301057,1,8,0:0:0:0:
256,192,301233,1,8,0:0:0:0:
256,192,301322,1,0,0:0:0:0:
256,192,301410,1,8,0:0:0:0:
256,192,301939,1,8,0:0:0:0:
256,192,302027,1,8,0:0:0:0:
256,192,302116,1,0,0:0:0:0:
256,192,302292,1,0,0:0:0:0:
256,192,302469,1,0,0:0:0:0:
256,192,302645,1,0,0:0:0:0:
256,192,302822,1,8,0:0:0:0:
256,192,302998,1,8,0:0:0:0:
256,192,303174,1,8,0:0:0:0:
256,192,303351,1,0,0:0:0:0:
256,192,303527,1,8,0:0:0:0:
256,192,303704,1,8,0:0:0:0:
256,192,303880,1,8,0:0:0:0:
256,192,304057,1,8,0:0:0:0:
256,192,304233,1,0,0:0:0:0:
256,192,304410,1,0,0:0:0:0:
256,192,304586,1,0,0:0:0:0:
256,192,304763,1,0,0:0:0:0:
256,192,304851,1,0,0:0:0:0:
256,192,304939,1,8,0:0:0:0:
256,192,305116,1,8,0:0:0:0:
256,192,305292,1,0,0:0:0:0:
256,192,305469,1,0,0:0:0:0:
256,192,305645,1,8,0:0:0:0:
256,192,305822,1,8,0:0:0:0:
256,192,305998,1,0,0:0:0:0:
256,192,306174,1,0,0:0:0:0:
256,192,306351,1,8,0:0:0:0:
256,192,306527,1,0,0:0:0:0:
256,192,306704,1,8,0:0:0:0:
256,192,306880,1,8,0:0:0:0:
256,192,307057,1,0,0:0:0:0:
256,192,307233,1,8,0:0:0:0:
256,192,307410,1,0,0:0:0:0:
256,192,307586,1,8,0:0:0:0:
256,192,307763,1,0,0:0:0:0:
256,192,307939,1,8,0:0:0:0:
256,192,308116,1,0,0:0:0:0:
256,192,308292,1,8,0:0:0:0:
256,192,308469,1,0,0:0:0:0:
256,192,308645,1,0,0:0:0:0:
256,192,308822,1,8,0:0:0:0:
256,192,308998,1,8,0:0:0:0:
256,192,309174,1,8,0:0:0:0:
256,192,309292,1,8,0:0:0:0:
256,192,309410,1,0,0:0:0:0:
256,192,309527,1,8,0:0:0:0:
256,192,309880,2,0,L|256:32,1,139.999963465119
256,192,310410,1,8,0:0:0:0:
256,192,310586,1,8,0:0:0:0:
256,192,310674,1,0,0:0:0:0:
256,192,310763,1,0,0:0:0:0:
256,192,310939,1,8,0:0:0:0:
256,192,311116,1,0,0:0:0:0:
256,192,311292,1,8,0:0:0:0:
256,192,311469,1,0,0:0:0:0:
256,192,311645,1,8,0:0:0:0:
256,192,311822,1,8,0:0:0:0:
256,192,311998,1,8,0:0:0:0:
256,192,312174,1,0,0:0:0:0:
256,192,312351,1,8,0:0:0:0:
256,192,312527,1,8,0:0:0:0:
256,192,312704,1,8,0:0:0:0:
256,192,313233,1,8,0:0:0:0:
256,192,313410,1,8,0:0:0:0:
256,192,313586,1,0,0:0:0:0:
256,192,313763,1,8,0:0:0:0:
256,192,313939,1,0,0:0:0:0:
256,192,314116,1,8,0:0:0:0:
256,192,314204,1,0,0:0:0:0:
256,192,314292,1,0,0:0:0:0:
256,192,314469,1,8,0:0:0:0:
256,192,314645,1,0,0:0:0:0:
256,192,314822,1,8,0:0:0:0:
256,192,314910,1,8,0:0:0:0:
256,192,314998,1,8,0:0:0:0:
256,192,315174,1,8,0:0:0:0:
256,192,315351,1,8,0:0:0:0:
256,192,315527,1,0,0:0:0:0:
