osu file format v14

[General]
AudioFilename: audio.mp3
AudioLeadIn: 0
PreviewTime: 93705
Countdown: 0
SampleSet: Normal
StackLeniency: 0.7
Mode: 1
LetterboxInBreaks: 0
WidescreenStoryboard: 1

[Editor]
Bookmarks: 12000,45882,68470,91058,93882,115058,116470,139058,155999,179999,202587,225175,247763,270351,292940,315528
DistanceSpacing: 0.3
BeatDivisor: 2
GridSize: 32
TimelineZoom: 1.400002

[Metadata]
Title:The Venerable Ancient Battlefield ~ Suwa Foughten Field RMX
TitleUnicode:The Venerable Ancient Battlefield ~ Suwa Foughten Field RMX
Artist:MAMA PURITY
ArtistUnicode:MAMA PURITY
Creator:eterpay
Version:Futsuu
Source:東方Project
Tags:moon mom mum kanako yasaka touhou toho mountain of faith
BeatmapID:1169168
BeatmapSetID:538001

[Difficulty]
HPDrainRate:5
CircleSize:2
OverallDifficulty:4
ApproachRate:5
SliderMultiplier:1.29999963465119
SliderTickRate:1

[Events]
//Background and Video events
0,0,"kanakobg.jpg",0,0
//Break Periods
2,156199,160446
//Storyboard Layer 0 (Background)
//Storyboard Layer 1 (Fail)
//Storyboard Layer 2 (Pass)
//Storyboard Layer 3 (Foreground)
//Storyboard Sound Samples

[TimingPoints]
706,352.941176470588,4,1,0,100,1,0
706,-133.333333333333,4,1,0,100,0,0
4941,-100,4,1,0,100,0,0
6000,-133.333333333333,4,1,0,100,0,0
6353,-133.333333333333,4,1,0,100,0,0
12000,-125,4,1,0,100,0,0
16235,-100,4,1,0,100,0,0
17647,-125,4,1,0,100,0,0
23295,-117.647058823529,4,1,0,100,0,0
27529,-100,4,1,0,100,0,0
28941,-117.647058823529,4,1,0,100,0,0
34589,-111.111111111111,4,1,0,100,0,0
38823,-100,4,1,0,100,0,0
40235,-111.111111111111,4,1,0,100,0,0
45176,-100,4,1,0,100,0,0
45882,-100,4,1,0,100,0,1
68470,-100,4,1,0,100,0,0
93882,-100,4,1,0,100,0,0
115411,-100,4,1,0,100,0,0
127764,-95.2380952380952,4,1,0,100,0,0
138882,-125,4,1,0,100,0,0
139058,352.941176470588,3,1,0,100,1,0
139058,-133.333333333333,3,1,0,100,0,0
155999,352.941176470588,4,1,0,100,1,0
155999,-133.333333333333,4,1,0,100,0,0
156351,-100,4,1,0,100,0,0
167295,-95.2380952380952,4,1,0,100,0,0
170117,-90.9090909090909,4,1,0,100,0,0
172941,-86.9565217391304,4,1,0,100,0,0
173646,-90.9090909090909,4,1,0,100,0,0
174353,-95.2380952380952,4,1,0,100,0,0
176116,-100,4,1,0,100,0,0
177176,-111.111111111111,4,1,0,100,0,0
178587,-125,4,1,0,100,0,0
179293,-100,4,1,0,100,0,0
179646,-90.9090909090909,4,1,0,100,0,0
179822,-86.9565217391304,4,1,0,100,0,0
179999,-86.9565217391304,4,1,0,100,0,0
219881,-95.2380952380952,4,1,0,100,0,0
220587,-105.263157894737,4,1,0,100,0,0
221998,-117.647058823529,4,1,0,100,0,0
223763,-111.111111111111,4,1,0,100,0,0
224293,-107.52688172043,4,1,0,100,0,0
224469,-105.263157894737,4,1,0,100,0,0
224557,-102.040816326531,4,1,0,100,0,0
224646,-100,4,1,0,100,0,0
224734,-97.0873786407767,4,1,0,100,0,0
224822,-95.2380952380952,4,1,0,100,0,0
224910,-92.5925925925926,4,1,0,100,0,0
224998,-90.9090909090909,4,1,0,100,0,0
225087,-88.4955752212389,4,1,0,100,0,0
225175,-86.9565217391304,4,1,0,100,0,1
247763,-117.647058823529,4,1,0,100,0,0
251998,-100,4,1,0,100,0,0
253410,-117.647058823529,4,1,0,100,0,0
259057,-111.111111111111,4,1,0,100,0,0
263293,-100,4,1,0,100,0,0
264704,-111.111111111111,4,1,0,100,0,0
269646,-100,4,1,0,100,0,0
270351,-100,4,1,0,100,0,1
292940,-100,4,1,0,100,0,0

[HitObjects]
256,192,706,5,0,0:0:0:0:
256,192,1411,1,8,0:0:0:0:
256,192,2117,1,0,0:0:0:0:
256,192,2823,1,8,0:0:0:0:
256,192,3529,1,0,0:0:0:0:
256,192,4235,1,8,0:0:0:0:
256,192,4941,1,0,0:0:0:0:
256,192,5294,1,0,0:0:0:0:
256,192,5647,1,0,0:0:0:0:
256,192,6353,1,0,0:0:0:0:
256,192,7058,1,8,0:0:0:0:
256,192,7764,1,0,0:0:0:0:
256,192,8470,1,8,0:0:0:0:
256,192,9176,1,8,0:0:0:0:
256,192,9705,1,0,0:0:0:0:
256,192,9882,1,8,0:0:0:0:
256,192,10411,1,8,0:0:0:0:
256,192,10588,1,0,0:0:0:0:
256,192,11117,1,0,0:0:0:0:
256,192,11294,1,8,0:0:0:0:
256,192,11647,1,8,0:0:0:0:
256,192,12000,5,0,0:0:0:0:
256,192,12353,1,0,0:0:0:0:
256,192,12705,1,8,0:0:0:0:
256,192,13411,1,0,0:0:0:0:
256,192,13764,1,0,0:0:0:0:
256,192,14117,1,8,0:0:0:0:
256,192,14823,1,0,0:0:0:0:
256,192,15000,1,0,0:0:0:0:
256,192,15176,1,8,0:0:0:0:
256,192,15529,1,0,0:0:0:0:
256,192,15705,1,0,0:0:0:0:
256,192,15882,1,8,0:0:0:0:
256,192,16235,1,0,0:0:0:0:
256,192,16588,1,0,0:0:0:0:
256,192,16941,1,0,0:0:0:0:
256,192,17647,1,12,0:0:0:0:
256,192,18000,1,0,0:0:0:0:
256,192,18353,1,0,0:0:0:0:
256,192,19058,1,8,0:0:0:0:
256,192,19411,1,0,0:0:0:0:
256,192,19764,1,0,0:0:0:0:
256,192,20470,1,8,0:0:0:0:
256,192,21000,1,8,0:0:0:0:
256,192,21176,1,0,0:0:0:0:
256,192,21353,1,0,0:0:0:0:
256,192,21529,1,0,0:0:0:0:
256,192,21882,1,8,0:0:0:0:
256,192,22235,1,0,0:0:0:0:
256,192,22588,1,8,0:0:0:0:
256,192,22764,1,8,0:0:0:0:
256,192,22941,1,8,0:0:0:0:
256,192,23294,1,0,0:0:0:0:
256,192,23647,1,0,0:0:0:0:
256,192,24000,1,8,0:0:0:0:
256,192,24176,1,8,0:0:0:0:
256,192,24353,1,0,0:0:0:0:
256,192,24705,1,8,0:0:0:0:
256,192,25058,1,0,0:0:0:0:
256,192,25411,1,8,0:0:0:0:
256,192,25588,1,8,0:0:0:0:
256,192,25764,1,0,0:0:0:0:
256,192,26117,1,0,0:0:0:0:
256,192,26470,1,8,0:0:0:0:
256,192,26823,1,0,0:0:0:0:
256,192,27176,1,8,0:0:0:0:
256,192,27529,1,0,0:0:0:0:
256,192,27705,1,8,0:0:0:0:
256,192,27882,1,0,0:0:0:0:
256,192,28058,1,8,0:0:0:0:
256,192,28235,1,0,0:0:0:0:
256,192,28941,1,12,0:0:0:0:
256,192,29294,1,0,0:0:0:0:
256,192,29647,1,8,0:0:0:0:
256,192,29823,1,8,0:0:0:0:
256,192,30000,1,0,0:0:0:0:
256,192,30353,1,8,0:0:0:0:
256,192,30705,1,0,0:0:0:0:
256,192,31058,1,8,0:0:0:0:
256,192,31235,1,8,0:0:0:0:
256,192,31411,1,0,0:0:0:0:
256,192,31764,1,8,0:0:0:0:
256,192,32294,1,0,0:0:0:0:
256,192,32470,1,8,0:0:0:0:
256,192,32823,1,8,0:0:0:0:
256,192,33176,1,8,0:0:0:0:
256,192,33529,1,0,0:0:0:0:
256,192,33882,1,8,0:0:0:0:
256,192,34235,1,8,0:0:0:0:
256,192,34411,1,8,0:0:0:0:
256,192,34588,1,0,0:0:0:0:
256,192,34941,1,0,0:0:0:0:
256,192,35294,1,0,0:0:0:0:
256,192,35470,1,0,0:0:0:0:
256,192,35647,1,8,0:0:0:0:
256,192,36000,1,0,0:0:0:0:
256,192,36353,1,0,0:0:0:0:
256,192,36705,1,0,0:0:0:0:
256,192,36882,1,0,0:0:0:0:
256,192,37058,1,8,0:0:0:0:
256,192,37411,1,0,0:0:0:0:
256,192,37764,1,0,0:0:0:0:
256,192,38117,1,8,0:0:0:0:
256,192,38470,1,8,0:0:0:0:
256,192,38823,1,0,0:0:0:0:
256,192,39000,1,8,0:0:0:0:
256,192,39176,1,0,0:0:0:0:
256,192,39353,1,8,0:0:0:0:
256,192,39529,1,0,0:0:0:0:
256,192,40235,1,0,0:0:0:0:
256,192,40588,1,0,0:0:0:0:
256,192,40941,1,0,0:0:0:0:
256,192,41117,1,0,0:0:0:0:
256,192,41294,1,8,0:0:0:0:
256,192,41470,1,8,0:0:0:0:
256,192,41647,1,0,0:0:0:0:
256,192,42000,1,0,0:0:0:0:
256,192,42353,1,8,0:0:0:0:
256,192,42529,1,0,0:0:0:0:
256,192,42705,1,8,0:0:0:0:
256,192,42882,1,0,0:0:0:0:
256,192,43058,1,8,0:0:0:0:
256,192,43411,1,8,0:0:0:0:
256,192,43764,1,8,0:0:0:0:
256,192,43941,1,0,0:0:0:0:
256,192,44117,1,8,0:0:0:0:
256,192,44470,1,8,0:0:0:0:
256,192,44823,1,8,0:0:0:0:
256,192,45176,1,12,0:0:0:0:
256,192,45353,1,12,0:0:0:0:
256,192,45529,1,12,0:0:0:0:
256,192,45882,1,8,0:0:0:0:
256,192,46058,1,0,0:0:0:0:
256,192,46235,1,8,0:0:0:0:
256,192,46588,1,8,0:0:0:0:
256,192,46941,1,0,0:0:0:0:
256,192,47117,1,8,0:0:0:0:
256,192,47470,1,0,0:0:0:0:
256,192,47647,1,8,0:0:0:0:
256,192,48000,1,0,0:0:0:0:
256,192,48176,1,0,0:0:0:0:
256,192,48353,1,8,0:0:0:0:
256,192,48705,1,8,0:0:0:0:
256,192,49411,1,8,0:0:0:0:
256,192,49764,1,0,0:0:0:0:
256,192,49941,1,8,0:0:0:0:
256,192,50294,1,0,0:0:0:0:
256,192,50470,1,8,0:0:0:0:
256,192,50647,1,0,0:0:0:0:
256,192,50823,1,0,0:0:0:0:
256,192,51176,1,0,0:0:0:0:
256,192,51529,1,0,0:0:0:0:
256,192,51705,1,0,0:0:0:0:
256,192,51882,1,0,0:0:0:0:
256,192,52058,1,0,0:0:0:0:
256,192,52235,1,8,0:0:0:0:
256,192,52588,1,0,0:0:0:0:
256,192,52764,1,8,0:0:0:0:
256,192,53117,1,0,0:0:0:0:
256,192,53294,1,8,0:0:0:0:
256,192,53647,1,0,0:0:0:0:
256,192,53823,1,0,0:0:0:0:
256,192,54000,1,8,0:0:0:0:
256,192,54353,1,4,0:0:0:0:
256,192,54882,1,0,0:0:0:0:
256,192,55058,1,8,0:0:0:0:
256,192,55235,1,8,0:0:0:0:
256,192,55411,1,8,0:0:0:0:
256,192,55588,1,0,0:0:0:0:
256,192,55764,1,8,0:0:0:0:
256,192,56117,1,8,0:0:0:0:
256,192,56294,1,0,0:0:0:0:
256,192,56470,1,8,0:0:0:0:
256,192,56823,1,8,0:0:0:0:
256,192,57000,1,8,0:0:0:0:
256,192,57176,1,0,0:0:0:0:
256,192,57529,1,8,0:0:0:0:
256,192,57882,1,8,0:0:0:0:
256,192,58235,1,0,0:0:0:0:
256,192,58411,1,8,0:0:0:0:
256,192,58764,1,0,0:0:0:0:
256,192,58941,1,8,0:0:0:0:
256,192,59294,1,0,0:0:0:0:
256,192,59470,1,0,0:0:0:0:
256,192,59647,1,8,0:0:0:0:
256,192,60000,1,0,0:0:0:0:
256,192,60705,1,8,0:0:0:0:
256,192,61058,1,0,0:0:0:0:
256,192,61235,1,8,0:0:0:0:
256,192,61411,1,0,0:0:0:0:
256,192,61588,1,0,0:0:0:0:
256,192,61764,1,8,0:0:0:0:
256,192,62117,1,8,0:0:0:0:
256,192,62823,1,8,0:0:0:0:
256,192,63176,1,8,0:0:0:0:
256,192,63529,1,8,0:0:0:0:
256,192,63882,1,0,0:0:0:0:
256,192,64058,1,8,0:0:0:0:
256,192,64235,1,0,0:0:0:0:
256,192,64411,1,0,0:0:0:0:
256,192,64588,1,8,0:0:0:0:
256,192,64941,1,8,0:0:0:0:
256,192,65117,1,0,0:0:0:0:
256,192,65294,1,8,0:0:0:0:
256,192,65647,1,0,0:0:0:0:
256,192,66353,1,8,0:0:0:0:
256,192,66705,1,8,0:0:0:0:
256,192,66882,1,8,0:0:0:0:
256,192,67058,1,8,0:0:0:0:
256,192,67411,1,8,0:0:0:0:
256,192,67588,1,0,0:0:0:0:
256,192,67764,1,8,0:0:0:0:
256,192,68117,1,8,0:0:0:0:
256,192,68294,1,8,0:0:0:0:
256,192,68470,1,0,0:0:0:0:
256,192,68823,1,8,0:0:0:0:
256,192,69176,1,8,0:0:0:0:
256,192,69353,1,0,0:0:0:0:
256,192,69529,1,8,0:0:0:0:
256,192,69705,1,8,0:0:0:0:
256,192,69882,1,8,0:0:0:0:
256,192,70235,1,8,0:0:0:0:
256,192,70588,1,8,0:0:0:0:
256,192,70764,1,0,0:0:0:0:
256,192,70941,1,0,0:0:0:0:
256,192,71294,1,8,0:0:0:0:
256,192,71647,1,8,0:0:0:0:
256,192,71823,1,0,0:0:0:0:
256,192,72000,1,8,0:0:0:0:
256,192,72353,1,0,0:0:0:0:
256,192,72705,1,8,0:0:0:0:
256,192,72882,1,0,0:0:0:0:
256,192,73058,1,8,0:0:0:0:
256,192,73411,1,0,0:0:0:0:
256,192,74117,1,8,0:0:0:0:
256,192,74294,1,0,0:0:0:0:
256,192,74647,1,0,0:0:0:0:
256,192,74823,1,8,0:0:0:0:
256,192,75176,1,8,0:0:0:0:
256,192,75353,1,8,0:0:0:0:
256,192,75529,1,8,0:0:0:0:
256,192,75882,1,0,0:0:0:0:
256,192,76235,1,8,0:0:0:0:
256,192,76588,1,8,0:0:0:0:
256,192,76941,1,0,0:0:0:0:
256,192,77647,1,0,0:0:0:0:
256,192,78353,1,8,0:0:0:0:
256,192,78705,1,8,0:0:0:0:
256,192,78882,1,0,0:0:0:0:
256,192,79058,1,8,0:0:0:0:
256,192,79411,1,8,0:0:0:0:
256,192,79764,1,0,0:0:0:0:
256,192,80117,1,0,0:0:0:0:
256,192,80294,1,0,0:0:0:0:
256,192,80470,1,8,0:0:0:0:
256,192,80823,1,0,0:0:0:0:
256,192,81176,1,8,0:0:0:0:
256,192,81353,1,0,0:0:0:0:
256,192,81529,1,8,0:0:0:0:
256,192,81705,1,0,0:0:0:0:
256,192,81882,1,8,0:0:0:0:
256,192,82235,1,8,0:0:0:0:
256,192,82588,1,0,0:0:0:0:
256,192,82764,1,0,0:0:0:0:
256,192,82941,1,8,0:0:0:0:
256,192,83294,1,8,0:0:0:0:
256,192,83470,1,8,0:0:0:0:
256,192,83647,1,8,0:0:0:0:
256,192,84000,1,0,0:0:0:0:
256,192,84353,1,0,0:0:0:0:
256,192,84705,1,0,0:0:0:0:
256,192,85411,1,0,0:0:0:0:
256,192,85764,1,0,0:0:0:0:
256,192,85941,1,0,0:0:0:0:
256,192,86117,1,8,0:0:0:0:
256,192,86470,1,8,0:0:0:0:
256,192,86647,1,0,0:0:0:0:
256,192,86823,1,8,0:0:0:0:
256,192,87176,1,8,0:0:0:0:
256,192,87529,1,8,0:0:0:0:
256,192,87882,1,0,0:0:0:0:
256,192,88235,1,8,0:0:0:0:
256,192,88941,1,8,0:0:0:0:
256,192,89294,1,8,0:0:0:0:
256,192,89470,1,0,0:0:0:0:
256,192,89647,1,8,0:0:0:0:
256,192,90000,1,8,0:0:0:0:
256,192,90353,1,8,0:0:0:0:
256,192,90529,1,0,0:0:0:0:
256,192,90705,1,0,0:0:0:0:
256,192,90882,1,0,0:0:0:0:
256,192,91058,1,0,0:0:0:0:
256,192,91235,12,0,93882,0:0:0:0:
256,192,94235,5,8,0:0:0:0:
256,192,94411,1,0,0:0:0:0:
256,192,94764,1,0,0:0:0:0:
256,192,94941,1,8,0:0:0:0:
256,192,95294,1,0,0:0:0:0:
256,192,95647,1,8,0:0:0:0:
256,192,95823,1,0,0:0:0:0:
256,192,96176,1,0,0:0:0:0:
256,192,96353,1,8,0:0:0:0:
256,192,96529,1,8,0:0:0:0:
256,192,96705,1,0,0:0:0:0:
256,192,97058,1,8,0:0:0:0:
256,192,97235,1,0,0:0:0:0:
256,192,97588,1,0,0:0:0:0:
256,192,97764,1,8,0:0:0:0:
256,192,98117,1,0,0:0:0:0:
256,192,98470,1,8,0:0:0:0:
256,192,98647,1,0,0:0:0:0:
256,192,99000,1,0,0:0:0:0:
256,192,99176,1,8,0:0:0:0:
256,192,99353,1,8,0:0:0:0:
256,192,99529,1,0,0:0:0:0:
256,192,99882,5,8,0:0:0:0:
256,192,100058,1,0,0:0:0:0:
256,192,100411,1,0,0:0:0:0:
256,192,100588,1,8,0:0:0:0:
256,192,100941,1,0,0:0:0:0:
256,192,101294,1,8,0:0:0:0:
256,192,101470,1,0,0:0:0:0:
256,192,101823,1,0,0:0:0:0:
256,192,102000,1,8,0:0:0:0:
256,192,102176,1,8,0:0:0:0:
256,192,102353,1,0,0:0:0:0:
256,192,102705,5,8,0:0:0:0:
256,192,102882,1,0,0:0:0:0:
256,192,103235,1,0,0:0:0:0:
256,192,103411,1,8,0:0:0:0:
256,192,103764,1,0,0:0:0:0:
256,192,104117,1,0,0:0:0:0:
256,192,104470,1,0,0:0:0:0:
256,192,104647,1,0,0:0:0:0:
256,192,104823,1,0,0:0:0:0:
256,192,105000,1,0,0:0:0:0:
256,192,105176,1,8,0:0:0:0:
256,192,105529,5,8,0:0:0:0:
256,192,105705,1,0,0:0:0:0:
256,192,106058,1,0,0:0:0:0:
256,192,106235,1,8,0:0:0:0:
256,192,106411,1,0,0:0:0:0:
256,192,106588,1,0,0:0:0:0:
256,192,106941,1,8,0:0:0:0:
256,192,107117,1,0,0:0:0:0:
256,192,107470,1,8,0:0:0:0:
256,192,107647,1,8,0:0:0:0:
256,192,107823,1,8,0:0:0:0:
256,192,108000,1,0,0:0:0:0:
256,192,108353,5,8,0:0:0:0:
256,192,108529,1,0,0:0:0:0:
256,192,108882,1,0,0:0:0:0:
256,192,109058,1,8,0:0:0:0:
256,192,109235,1,0,0:0:0:0:
256,192,109411,1,0,0:0:0:0:
256,192,109764,1,8,0:0:0:0:
256,192,109941,1,0,0:0:0:0:
256,192,110294,1,8,0:0:0:0:
256,192,110470,1,8,0:0:0:0:
256,192,110647,1,8,0:0:0:0:
256,192,110823,1,0,0:0:0:0:
256,192,111176,5,8,0:0:0:0:
256,192,111353,1,0,0:0:0:0:
256,192,111705,1,0,0:0:0:0:
256,192,111882,1,8,0:0:0:0:
256,192,112058,1,0,0:0:0:0:
256,192,112235,1,0,0:0:0:0:
256,192,112588,1,8,0:0:0:0:
256,192,112764,1,0,0:0:0:0:
256,192,113117,1,8,0:0:0:0:
256,192,113294,1,8,0:0:0:0:
256,192,113470,1,8,0:0:0:0:
256,192,113647,1,0,0:0:0:0:
256,192,114000,1,0,0:0:0:0:
256,192,114353,1,8,0:0:0:0:
256,192,114529,1,0,0:0:0:0:
256,192,114705,1,8,0:0:0:0:
256,192,114882,1,0,0:0:0:0:
256,192,115058,1,8,0:0:0:0:
256,192,116470,5,0,0:0:0:0:
256,192,116647,1,0,0:0:0:0:
256,192,116823,1,8,0:0:0:0:
256,192,117176,1,0,0:0:0:0:
256,192,117353,1,8,0:0:0:0:
256,192,117705,1,0,0:0:0:0:
256,192,117882,1,8,0:0:0:0:
256,192,118058,1,0,0:0:0:0:
256,192,118235,1,0,0:0:0:0:
256,192,118411,1,8,0:0:0:0:
256,192,118764,1,0,0:0:0:0:
256,192,118941,1,8,0:0:0:0:
256,192,119294,1,8,0:0:0:0:
256,192,119647,1,8,0:0:0:0:
256,192,120000,1,0,0:0:0:0:
256,192,120176,1,8,0:0:0:0:
256,192,120529,1,0,0:0:0:0:
256,192,120705,1,8,0:0:0:0:
256,192,121058,1,0,0:0:0:0:
256,192,121235,1,8,0:0:0:0:
256,192,121588,1,0,0:0:0:0:
256,192,121764,1,8,0:0:0:0:
256,192,121941,1,0,0:0:0:0:
256,192,122117,1,8,0:0:0:0:
256,192,122470,1,8,0:0:0:0:
256,192,122823,1,0,0:0:0:0:
256,192,123000,1,8,0:0:0:0:
256,192,123353,1,0,0:0:0:0:
256,192,123529,1,8,0:0:0:0:
256,192,123705,1,0,0:0:0:0:
256,192,123882,1,0,0:0:0:0:
256,192,124058,1,8,0:0:0:0:
256,192,124411,1,0,0:0:0:0:
256,192,124588,1,8,0:0:0:0:
256,192,124941,1,8,0:0:0:0:
256,192,125294,1,8,0:0:0:0:
256,192,125647,1,0,0:0:0:0:
256,192,125823,1,8,0:0:0:0:
256,192,126176,1,0,0:0:0:0:
256,192,126353,1,8,0:0:0:0:
256,192,126705,1,0,0:0:0:0:
256,192,126882,1,8,0:0:0:0:
256,192,127235,1,0,0:0:0:0:
256,192,127411,1,8,0:0:0:0:
256,192,127764,1,8,0:0:0:0:
256,192,127941,1,0,0:0:0:0:
256,192,128117,1,8,0:0:0:0:
256,192,128294,1,0,0:0:0:0:
256,192,128470,1,0,0:0:0:0:
256,192,128647,1,8,0:0:0:0:
256,192,129000,1,0,0:0:0:0:
256,192,129176,1,8,0:0:0:0:
256,192,129529,1,0,0:0:0:0:
256,192,129705,1,8,0:0:0:0:
256,192,130058,1,0,0:0:0:0:
256,192,130235,1,8,0:0:0:0:
256,192,130411,1,0,0:0:0:0:
256,192,130588,1,8,0:0:0:0:
256,192,130764,1,0,0:0:0:0:
256,192,130941,1,8,0:0:0:0:
256,192,131117,1,0,0:0:0:0:
256,192,131294,1,0,0:0:0:0:
256,192,131470,1,8,0:0:0:0:
256,192,131823,1,0,0:0:0:0:
256,192,132000,1,8,0:0:0:0:
256,192,132353,1,0,0:0:0:0:
256,192,132529,1,8,0:0:0:0:
256,192,132882,1,0,0:0:0:0:
256,192,133058,1,8,0:0:0:0:
256,192,133411,1,8,0:0:0:0:
256,192,133588,1,0,0:0:0:0:
256,192,133764,1,8,0:0:0:0:
256,192,133941,1,0,0:0:0:0:
256,192,134117,1,8,0:0:0:0:
256,192,134294,1,8,0:0:0:0:
256,192,134647,1,0,0:0:0:0:
256,192,134823,1,8,0:0:0:0:
256,192,135176,1,8,0:0:0:0:
256,192,135353,1,0,0:0:0:0:
256,192,135705,1,8,0:0:0:0:
256,192,135882,1,8,0:0:0:0:
256,192,136235,1,8,0:0:0:0:
256,192,136411,1,0,0:0:0:0:
256,192,136588,1,8,0:0:0:0:
256,192,136764,1,0,0:0:0:0:
256,192,136941,1,8,0:0:0:0:
256,192,137117,1,8,0:0:0:0:
256,192,137294,1,0,0:0:0:0:
256,192,137470,1,0,0:0:0:0:
256,192,137647,1,8,0:0:0:0:
256,192,137823,1,8,0:0:0:0:
256,192,138000,1,0,0:0:0:0:
256,192,138176,1,8,0:0:0:0:
256,192,139058,1,8,0:0:0:0:
256,192,139410,1,0,0:0:0:0:
256,192,139763,1,0,0:0:0:0:
256,192,140116,1,8,0:0:0:0:
256,192,140469,1,8,0:0:0:0:
256,192,140822,1,0,0:0:0:0:
256,192,141175,1,8,0:0:0:0:
256,192,141528,1,8,0:0:0:0:
256,192,141881,1,0,0:0:0:0:
256,192,142234,1,8,0:0:0:0:
256,192,143293,1,8,0:0:0:0:
256,192,143646,1,0,0:0:0:0:
256,192,143999,1,0,0:0:0:0:
256,192,144352,1,8,0:0:0:0:
256,192,144705,1,8,0:0:0:0:
256,192,145058,1,8,0:0:0:0:
256,192,145410,1,8,0:0:0:0:
256,192,146469,1,0,0:0:0:0:
256,192,147175,1,8,0:0:0:0:
256,192,147528,1,8,0:0:0:0:
256,192,147881,1,0,0:0:0:0:
256,192,148058,1,0,0:0:0:0:
256,192,148234,1,8,0:0:0:0:
256,192,148587,1,8,0:0:0:0:
256,192,148940,1,0,0:0:0:0:
256,192,149116,1,0,0:0:0:0:
256,192,149293,1,8,0:0:0:0:
256,192,149646,1,8,0:0:0:0:
256,192,149999,1,8,0:0:0:0:
256,192,150352,1,8,0:0:0:0:
256,192,150705,1,0,0:0:0:0:
256,192,151763,1,8,0:0:0:0:
256,192,152116,1,0,0:0:0:0:
256,192,152293,1,0,0:0:0:0:
256,192,152469,1,0,0:0:0:0:
256,192,152822,1,8,0:0:0:0:
256,192,153175,1,0,0:0:0:0:
256,192,153352,1,0,0:0:0:0:
256,192,153528,1,0,0:0:0:0:
256,192,153881,1,8,0:0:0:0:
256,192,154940,1,0,0:0:0:0:
256,192,155646,1,8,0:0:0:0:
256,192,155999,1,8,0:0:0:0:
256,192,161646,5,0,0:0:0:0:
256,192,161999,1,8,0:0:0:0:
256,192,162351,1,0,0:0:0:0:
256,192,162704,1,8,0:0:0:0:
256,192,163057,1,0,0:0:0:0:
256,192,163410,1,0,0:0:0:0:
256,192,163763,1,0,0:0:0:0:
256,192,164116,1,8,0:0:0:0:
256,192,164293,1,8,0:0:0:0:
256,192,164469,1,0,0:0:0:0:
256,192,164822,1,8,0:0:0:0:
256,192,165175,1,0,0:0:0:0:
256,192,165528,1,8,0:0:0:0:
256,192,165881,1,0,0:0:0:0:
256,192,166234,1,8,0:0:0:0:
256,192,166587,1,8,0:0:0:0:
256,192,166940,1,8,0:0:0:0:
256,192,167116,1,8,0:0:0:0:
256,192,167293,5,0,0:0:0:0:
256,192,167469,1,8,0:0:0:0:
256,192,167822,1,8,0:0:0:0:
256,192,168175,1,8,0:0:0:0:
256,192,168528,1,8,0:0:0:0:
256,192,168704,1,0,0:0:0:0:
256,192,168881,1,8,0:0:0:0:
256,192,169234,1,8,0:0:0:0:
256,192,169587,1,8,0:0:0:0:
256,192,169940,1,8,0:0:0:0:
256,192,170116,1,0,0:0:0:0:
256,192,170293,1,8,0:0:0:0:
256,192,170646,1,8,0:0:0:0:
256,192,170999,1,8,0:0:0:0:
256,192,171351,1,8,0:0:0:0:
256,192,171528,1,0,0:0:0:0:
256,192,171704,1,8,0:0:0:0:
256,192,172057,1,8,0:0:0:0:
256,192,172410,1,8,0:0:0:0:
256,192,172763,1,8,0:0:0:0:
256,192,172940,1,0,0:0:0:0:
256,192,173116,1,0,0:0:0:0:
256,192,173469,1,0,0:0:0:0:
256,192,173822,1,0,0:0:0:0:
256,192,174175,1,8,0:0:0:0:
256,192,174351,1,0,0:0:0:0:
256,192,174528,1,0,0:0:0:0:
256,192,174881,1,0,0:0:0:0:
256,192,175234,1,0,0:0:0:0:
256,192,175587,1,0,0:0:0:0:
256,192,175763,1,0,0:0:0:0:
256,192,175940,1,8,0:0:0:0:
256,192,176293,1,8,0:0:0:0:
256,192,176646,1,8,0:0:0:0:
256,192,176999,1,8,0:0:0:0:
256,192,177175,1,0,0:0:0:0:
256,192,178587,1,4,0:0:0:0:
256,192,179293,1,12,0:0:0:0:
256,192,179646,1,0,0:0:0:0:
256,192,179822,1,0,0:0:0:0:
256,192,179999,1,8,0:0:0:0:
256,192,180175,1,0,0:0:0:0:
256,192,180528,1,0,0:0:0:0:
256,192,180704,1,8,0:0:0:0:
256,192,180881,1,0,0:0:0:0:
256,192,181234,1,0,0:0:0:0:
256,192,181410,1,0,0:0:0:0:
256,192,181587,1,0,0:0:0:0:
256,192,181763,1,8,0:0:0:0:
256,192,182116,1,8,0:0:0:0:
256,192,182293,1,0,0:0:0:0:
256,192,182646,1,0,0:0:0:0:
256,192,182998,1,8,0:0:0:0:
256,192,183175,1,0,0:0:0:0:
256,192,183351,1,0,0:0:0:0:
256,192,183528,1,8,0:0:0:0:
256,192,183881,1,8,0:0:0:0:
256,192,184234,1,0,0:0:0:0:
256,192,184410,1,0,0:0:0:0:
256,192,184587,1,0,0:0:0:0:
256,192,184763,1,0,0:0:0:0:
256,192,184940,1,8,0:0:0:0:
256,192,185293,1,8,0:0:0:0:
256,192,185646,1,8,0:0:0:0:
256,192,185822,1,0,0:0:0:0:
256,192,186175,1,0,0:0:0:0:
256,192,186351,1,8,0:0:0:0:
256,192,186528,1,0,0:0:0:0:
256,192,186881,1,0,0:0:0:0:
256,192,187057,1,0,0:0:0:0:
256,192,187410,1,0,0:0:0:0:
256,192,187763,1,8,0:0:0:0:
256,192,187940,1,0,0:0:0:0:
256,192,188293,1,8,0:0:0:0:
256,192,188469,1,0,0:0:0:0:
256,192,188822,1,0,0:0:0:0:
256,192,189175,1,8,0:0:0:0:
256,192,189528,1,8,0:0:0:0:
256,192,189881,1,8,0:0:0:0:
256,192,190057,1,0,0:0:0:0:
256,192,190234,1,8,0:0:0:0:
256,192,190410,1,0,0:0:0:0:
256,192,190587,1,8,0:0:0:0:
256,192,190940,1,8,0:0:0:0:
256,192,191116,1,8,0:0:0:0:
256,192,191293,1,8,0:0:0:0:
256,192,191469,1,0,0:0:0:0:
256,192,191822,1,0,0:0:0:0:
256,192,191998,1,8,0:0:0:0:
256,192,192175,1,0,0:0:0:0:
256,192,192528,1,0,0:0:0:0:
256,192,192704,1,0,0:0:0:0:
256,192,192881,1,0,0:0:0:0:
256,192,193057,1,8,0:0:0:0:
256,192,193410,1,8,0:0:0:0:
256,192,193587,1,0,0:0:0:0:
256,192,193940,1,0,0:0:0:0:
256,192,194293,1,8,0:0:0:0:
256,192,194469,1,0,0:0:0:0:
256,192,194646,1,0,0:0:0:0:
256,192,194822,1,8,0:0:0:0:
256,192,195175,1,8,0:0:0:0:
256,192,195528,1,0,0:0:0:0:
256,192,195704,1,0,0:0:0:0:
256,192,195881,1,0,0:0:0:0:
256,192,196057,1,0,0:0:0:0:
256,192,196234,1,8,0:0:0:0:
256,192,196587,1,8,0:0:0:0:
256,192,196940,1,8,0:0:0:0:
256,192,197116,1,0,0:0:0:0:
256,192,197469,1,0,0:0:0:0:
256,192,197646,1,8,0:0:0:0:
256,192,197822,1,0,0:0:0:0:
256,192,198175,1,0,0:0:0:0:
256,192,198351,1,0,0:0:0:0:
256,192,198704,1,0,0:0:0:0:
256,192,199057,1,8,0:0:0:0:
256,192,199234,1,0,0:0:0:0:
256,192,199587,1,8,0:0:0:0:
256,192,199763,1,0,0:0:0:0:
256,192,200116,1,0,0:0:0:0:
256,192,200469,1,8,0:0:0:0:
256,192,200822,1,8,0:0:0:0:
256,192,201175,1,0,0:0:0:0:
256,192,201351,1,0,0:0:0:0:
256,192,201528,5,0,0:0:0:0:
256,192,201704,1,0,0:0:0:0:
256,192,201881,1,8,0:0:0:0:
256,192,202234,1,8,0:0:0:0:
256,192,202410,1,8,0:0:0:0:
256,192,202587,1,8,0:0:0:0:
256,192,202763,1,0,0:0:0:0:
256,192,202940,1,0,0:0:0:0:
256,192,203116,1,0,0:0:0:0:
256,192,203293,1,8,0:0:0:0:
256,192,203646,1,8,0:0:0:0:
256,192,203998,1,8,0:0:0:0:
256,192,204175,1,0,0:0:0:0:
256,192,204351,1,8,0:0:0:0:
256,192,204528,1,0,0:0:0:0:
256,192,204704,1,8,0:0:0:0:
256,192,204881,1,0,0:0:0:0:
256,192,205234,1,0,0:0:0:0:
256,192,205587,1,8,0:0:0:0:
256,192,205763,1,8,0:0:0:0:
256,192,206116,1,8,0:0:0:0:
256,192,206293,1,0,0:0:0:0:
256,192,206469,1,8,0:0:0:0:
256,192,206822,1,8,0:0:0:0:
256,192,206998,1,8,0:0:0:0:
256,192,207175,1,8,0:0:0:0:
256,192,207351,1,8,0:0:0:0:
256,192,207528,1,0,0:0:0:0:
256,192,207881,1,8,0:0:0:0:
256,192,208234,1,0,0:0:0:0:
256,192,208410,1,0,0:0:0:0:
256,192,208587,1,0,0:0:0:0:
256,192,208763,1,0,0:0:0:0:
256,192,208940,1,8,0:0:0:0:
256,192,209116,1,0,0:0:0:0:
256,192,209469,1,0,0:0:0:0:
256,192,209822,1,0,0:0:0:0:
256,192,209998,1,8,0:0:0:0:
256,192,210175,1,0,0:0:0:0:
256,192,210351,1,8,0:0:0:0:
256,192,210528,1,0,0:0:0:0:
256,192,210881,1,0,0:0:0:0:
256,192,211234,1,8,0:0:0:0:
256,192,211410,1,8,0:0:0:0:
256,192,211763,1,0,0:0:0:0:
256,192,211940,1,8,0:0:0:0:
256,192,212116,1,0,0:0:0:0:
256,192,212469,1,0,0:0:0:0:
256,192,212646,1,0,0:0:0:0:
256,192,212822,1,0,0:0:0:0:
256,192,212998,1,0,0:0:0:0:
256,192,213175,1,8,0:0:0:0:
256,192,213528,1,8,0:0:0:0:
256,192,213704,1,0,0:0:0:0:
256,192,213881,1,8,0:0:0:0:
256,192,214057,1,0,0:0:0:0:
256,192,214234,1,0,0:0:0:0:
256,192,214410,1,0,0:0:0:0:
256,192,214587,1,8,0:0:0:0:
256,192,214940,1,8,0:0:0:0:
256,192,215293,1,8,0:0:0:0:
256,192,215469,1,0,0:0:0:0:
256,192,215646,1,8,0:0:0:0:
256,192,215822,1,0,0:0:0:0:
256,192,215998,1,8,0:0:0:0:
256,192,216175,1,0,0:0:0:0:
256,192,216528,1,0,0:0:0:0:
256,192,216881,1,8,0:0:0:0:
256,192,217057,1,8,0:0:0:0:
256,192,217410,1,8,0:0:0:0:
256,192,217587,1,0,0:0:0:0:
256,192,217763,1,8,0:0:0:0:
256,192,218116,1,8,0:0:0:0:
256,192,218293,1,8,0:0:0:0:
256,192,218469,1,8,0:0:0:0:
256,192,218646,1,8,0:0:0:0:
256,192,218822,1,0,0:0:0:0:
256,192,219175,1,8,0:0:0:0:
256,192,219528,1,0,0:0:0:0:
256,192,219704,1,0,0:0:0:0:
256,192,220057,1,0,0:0:0:0:
256,192,220234,1,8,0:0:0:0:
256,192,220410,1,0,0:0:0:0:
256,192,220763,1,0,0:0:0:0:
256,192,221116,1,0,0:0:0:0:
256,192,221293,1,8,0:0:0:0:
256,192,221469,1,0,0:0:0:0:
256,192,221646,1,8,0:0:0:0:
256,192,222175,1,8,0:0:0:0:
256,192,222351,1,8,0:0:0:0:
256,192,222704,1,0,0:0:0:0:
256,192,223057,1,0,0:0:0:0:
256,192,223234,1,0,0:0:0:0:
256,192,223410,1,8,0:0:0:0:
256,192,223763,1,0,0:0:0:0:
256,192,223940,1,0,0:0:0:0:
256,192,224116,5,8,0:0:0:0:
256,192,224293,1,0,0:0:0:0:
256,192,224469,1,0,0:0:0:0:
256,192,224646,1,0,0:0:0:0:
256,192,224822,1,8,0:0:0:0:
256,192,224998,1,0,0:0:0:0:
256,192,225175,1,8,0:0:0:0:
256,192,225528,1,12,0:0:0:0:
256,192,225881,1,0,0:0:0:0:
256,192,226057,1,0,0:0:0:0:
256,192,226234,1,12,0:0:0:0:
256,192,226587,1,0,0:0:0:0:
256,192,226940,1,12,0:0:0:0:
256,192,227293,1,0,0:0:0:0:
256,192,227469,1,0,0:0:0:0:
256,192,227646,1,12,0:0:0:0:
256,192,227998,1,0,0:0:0:0:
256,192,228351,1,12,0:0:0:0:
256,192,228704,1,0,0:0:0:0:
256,192,228881,1,0,0:0:0:0:
256,192,229057,1,12,0:0:0:0:
256,192,229410,1,0,0:0:0:0:
256,192,229587,1,0,0:0:0:0:
256,192,229763,1,12,0:0:0:0:
256,192,229940,1,0,0:0:0:0:
256,192,230116,1,12,0:0:0:0:
256,192,230469,1,12,0:0:0:0:
256,192,230822,1,0,0:0:0:0:
256,192,231175,1,12,0:0:0:0:
256,192,231528,1,0,0:0:0:0:
256,192,231704,1,0,0:0:0:0:
256,192,231881,1,12,0:0:0:0:
256,192,232234,1,0,0:0:0:0:
256,192,232587,1,12,0:0:0:0:
256,192,232940,1,0,0:0:0:0:
256,192,233116,1,0,0:0:0:0:
256,192,233293,1,12,0:0:0:0:
256,192,233646,1,0,0:0:0:0:
256,192,233998,1,12,0:0:0:0:
256,192,234351,1,0,0:0:0:0:
256,192,234528,1,0,0:0:0:0:
256,192,234704,1,12,0:0:0:0:
256,192,235057,1,0,0:0:0:0:
256,192,235234,1,0,0:0:0:0:
256,192,235410,1,12,0:0:0:0:
256,192,235587,1,0,0:0:0:0:
256,192,235763,1,12,0:0:0:0:
256,192,235940,1,0,0:0:0:0:
256,192,236116,1,12,0:0:0:0:
256,192,236469,1,0,0:0:0:0:
256,192,236822,1,4,0:0:0:0:
256,192,237175,1,0,0:0:0:0:
256,192,237528,1,4,0:0:0:0:
256,192,237881,1,0,0:0:0:0:
256,192,238057,1,0,0:0:0:0:
256,192,238234,1,12,0:0:0:0:
256,192,238410,1,0,0:0:0:0:
256,192,238587,1,12,0:0:0:0:
256,192,238940,1,12,0:0:0:0:
256,192,239293,1,0,0:0:0:0:
256,192,239646,1,4,0:0:0:0:
256,192,239998,1,0,0:0:0:0:
256,192,240351,1,4,0:0:0:0:
256,192,240704,1,8,0:0:0:0:
256,192,241057,1,12,0:0:0:0:
256,192,241410,1,8,0:0:0:0:
256,192,241763,1,12,0:0:0:0:
256,192,242116,1,8,0:0:0:0:
256,192,242822,1,8,0:0:0:0:
256,192,243175,1,8,0:0:0:0:
256,192,243351,1,8,0:0:0:0:
256,192,243528,1,4,0:0:0:0:
256,192,244234,1,4,0:0:0:0:
256,192,244410,1,12,0:0:0:0:
256,192,244763,1,12,0:0:0:0:
256,192,244940,1,4,0:0:0:0:
256,192,245116,12,0,247410,0:0:0:0:
256,192,247763,5,0,0:0:0:0:
256,192,248116,1,0,0:0:0:0:
256,192,248469,1,8,0:0:0:0:
256,192,248822,1,0,0:0:0:0:
256,192,248998,1,0,0:0:0:0:
256,192,249174,1,8,0:0:0:0:
256,192,249527,1,0,0:0:0:0:
256,192,249880,1,8,0:0:0:0:
256,192,250233,1,0,0:0:0:0:
256,192,250410,1,8,0:0:0:0:
256,192,250586,1,0,0:0:0:0:
256,192,250939,1,8,0:0:0:0:
256,192,251292,1,0,0:0:0:0:
256,192,251645,1,8,0:0:0:0:
256,192,251998,1,0,0:0:0:0:
256,192,252175,1,8,0:0:0:0:
256,192,252351,1,0,0:0:0:0:
256,192,252528,1,8,0:0:0:0:
256,192,252704,1,0,0:0:0:0:
256,192,253410,1,12,0:0:0:0:
256,192,253763,1,0,0:0:0:0:
256,192,254116,1,8,0:0:0:0:
256,192,254292,1,8,0:0:0:0:
256,192,254469,1,0,0:0:0:0:
256,192,254822,1,8,0:0:0:0:
256,192,255174,1,0,0:0:0:0:
256,192,255527,1,8,0:0:0:0:
256,192,255704,1,8,0:0:0:0:
256,192,255880,1,0,0:0:0:0:
256,192,256233,1,8,0:0:0:0:
256,192,256763,1,0,0:0:0:0:
256,192,256939,1,8,0:0:0:0:
256,192,257292,1,8,0:0:0:0:
256,192,257645,1,8,0:0:0:0:
256,192,257998,1,0,0:0:0:0:
256,192,258351,1,8,0:0:0:0:
256,192,258704,1,8,0:0:0:0:
256,192,258880,1,8,0:0:0:0:
256,192,259057,1,0,0:0:0:0:
256,192,259410,1,0,0:0:0:0:
256,192,259763,1,0,0:0:0:0:
256,192,259939,1,0,0:0:0:0:
256,192,260116,1,8,0:0:0:0:
256,192,260469,1,0,0:0:0:0:
256,192,260822,1,0,0:0:0:0:
256,192,261174,1,0,0:0:0:0:
256,192,261351,1,0,0:0:0:0:
256,192,261527,1,8,0:0:0:0:
256,192,261880,1,0,0:0:0:0:
256,192,262233,1,0,0:0:0:0:
256,192,262586,1,8,0:0:0:0:
256,192,262939,1,8,0:0:0:0:
256,192,263292,1,0,0:0:0:0:
256,192,263469,1,8,0:0:0:0:
256,192,263645,1,0,0:0:0:0:
256,192,263822,1,8,0:0:0:0:
256,192,263998,1,0,0:0:0:0:
256,192,264704,1,0,0:0:0:0:
256,192,265057,1,0,0:0:0:0:
256,192,265410,1,0,0:0:0:0:
256,192,265586,1,0,0:0:0:0:
256,192,265763,1,8,0:0:0:0:
256,192,265939,1,8,0:0:0:0:
256,192,266116,1,0,0:0:0:0:
256,192,266469,1,0,0:0:0:0:
256,192,266822,1,8,0:0:0:0:
256,192,266998,1,0,0:0:0:0:
256,192,267174,1,8,0:0:0:0:
256,192,267351,1,0,0:0:0:0:
256,192,267527,1,8,0:0:0:0:
256,192,267880,1,8,0:0:0:0:
256,192,268233,1,8,0:0:0:0:
256,192,268410,1,0,0:0:0:0:
256,192,268586,1,8,0:0:0:0:
256,192,268939,1,8,0:0:0:0:
256,192,269292,1,8,0:0:0:0:
256,192,269645,1,12,0:0:0:0:
256,192,269822,1,12,0:0:0:0:
256,192,269998,1,12,0:0:0:0:
256,192,270351,1,8,0:0:0:0:
256,192,270527,1,0,0:0:0:0:
256,192,270704,1,8,0:0:0:0:
256,192,271057,1,8,0:0:0:0:
256,192,271410,1,0,0:0:0:0:
256,192,271586,1,8,0:0:0:0:
256,192,271939,1,0,0:0:0:0:
256,192,272116,1,8,0:0:0:0:
256,192,272469,1,0,0:0:0:0:
256,192,272645,1,0,0:0:0:0:
256,192,272822,1,8,0:0:0:0:
256,192,273174,1,8,0:0:0:0:
256,192,273880,1,8,0:0:0:0:
256,192,274233,1,0,0:0:0:0:
256,192,274410,1,8,0:0:0:0:
256,192,274763,1,0,0:0:0:0:
256,192,274939,1,8,0:0:0:0:
256,192,275116,1,0,0:0:0:0:
256,192,275292,1,0,0:0:0:0:
256,192,275645,1,0,0:0:0:0:
256,192,275998,1,0,0:0:0:0:
256,192,276174,1,0,0:0:0:0:
256,192,276351,1,0,0:0:0:0:
256,192,276527,1,0,0:0:0:0:
256,192,276704,1,8,0:0:0:0:
256,192,277057,1,0,0:0:0:0:
256,192,277233,1,8,0:0:0:0:
256,192,277586,1,0,0:0:0:0:
256,192,277763,1,8,0:0:0:0:
256,192,278116,1,0,0:0:0:0:
256,192,278292,1,0,0:0:0:0:
256,192,278469,1,8,0:0:0:0:
256,192,278822,1,4,0:0:0:0:
256,192,279351,1,0,0:0:0:0:
256,192,279527,1,8,0:0:0:0:
256,192,279704,1,8,0:0:0:0:
256,192,279880,1,8,0:0:0:0:
256,192,280057,1,0,0:0:0:0:
256,192,280233,1,8,0:0:0:0:
256,192,280586,1,8,0:0:0:0:
256,192,280763,1,0,0:0:0:0:
256,192,280939,1,8,0:0:0:0:
256,192,281292,1,8,0:0:0:0:
256,192,281469,1,8,0:0:0:0:
256,192,281645,1,0,0:0:0:0:
256,192,281998,1,8,0:0:0:0:
256,192,282351,1,8,0:0:0:0:
256,192,282704,1,0,0:0:0:0:
256,192,282880,1,8,0:0:0:0:
256,192,283233,1,0,0:0:0:0:
256,192,283410,1,8,0:0:0:0:
256,192,283763,1,0,0:0:0:0:
256,192,283939,1,0,0:0:0:0:
256,192,284116,1,8,0:0:0:0:
256,192,284469,1,0,0:0:0:0:
256,192,285174,1,8,0:0:0:0:
256,192,285527,1,0,0:0:0:0:
256,192,285704,1,8,0:0:0:0:
256,192,285880,1,0,0:0:0:0:
256,192,286057,1,0,0:0:0:0:
256,192,286233,1,8,0:0:0:0:
256,192,286586,1,8,0:0:0:0:
256,192,287292,1,8,0:0:0:0:
256,192,287645,1,8,0:0:0:0:
256,192,287998,1,8,0:0:0:0:
256,192,288351,1,0,0:0:0:0:
256,192,288527,1,8,0:0:0:0:
256,192,288704,1,0,0:0:0:0:
256,192,288880,1,0,0:0:0:0:
256,192,289057,1,8,0:0:0:0:
256,192,289410,1,8,0:0:0:0:
256,192,289586,1,0,0:0:0:0:
256,192,289763,1,8,0:0:0:0:
256,192,290116,1,0,0:0:0:0:
256,192,290822,1,8,0:0:0:0:
256,192,291174,1,8,0:0:0:0:
256,192,291351,1,8,0:0:0:0:
256,192,291527,1,8,0:0:0:0:
256,192,291880,1,8,0:0:0:0:
256,192,292057,1,0,0:0:0:0:
256,192,292233,1,8,0:0:0:0:
256,192,292586,1,8,0:0:0:0:
256,192,292763,1,8,0:0:0:0:
256,192,292939,1,0,0:0:0:0:
256,192,293292,1,8,0:0:0:0:
256,192,293645,1,8,0:0:0:0:
256,192,293822,1,0,0:0:0:0:
256,192,293998,1,8,0:0:0:0:
256,192,294174,1,8,0:0:0:0:
256,192,294351,1,8,0:0:0:0:
256,192,294704,1,8,0:0:0:0:
256,192,295057,1,8,0:0:0:0:
256,192,295233,1,0,0:0:0:0:
256,192,295410,1,0,0:0:0:0:
256,192,295763,1,8,0:0:0:0:
256,192,296116,1,8,0:0:0:0:
256,192,296292,1,0,0:0:0:0:
256,192,296469,1,8,0:0:0:0:
256,192,296822,1,0,0:0:0:0:
256,192,297174,1,8,0:0:0:0:
256,192,297351,1,0,0:0:0:0:
256,192,297527,1,8,0:0:0:0:
256,192,297880,1,0,0:0:0:0:
256,192,298586,1,8,0:0:0:0:
256,192,298763,1,0,0:0:0:0:
256,192,299116,1,0,0:0:0:0:
256,192,299292,1,8,0:0:0:0:
256,192,299645,1,8,0:0:0:0:
256,192,299822,1,8,0:0:0:0:
256,192,299998,1,8,0:0:0:0:
256,192,300351,1,0,0:0:0:0:
256,192,300704,1,8,0:0:0:0:
256,192,301057,1,8,0:0:0:0:
256,192,301410,1,0,0:0:0:0:
256,192,302116,1,0,0:0:0:0:
256,192,302822,1,8,0:0:0:0:
256,192,303174,1,8,0:0:0:0:
256,192,303351,1,0,0:0:0:0:
256,192,303527,1,8,0:0:0:0:
256,192,303880,1,8,0:0:0:0:
256,192,304233,1,0,0:0:0:0:
256,192,304586,1,0,0:0:0:0:
256,192,304763,1,0,0:0:0:0:
256,192,304939,1,8,0:0:0:0:
256,192,305292,1,0,0:0:0:0:
256,192,305645,1,8,0:0:0:0:
256,192,305822,1,0,0:0:0:0:
256,192,305998,1,8,0:0:0:0:
256,192,306174,1,0,0:0:0:0:
256,192,306351,1,8,0:0:0:0:
256,192,306704,1,8,0:0:0:0:
256,192,307057,1,0,0:0:0:0:
256,192,307233,1,0,0:0:0:0:
256,192,307410,1,8,0:0:0:0:
256,192,307763,1,8,0:0:0:0:
256,192,307939,1,8,0:0:0:0:
256,192,308116,1,8,0:0:0:0:
256,192,308469,1,0,0:0:0:0:
256,192,308822,1,0,0:0:0:0:
256,192,309174,1,0,0:0:0:0:
256,192,309880,1,0,0:0:0:0:
256,192,310233,1,0,0:0:0:0:
256,192,310410,1,0,0:0:0:0:
256,192,310586,1,8,0:0:0:0:
256,192,310939,1,8,0:0:0:0:
256,192,311116,1,0,0:0:0:0:
256,192,311292,1,8,0:0:0:0:
256,192,311645,1,8,0:0:0:0:
256,192,311998,1,8,0:0:0:0:
256,192,312351,1,0,0:0:0:0:
256,192,312704,1,8,0:0:0:0:
256,192,313410,1,8,0:0:0:0:
256,192,313763,1,8,0:0:0:0:
256,192,313939,1,0,0:0:0:0:
256,192,314116,1,8,0:0:0:0:
256,192,314469,1,8,0:0:0:0:
256,192,314822,1,8,0:0:0:0:
256,192,314998,1,0,0:0:0:0:
256,192,315174,1,0,0:0:0:0:
256,192,315351,1,0,0:0:0:0:
256,192,315527,1,0,0:0:0:0:
