osu file format v14

[General]
AudioFilename: audio.mp3
AudioLeadIn: 0
PreviewTime: 182117
Countdown: 1
SampleSet: Normal
StackLeniency: 0.7
Mode: 1
LetterboxInBreaks: 0
WidescreenStoryboard: 0

[Editor]
Bookmarks: 22588,45176,69176,93176,115764,160941,183529,207529,230117,252705,275294,297882,320470,343058
DistanceSpacing: 1
BeatDivisor: 4
GridSize: 32
TimelineZoom: 3.099999

[Metadata]
Title:Pure Furies ~ Whereabouts of the Heart RMX
TitleUnicode:Pure Furies ~ Whereabouts of the Heart RMX
Artist:MAMA PURITY
ArtistUnicode:MAMA PURITY
Creator:eterpay
Version:Inner Oni
Source:東方Project
Tags:junko touhou legacy of lunatic kingdom lolk
BeatmapID:1361846
BeatmapSetID:642370

[Difficulty]
HPDrainRate:6
CircleSize:2
OverallDifficulty:6
ApproachRate:0
SliderMultiplier:1.40383942893565
SliderTickRate:1

[Events]
//Background and Video events
0,0,"Bg Pure Furies RMX Cropped.jpg",0,0
//Break Periods
//Storyboard Layer 0 (Background)
//Storyboard Layer 1 (Fail)
//Storyboard Layer 2 (Pass)
//Storyboard Layer 3 (Foreground)
//Storyboard Sound Samples

[TimingPoints]
0,352.941176470588,4,1,0,100,1,0
22588,-66.6666666666667,4,1,0,100,0,0
23470,-80,4,1,0,100,0,0
24529,-100,4,1,0,100,0,0
25411,-66.6666666666667,4,1,0,100,0,0
26294,-80,4,1,0,100,0,0
27352,-100,4,1,0,100,0,0
28235,-66.6666666666667,4,1,0,100,0,0
29117,-80,4,1,0,100,0,0
30176,-100,4,1,0,100,0,0
31058,-66.6666666666667,4,1,0,100,0,0
31941,-80,4,1,0,100,0,0
32999,-100,4,1,0,100,0,0
33882,-66.6666666666667,4,1,0,100,0,0
35647,-100,4,1,0,100,0,0
36705,-66.6666666666667,4,1,0,100,0,0
38470,-100,4,1,0,100,0,0
39529,-100,4,1,0,100,0,0
40235,-90.9090909090909,4,1,0,100,0,0
40941,-83.3333333333333,4,1,0,100,0,0
41647,-76.9230769230769,4,1,0,100,0,0
42352,-71.4285714285714,4,1,0,100,0,0
42705,-68.9655172413793,4,1,0,100,0,0
43058,-66.6666666666667,4,1,0,100,0,0
43411,-64.5161290322581,4,1,0,100,0,0
43764,-62.5,4,1,0,100,0,0
43852,-64.1025641025641,4,1,0,100,0,0
43941,-65.7894736842105,4,1,0,100,0,0
44029,-67.5675675675676,4,1,0,100,0,0
44117,-69.4444444444444,4,1,0,100,0,0
44205,-71.4285714285714,4,1,0,100,0,0
44294,-73.5294117647059,4,1,0,100,0,0
44382,-75.7575757575758,4,1,0,100,0,0
44470,-78.125,4,1,0,100,0,0
44558,-80.6451612903226,4,1,0,100,0,0
44647,-83.3333333333333,4,1,0,100,0,0
44735,-86.2068965517241,4,1,0,100,0,0
44823,-89.2857142857143,4,1,0,100,0,0
44911,-92.5925925925926,4,1,0,100,0,0
44999,-96.1538461538461,4,1,0,100,0,0
45088,-100,4,1,0,100,0,0
45176,-100,4,1,0,100,0,0
50999,-71.4285714285714,4,1,0,100,0,0
51176,-100,4,1,0,100,0,0
52411,-71.4285714285714,4,1,0,100,0,0
52588,-100,4,1,0,100,0,0
53823,-71.4285714285714,4,1,0,100,0,0
53999,-100,4,1,0,100,0,0
55235,-71.4285714285714,4,1,0,100,0,0
55411,-100,4,1,0,100,0,0
56647,-71.4285714285714,4,1,0,100,0,0
56823,-100,4,1,0,100,0,0
58058,-71.4285714285714,4,1,0,100,0,0
58235,-100,4,1,0,100,0,0
59470,-71.4285714285714,4,1,0,100,0,0
59647,-100,4,1,0,100,0,0
60882,-71.4285714285714,4,1,0,100,0,0
61058,-100,4,1,0,100,0,0
62294,-71.4285714285714,4,1,0,100,0,0
62470,-100,4,1,0,100,0,0
63705,-71.4285714285714,4,1,0,100,0,0
63882,-100,4,1,0,100,0,0
69176,-58.8235294117647,4,1,0,100,0,0
69882,-100,4,1,0,100,0,0
70588,-58.8235294117647,4,1,0,100,0,0
71294,-100,4,1,0,100,0,0
71999,-58.8235294117647,4,1,0,100,0,0
72705,-100,4,1,0,100,0,0
73411,-58.8235294117647,4,1,0,100,0,0
74117,-100,4,1,0,100,0,0
74823,-58.8235294117647,4,1,0,100,0,0
75529,-100,4,1,0,100,0,0
76235,-58.8235294117647,4,1,0,100,0,0
76941,-100,4,1,0,100,0,0
77647,-58.8235294117647,4,1,0,100,0,0
78352,-100,4,1,0,100,0,0
79058,-58.8235294117647,4,1,0,100,0,0
79764,-100,4,1,0,100,0,0
93176,-83.3333333333333,4,1,0,100,0,0
93882,-71.4285714285714,4,1,0,100,0,0
94588,-62.5,4,1,0,100,0,0
95294,-68.9655172413793,4,1,0,100,0,0
95558,-76.9230769230769,4,1,0,100,0,0
95823,-86.9565217391304,4,1,0,100,0,0
95999,-100,4,1,0,100,0,0
98823,-83.3333333333333,4,1,0,100,0,0
99529,-71.4285714285714,4,1,0,100,0,0
100235,-62.5,4,1,0,100,0,0
100941,-68.9655172413793,4,1,0,100,0,0
101205,-76.9230769230769,4,1,0,100,0,0
101470,-86.9565217391304,4,1,0,100,0,0
101647,-100,4,1,0,100,0,0
104470,-83.3333333333333,4,1,0,100,0,0
105176,-71.4285714285714,4,1,0,100,0,0
105882,-62.5,4,1,0,100,0,0
106588,-68.9655172413793,4,1,0,100,0,0
106852,-76.9230769230769,4,1,0,100,0,0
107117,-86.9565217391304,4,1,0,100,0,0
107294,-100,4,1,0,100,0,0
110117,-83.3333333333333,4,1,0,100,0,0
110823,-71.4285714285714,4,1,0,100,0,0
111529,-62.5,4,1,0,100,0,0
112235,-68.9655172413793,4,1,0,100,0,0
112499,-76.9230769230769,4,1,0,100,0,0
112764,-86.9565217391304,4,1,0,100,0,0
112941,-100,4,1,0,100,0,0
115765,-83.3333333333333,4,1,0,100,0,0
160941,-200,4,1,0,100,0,0
172235,-133.333333333333,4,1,0,100,0,0
182823,-133.333333333333,4,1,0,100,0,0
182911,-125,4,1,0,100,0,0
182999,-117.647058823529,4,1,0,100,0,0
183088,-111.111111111111,4,1,0,100,0,0
183176,-105.263157894737,4,1,0,100,0,0
183264,-100,4,1,0,100,0,0
183352,-95.2380952380952,4,1,0,100,0,0
183441,-90.9090909090909,4,1,0,100,0,0
183529,-83.3333333333333,4,1,0,100,0,1
207529,-133.333333333333,4,1,0,100,0,0
230117,-111.111111111111,4,1,0,100,0,0
252705,-100,4,1,0,100,0,0
275294,-100,4,1,0,100,0,1
285176,-100,4,1,0,100,0,0
286588,-100,4,1,0,100,0,1
297882,-100,4,1,0,100,0,0
320470,-100,4,1,0,100,0,0
343058,-100,4,1,0,100,0,1
365647,-100,4,1,0,100,0,0

[HitObjects]
256,192,22588,5,12,0:0:0:0:
256,192,22764,1,0,0:0:0:0:
256,192,22941,1,8,0:0:0:0:
256,192,23117,1,0,0:0:0:0:
256,192,23470,1,8,0:0:0:0:
256,192,23646,1,0,0:0:0:0:
256,192,23823,1,8,0:0:0:0:
256,192,23999,1,0,0:0:0:0:
256,192,24529,1,8,0:0:0:0:
256,192,24705,1,0,0:0:0:0:
256,192,24882,1,8,0:0:0:0:
256,192,25058,1,0,0:0:0:0:
256,192,25411,1,8,0:0:0:0:
256,192,25587,1,0,0:0:0:0:
256,192,25764,1,8,0:0:0:0:
256,192,25940,1,0,0:0:0:0:
256,192,26294,1,8,0:0:0:0:
256,192,26470,1,0,0:0:0:0:
256,192,26647,1,8,0:0:0:0:
256,192,26823,1,0,0:0:0:0:
256,192,27352,1,8,0:0:0:0:
256,192,27528,1,0,0:0:0:0:
256,192,27705,1,8,0:0:0:0:
256,192,27881,1,0,0:0:0:0:
256,192,28235,1,8,0:0:0:0:
256,192,28411,1,0,0:0:0:0:
256,192,28588,1,8,0:0:0:0:
256,192,28764,1,0,0:0:0:0:
256,192,29117,1,8,0:0:0:0:
256,192,29293,1,0,0:0:0:0:
256,192,29470,1,8,0:0:0:0:
256,192,29646,1,0,0:0:0:0:
256,192,30176,1,8,0:0:0:0:
256,192,30352,1,0,0:0:0:0:
256,192,30529,1,8,0:0:0:0:
256,192,30705,1,0,0:0:0:0:
256,192,31058,1,8,0:0:0:0:
256,192,31234,1,0,0:0:0:0:
256,192,31411,1,8,0:0:0:0:
256,192,31587,1,0,0:0:0:0:
256,192,31941,1,8,0:0:0:0:
256,192,32117,1,0,0:0:0:0:
256,192,32294,1,8,0:0:0:0:
256,192,32470,1,0,0:0:0:0:
256,192,32999,1,8,0:0:0:0:
256,192,33175,1,0,0:0:0:0:
256,192,33352,1,8,0:0:0:0:
256,192,33528,1,0,0:0:0:0:
256,192,33882,1,12,0:0:0:0:
256,192,34058,1,0,0:0:0:0:
256,192,34235,1,8,0:0:0:0:
256,192,34411,1,0,0:0:0:0:
256,192,34588,1,0,0:0:0:0:
256,192,34764,1,8,0:0:0:0:
256,192,34941,1,0,0:0:0:0:
256,192,35117,1,8,0:0:0:0:
256,192,35294,1,0,0:0:0:0:
256,192,35647,1,0,0:0:0:0:
256,192,35823,1,8,0:0:0:0:
256,192,35999,1,0,0:0:0:0:
256,192,36176,1,8,0:0:0:0:
256,192,36352,1,0,0:0:0:0:
256,192,36705,1,12,0:0:0:0:
256,192,36881,1,0,0:0:0:0:
256,192,37058,1,8,0:0:0:0:
256,192,37234,1,0,0:0:0:0:
256,192,37411,1,0,0:0:0:0:
256,192,37587,1,8,0:0:0:0:
256,192,37764,1,0,0:0:0:0:
256,192,37940,1,8,0:0:0:0:
256,192,38117,1,0,0:0:0:0:
256,192,38470,1,0,0:0:0:0:
256,192,38646,1,8,0:0:0:0:
256,192,38822,1,0,0:0:0:0:
256,192,38999,1,8,0:0:0:0:
256,192,39175,1,0,0:0:0:0:
256,192,39529,1,12,0:0:0:0:
256,192,39705,1,0,0:0:0:0:
256,192,39882,1,8,0:0:0:0:
256,192,40058,1,0,0:0:0:0:
256,192,40235,1,4,0:0:0:0:
256,192,40411,1,8,0:0:0:0:
256,192,40588,1,0,0:0:0:0:
256,192,40764,1,8,0:0:0:0:
256,192,40941,1,4,0:0:0:0:
256,192,41117,1,0,0:0:0:0:
256,192,41294,1,0,0:0:0:0:
256,192,41470,1,8,0:0:0:0:
256,192,41646,1,0,0:0:0:0:
256,192,41823,1,8,0:0:0:0:
256,192,41999,1,0,0:0:0:0:
256,192,42176,1,0,0:0:0:0:
256,192,42352,1,12,0:0:0:0:
256,192,42528,1,0,0:0:0:0:
256,192,42705,1,12,0:0:0:0:
256,192,42881,1,0,0:0:0:0:
256,192,43058,1,12,0:0:0:0:
256,192,43234,1,0,0:0:0:0:
256,192,43411,1,12,0:0:0:0:
256,192,43588,1,0,0:0:0:0:
256,192,43764,1,4,0:0:0:0:
256,192,43941,1,0,0:0:0:0:
256,192,44117,1,8,0:0:0:0:
256,192,44293,1,8,0:0:0:0:
256,192,44469,1,0,0:0:0:0:
256,192,44558,1,0,0:0:0:0:
256,192,44646,1,8,0:0:0:0:
256,192,44735,1,8,0:0:0:0:
256,192,44823,1,0,0:0:0:0:
256,192,44911,1,0,0:0:0:0:
256,192,44999,1,8,0:0:0:0:
256,192,45088,1,8,0:0:0:0:
256,192,45176,1,0,0:0:0:0:
256,192,45264,1,0,0:0:0:0:
256,192,45352,1,8,0:0:0:0:
256,192,45441,1,0,0:0:0:0:
256,192,45617,1,0,0:0:0:0:
256,192,45705,1,8,0:0:0:0:
256,192,45794,1,0,0:0:0:0:
256,192,45882,1,8,0:0:0:0:
256,192,45970,1,8,0:0:0:0:
256,192,46058,1,0,0:0:0:0:
256,192,46147,1,0,0:0:0:0:
256,192,46235,1,8,0:0:0:0:
256,192,46323,1,0,0:0:0:0:
256,192,46588,1,8,0:0:0:0:
256,192,46676,1,0,0:0:0:0:
256,192,46764,1,0,0:0:0:0:
256,192,46852,1,8,0:0:0:0:
256,192,46941,1,8,0:0:0:0:
256,192,47029,1,0,0:0:0:0:
256,192,47117,1,0,0:0:0:0:
256,192,47205,1,0,0:0:0:0:
256,192,47294,1,8,0:0:0:0:
256,192,47382,1,0,0:0:0:0:
256,192,47470,1,0,0:0:0:0:
256,192,47558,1,8,0:0:0:0:
256,192,47647,1,8,0:0:0:0:
256,192,47735,1,0,0:0:0:0:
256,192,47999,1,0,0:0:0:0:
256,192,48088,1,0,0:0:0:0:
256,192,48176,1,8,0:0:0:0:
256,192,48264,1,8,0:0:0:0:
256,192,48352,1,0,0:0:0:0:
256,192,48441,1,0,0:0:0:0:
256,192,48529,1,8,0:0:0:0:
256,192,48617,1,0,0:0:0:0:
256,192,48705,1,0,0:0:0:0:
256,192,48794,1,0,0:0:0:0:
256,192,48882,1,8,0:0:0:0:
256,192,48970,1,0,0:0:0:0:
256,192,49058,1,8,0:0:0:0:
256,192,49147,1,0,0:0:0:0:
256,192,49411,1,0,0:0:0:0:
256,192,49499,1,0,0:0:0:0:
256,192,49588,1,8,0:0:0:0:
256,192,49676,1,0,0:0:0:0:
256,192,49764,1,0,0:0:0:0:
256,192,49852,1,8,0:0:0:0:
256,192,49941,1,0,0:0:0:0:
256,192,50029,1,8,0:0:0:0:
256,192,50117,1,0,0:0:0:0:
256,192,50205,1,0,0:0:0:0:
256,192,50294,1,8,0:0:0:0:
256,192,50382,1,0,0:0:0:0:
256,192,50470,1,8,0:0:0:0:
256,192,50558,1,0,0:0:0:0:
256,192,50823,1,0,0:0:0:0:
256,192,50911,1,0,0:0:0:0:
256,192,50999,1,12,0:0:0:0:
256,192,51176,1,0,0:0:0:0:
256,192,51264,1,8,0:0:0:0:
256,192,51352,1,0,0:0:0:0:
256,192,51441,1,8,0:0:0:0:
256,192,51529,1,8,0:0:0:0:
256,192,51617,1,0,0:0:0:0:
256,192,51705,1,0,0:0:0:0:
256,192,51794,1,0,0:0:0:0:
256,192,51882,1,8,0:0:0:0:
256,192,51970,1,0,0:0:0:0:
256,192,52235,1,0,0:0:0:0:
256,192,52411,1,12,0:0:0:0:
256,192,52588,1,8,0:0:0:0:
256,192,52676,1,8,0:0:0:0:
256,192,52764,1,0,0:0:0:0:
256,192,52852,1,0,0:0:0:0:
256,192,52941,1,8,0:0:0:0:
256,192,53029,1,0,0:0:0:0:
256,192,53117,1,0,0:0:0:0:
256,192,53205,1,0,0:0:0:0:
256,192,53294,1,8,0:0:0:0:
256,192,53382,1,0,0:0:0:0:
256,192,53647,1,0,0:0:0:0:
256,192,53735,1,0,0:0:0:0:
256,192,53823,1,12,0:0:0:0:
256,192,53999,1,0,0:0:0:0:
256,192,54088,1,0,0:0:0:0:
256,192,54176,1,0,0:0:0:0:
256,192,54264,1,0,0:0:0:0:
256,192,54352,1,8,0:0:0:0:
256,192,54441,1,0,0:0:0:0:
256,192,54529,1,0,0:0:0:0:
256,192,54617,1,0,0:0:0:0:
256,192,54705,1,8,0:0:0:0:
256,192,54794,1,0,0:0:0:0:
256,192,55058,1,0,0:0:0:0:
256,192,55235,1,12,0:0:0:0:
256,192,55411,1,8,0:0:0:0:
256,192,55499,1,8,0:0:0:0:
256,192,55588,1,8,0:0:0:0:
256,192,55676,1,0,0:0:0:0:
256,192,55764,1,8,0:0:0:0:
256,192,55852,1,8,0:0:0:0:
256,192,55941,1,0,0:0:0:0:
256,192,56029,1,0,0:0:0:0:
256,192,56117,1,8,0:0:0:0:
256,192,56205,1,0,0:0:0:0:
256,192,56470,1,0,0:0:0:0:
256,192,56558,1,0,0:0:0:0:
256,192,56647,1,12,0:0:0:0:
256,192,56823,1,0,0:0:0:0:
256,192,56911,1,0,0:0:0:0:
256,192,56999,1,8,0:0:0:0:
256,192,57088,1,8,0:0:0:0:
256,192,57176,1,8,0:0:0:0:
256,192,57264,1,0,0:0:0:0:
256,192,57352,1,0,0:0:0:0:
256,192,57441,1,0,0:0:0:0:
256,192,57529,1,8,0:0:0:0:
256,192,57617,1,0,0:0:0:0:
256,192,57705,1,8,0:0:0:0:
256,192,57794,1,0,0:0:0:0:
256,192,57882,1,0,0:0:0:0:
256,192,57970,1,0,0:0:0:0:
256,192,58058,1,12,0:0:0:0:
256,192,58235,1,0,0:0:0:0:
256,192,58323,1,0,0:0:0:0:
256,192,58411,1,8,0:0:0:0:
256,192,58499,1,0,0:0:0:0:
256,192,58588,1,8,0:0:0:0:
256,192,58676,1,0,0:0:0:0:
256,192,58764,1,8,0:0:0:0:
256,192,58852,1,0,0:0:0:0:
256,192,58941,1,8,0:0:0:0:
256,192,59029,1,0,0:0:0:0:
256,192,59117,1,0,0:0:0:0:
256,192,59205,1,8,0:0:0:0:
256,192,59294,1,0,0:0:0:0:
256,192,59470,1,12,0:0:0:0:
256,192,59647,1,0,0:0:0:0:
256,192,59735,1,0,0:0:0:0:
256,192,59823,1,0,0:0:0:0:
256,192,59911,1,0,0:0:0:0:
256,192,59999,1,8,0:0:0:0:
256,192,60088,1,0,0:0:0:0:
256,192,60176,1,0,0:0:0:0:
256,192,60264,1,8,0:0:0:0:
256,192,60352,1,0,0:0:0:0:
256,192,60441,1,0,0:0:0:0:
256,192,60529,1,8,0:0:0:0:
256,192,60617,1,8,0:0:0:0:
256,192,60705,1,0,0:0:0:0:
256,192,60794,1,0,0:0:0:0:
256,192,60882,1,12,0:0:0:0:
256,192,61058,1,0,0:0:0:0:
256,192,61147,1,8,0:0:0:0:
256,192,61235,1,0,0:0:0:0:
256,192,61323,1,0,0:0:0:0:
256,192,61411,1,8,0:0:0:0:
256,192,61499,1,8,0:0:0:0:
256,192,61588,1,8,0:0:0:0:
256,192,61676,1,0,0:0:0:0:
256,192,61764,1,8,0:0:0:0:
256,192,61852,1,0,0:0:0:0:
256,192,61941,1,0,0:0:0:0:
256,192,62029,1,0,0:0:0:0:
256,192,62117,1,0,0:0:0:0:
256,192,62294,1,12,0:0:0:0:
256,192,62470,1,8,0:0:0:0:
256,192,62558,1,8,0:0:0:0:
256,192,62647,1,8,0:0:0:0:
256,192,62735,1,0,0:0:0:0:
256,192,62823,1,8,0:0:0:0:
256,192,62911,1,0,0:0:0:0:
256,192,62999,1,8,0:0:0:0:
256,192,63088,1,0,0:0:0:0:
256,192,63176,1,8,0:0:0:0:
256,192,63264,1,8,0:0:0:0:
256,192,63352,1,8,0:0:0:0:
256,192,63441,1,8,0:0:0:0:
256,192,63529,1,0,0:0:0:0:
256,192,63705,1,12,0:0:0:0:
256,192,63882,1,0,0:0:0:0:
256,192,63970,1,0,0:0:0:0:
256,192,64058,1,0,0:0:0:0:
256,192,64147,1,0,0:0:0:0:
256,192,64235,1,8,0:0:0:0:
256,192,64323,1,0,0:0:0:0:
256,192,64411,1,0,0:0:0:0:
256,192,64499,1,8,0:0:0:0:
256,192,64588,1,0,0:0:0:0:
256,192,64676,1,0,0:0:0:0:
256,192,64764,1,8,0:0:0:0:
256,192,64852,1,8,0:0:0:0:
256,192,64941,1,0,0:0:0:0:
256,192,65029,1,0,0:0:0:0:
256,192,65117,1,8,0:0:0:0:
256,192,65205,1,8,0:0:0:0:
256,192,65294,1,0,0:0:0:0:
256,192,65382,1,0,0:0:0:0:
256,192,65470,1,8,0:0:0:0:
256,192,65558,1,8,0:0:0:0:
256,192,65647,1,0,0:0:0:0:
256,192,65735,1,8,0:0:0:0:
256,192,65823,1,8,0:0:0:0:
256,192,65911,1,8,0:0:0:0:
256,192,65999,1,0,0:0:0:0:
256,192,66088,1,8,0:0:0:0:
256,192,66176,1,0,0:0:0:0:
256,192,66264,1,0,0:0:0:0:
256,192,66352,1,8,0:0:0:0:
256,192,66441,1,8,0:0:0:0:
256,192,66529,1,8,0:0:0:0:
256,192,66617,1,0,0:0:0:0:
256,192,66705,1,0,0:0:0:0:
256,192,66794,1,0,0:0:0:0:
256,192,66882,1,8,0:0:0:0:
256,192,66970,1,0,0:0:0:0:
256,192,67058,1,8,0:0:0:0:
256,192,67147,1,0,0:0:0:0:
256,192,67235,1,8,0:0:0:0:
256,192,67323,1,0,0:0:0:0:
256,192,67411,1,8,0:0:0:0:
256,192,67499,1,8,0:0:0:0:
256,192,67588,1,0,0:0:0:0:
256,192,67676,1,0,0:0:0:0:
256,192,67764,1,8,0:0:0:0:
256,192,67941,1,8,0:0:0:0:
256,192,68117,1,0,0:0:0:0:
256,192,68294,1,0,0:0:0:0:
256,192,68470,1,8,0:0:0:0:
256,192,68647,1,8,0:0:0:0:
256,192,68823,1,4,0:0:0:0:
256,192,68999,1,0,0:0:0:0:
256,192,69176,1,12,0:0:0:0:
256,192,70235,1,8,0:0:0:0:
256,192,70588,1,4,0:0:0:0:
256,192,71294,1,0,0:0:0:0:
256,192,71999,1,4,0:0:0:0:
256,192,72705,1,0,0:0:0:0:
256,192,73411,1,12,0:0:0:0:
256,192,74117,1,0,0:0:0:0:
256,192,74823,1,12,0:0:0:0:
256,192,75529,1,0,0:0:0:0:
256,192,76235,1,4,0:0:0:0:
256,192,76941,1,0,0:0:0:0:
256,192,77647,1,4,0:0:0:0:
256,192,78352,1,0,0:0:0:0:
256,192,79058,1,12,0:0:0:0:
256,192,79764,1,0,0:0:0:0:
256,192,80117,1,0,0:0:0:0:
256,192,80294,1,0,0:0:0:0:
256,192,80382,1,0,0:0:0:0:
256,192,80470,1,8,0:0:0:0:
256,192,80647,1,0,0:0:0:0:
256,192,80823,1,8,0:0:0:0:
256,192,80999,1,0,0:0:0:0:
256,192,81176,1,0,0:0:0:0:
256,192,81264,1,0,0:0:0:0:
256,192,81352,1,8,0:0:0:0:
256,192,81529,1,8,0:0:0:0:
256,192,81705,1,0,0:0:0:0:
256,192,81794,1,0,0:0:0:0:
256,192,81882,1,8,0:0:0:0:
256,192,82411,1,8,0:0:0:0:
256,192,82588,1,0,0:0:0:0:
256,192,82764,1,8,0:0:0:0:
256,192,82941,1,0,0:0:0:0:
256,192,83294,1,8,0:0:0:0:
256,192,83470,1,0,0:0:0:0:
256,192,83647,1,8,0:0:0:0:
256,192,83823,1,0,0:0:0:0:
256,192,83911,1,0,0:0:0:0:
256,192,83999,1,8,0:0:0:0:
256,192,84176,1,0,0:0:0:0:
256,192,84352,1,8,0:0:0:0:
256,192,84529,1,0,0:0:0:0:
256,192,84617,1,0,0:0:0:0:
256,192,84705,1,8,0:0:0:0:
256,192,85235,1,8,0:0:0:0:
256,192,85411,1,0,0:0:0:0:
256,192,85588,1,8,0:0:0:0:
256,192,85764,1,0,0:0:0:0:
256,192,85941,1,0,0:0:0:0:
256,192,86029,1,0,0:0:0:0:
256,192,86117,1,8,0:0:0:0:
256,192,86294,1,0,0:0:0:0:
256,192,86470,1,8,0:0:0:0:
256,192,86647,1,0,0:0:0:0:
256,192,86823,1,0,0:0:0:0:
256,192,86911,1,0,0:0:0:0:
256,192,86999,1,8,0:0:0:0:
256,192,87176,1,8,0:0:0:0:
256,192,87352,1,0,0:0:0:0:
256,192,87441,1,0,0:0:0:0:
256,192,87529,1,8,0:0:0:0:
256,192,88058,1,8,0:0:0:0:
256,192,88235,1,0,0:0:0:0:
256,192,88411,1,8,0:0:0:0:
256,192,88588,1,0,0:0:0:0:
256,192,88941,1,8,0:0:0:0:
256,192,89117,1,0,0:0:0:0:
256,192,89294,1,0,0:0:0:0:
256,192,89470,1,0,0:0:0:0:
256,192,89558,1,0,0:0:0:0:
256,192,89646,1,0,0:0:0:0:
256,192,89735,1,0,0:0:0:0:
256,192,89823,1,8,0:0:0:0:
256,192,89999,1,0,0:0:0:0:
256,192,90176,1,0,0:0:0:0:
256,192,90264,1,0,0:0:0:0:
256,192,90352,1,8,0:0:0:0:
256,192,90529,1,0,0:0:0:0:
256,192,90705,1,0,0:0:0:0:
256,192,90794,1,0,0:0:0:0:
256,192,90882,1,8,0:0:0:0:
256,192,90970,1,8,0:0:0:0:
256,192,91058,1,8,0:0:0:0:
256,192,91235,1,8,0:0:0:0:
256,192,91411,1,8,0:0:0:0:
256,192,91499,1,8,0:0:0:0:
256,192,91588,1,8,0:0:0:0:
256,192,91676,1,8,0:0:0:0:
256,192,91764,1,0,0:0:0:0:
256,192,91941,1,8,0:0:0:0:
256,192,92294,1,0,0:0:0:0:
256,192,92470,1,8,0:0:0:0:
256,192,92647,1,0,0:0:0:0:
256,192,92999,1,8,0:0:0:0:
256,192,93176,1,4,0:0:0:0:
256,192,93882,1,12,0:0:0:0:
256,192,94588,1,12,0:0:0:0:
256,192,95294,1,8,0:0:0:0:
256,192,95558,1,8,0:0:0:0:
256,192,95823,1,0,0:0:0:0:
256,192,95999,1,0,0:0:0:0:
256,192,96088,1,0,0:0:0:0:
256,192,96176,1,0,0:0:0:0:
256,192,96264,1,0,0:0:0:0:
256,192,96352,1,8,0:0:0:0:
256,192,96411,1,8,0:0:0:0:
256,192,96470,1,8,0:0:0:0:
256,192,96529,1,8,0:0:0:0:
256,192,96588,1,0,0:0:0:0:
256,192,96647,1,0,0:0:0:0:
256,192,96705,1,8,0:0:0:0:
256,192,97058,1,0,0:0:0:0:
256,192,97147,1,0,0:0:0:0:
256,192,97235,1,0,0:0:0:0:
256,192,97323,1,0,0:0:0:0:
256,192,97411,1,0,0:0:0:0:
256,192,97588,1,0,0:0:0:0:
256,192,97764,1,8,0:0:0:0:
256,192,97941,1,0,0:0:0:0:
256,192,98117,1,8,0:0:0:0:
256,192,98205,1,0,0:0:0:0:
256,192,98294,1,0,0:0:0:0:
256,192,98382,1,0,0:0:0:0:
256,192,98470,1,0,0:0:0:0:
256,192,98529,1,0,0:0:0:0:
256,192,98588,1,0,0:0:0:0:
256,192,98647,1,0,0:0:0:0:
256,192,98823,1,4,0:0:0:0:
256,192,99529,1,12,0:0:0:0:
256,192,100235,1,12,0:0:0:0:
256,192,100588,1,0,0:0:0:0:
256,192,100941,1,8,0:0:0:0:
256,192,101205,1,8,0:0:0:0:
256,192,101470,1,0,0:0:0:0:
256,192,101647,1,0,0:0:0:0:
256,192,101823,1,0,0:0:0:0:
256,192,101999,1,8,0:0:0:0:
256,192,102176,1,0,0:0:0:0:
256,192,102352,1,0,0:0:0:0:
256,192,102529,1,0,0:0:0:0:
256,192,102705,1,8,0:0:0:0:
256,192,102882,1,0,0:0:0:0:
256,192,103058,1,8,0:0:0:0:
256,192,103235,1,0,0:0:0:0:
256,192,103411,1,0,0:0:0:0:
256,192,103588,1,0,0:0:0:0:
256,192,103764,1,8,0:0:0:0:
256,192,103852,1,0,0:0:0:0:
256,192,103941,1,0,0:0:0:0:
256,192,104029,1,0,0:0:0:0:
256,192,104117,1,8,0:0:0:0:
256,192,104176,1,0,0:0:0:0:
256,192,104235,1,0,0:0:0:0:
256,192,104294,1,0,0:0:0:0:
256,192,104470,1,4,0:0:0:0:
256,192,105176,1,12,0:0:0:0:
256,192,105882,1,12,0:0:0:0:
256,192,106588,1,8,0:0:0:0:
256,192,106852,1,8,0:0:0:0:
256,192,107117,1,0,0:0:0:0:
256,192,107294,1,0,0:0:0:0:
256,192,107382,1,0,0:0:0:0:
256,192,107470,1,0,0:0:0:0:
256,192,107558,1,0,0:0:0:0:
256,192,107646,1,8,0:0:0:0:
256,192,107705,1,8,0:0:0:0:
256,192,107764,1,8,0:0:0:0:
256,192,107823,1,8,0:0:0:0:
256,192,107882,1,0,0:0:0:0:
256,192,107941,1,0,0:0:0:0:
256,192,107999,1,8,0:0:0:0:
256,192,108352,1,0,0:0:0:0:
256,192,108441,1,0,0:0:0:0:
256,192,108529,1,0,0:0:0:0:
256,192,108617,1,0,0:0:0:0:
256,192,108705,1,0,0:0:0:0:
256,192,108882,1,0,0:0:0:0:
256,192,109058,1,8,0:0:0:0:
256,192,109235,1,0,0:0:0:0:
256,192,109411,1,8,0:0:0:0:
256,192,109499,1,0,0:0:0:0:
256,192,109588,1,0,0:0:0:0:
256,192,109676,1,0,0:0:0:0:
256,192,109764,1,0,0:0:0:0:
256,192,109823,1,0,0:0:0:0:
256,192,109882,1,0,0:0:0:0:
256,192,109941,1,0,0:0:0:0:
256,192,110117,1,12,0:0:0:0:
256,192,110823,1,12,0:0:0:0:
256,192,111529,1,12,0:0:0:0:
256,192,111882,1,0,0:0:0:0:
256,192,112235,1,8,0:0:0:0:
256,192,112499,1,8,0:0:0:0:
256,192,112764,1,0,0:0:0:0:
256,192,112941,1,8,0:0:0:0:
256,192,113029,1,8,0:0:0:0:
256,192,113117,1,8,0:0:0:0:
256,192,113205,1,0,0:0:0:0:
256,192,113294,1,8,0:0:0:0:
256,192,113382,1,8,0:0:0:0:
256,192,113470,1,0,0:0:0:0:
256,192,113558,1,0,0:0:0:0:
256,192,113647,1,8,0:0:0:0:
256,192,113735,1,8,0:0:0:0:
256,192,113823,1,8,0:0:0:0:
256,192,113911,1,0,0:0:0:0:
256,192,113999,1,8,0:0:0:0:
256,192,114176,1,0,0:0:0:0:
256,192,114352,1,8,0:0:0:0:
256,192,114441,1,0,0:0:0:0:
256,192,114529,1,0,0:0:0:0:
256,192,114617,1,0,0:0:0:0:
256,192,114705,1,8,0:0:0:0:
256,192,114794,1,0,0:0:0:0:
256,192,114882,1,0,0:0:0:0:
256,192,114970,1,0,0:0:0:0:
256,192,115058,1,8,0:0:0:0:
256,192,115147,1,0,0:0:0:0:
256,192,115235,1,8,0:0:0:0:
256,192,115323,1,0,0:0:0:0:
256,192,115411,1,8,0:0:0:0:
256,192,115499,1,8,0:0:0:0:
256,192,115588,1,0,0:0:0:0:
256,192,115676,1,0,0:0:0:0:
256,192,115764,1,0,0:0:0:0:
256,192,115941,1,0,0:0:0:0:
256,192,116029,1,0,0:0:0:0:
256,192,116117,1,8,0:0:0:0:
256,192,116294,1,0,0:0:0:0:
256,192,116470,1,0,0:0:0:0:
256,192,116558,1,8,0:0:0:0:
256,192,116647,1,0,0:0:0:0:
256,192,116735,1,0,0:0:0:0:
256,192,116823,1,8,0:0:0:0:
256,192,116999,1,8,0:0:0:0:
256,192,117176,1,0,0:0:0:0:
256,192,117352,1,8,0:0:0:0:
256,192,117441,1,0,0:0:0:0:
256,192,117529,1,8,0:0:0:0:
256,192,117705,1,0,0:0:0:0:
256,192,117882,1,8,0:0:0:0:
256,192,117970,1,0,0:0:0:0:
256,192,118058,1,8,0:0:0:0:
256,192,118147,1,0,0:0:0:0:
256,192,118235,1,8,0:0:0:0:
256,192,118411,1,8,0:0:0:0:
256,192,118588,1,0,0:0:0:0:
256,192,118676,1,0,0:0:0:0:
256,192,118764,1,0,0:0:0:0:
256,192,118941,1,8,0:0:0:0:
256,192,119117,1,0,0:0:0:0:
256,192,119205,1,8,0:0:0:0:
256,192,119294,1,0,0:0:0:0:
256,192,119382,1,8,0:0:0:0:
256,192,119470,1,0,0:0:0:0:
256,192,119558,1,0,0:0:0:0:
256,192,119647,1,8,0:0:0:0:
256,192,119823,1,8,0:0:0:0:
256,192,119999,1,0,0:0:0:0:
256,192,120088,1,0,0:0:0:0:
256,192,120176,1,8,0:0:0:0:
256,192,120264,1,0,0:0:0:0:
256,192,120352,1,8,0:0:0:0:
256,192,120529,1,0,0:0:0:0:
256,192,120705,1,0,0:0:0:0:
256,192,120794,1,0,0:0:0:0:
256,192,120882,1,8,0:0:0:0:
256,192,120970,1,0,0:0:0:0:
256,192,121058,1,8,0:0:0:0:
256,192,121147,1,8,0:0:0:0:
256,192,121235,1,0,0:0:0:0:
256,192,121323,1,0,0:0:0:0:
256,192,121411,1,8,0:0:0:0:
256,192,121588,1,0,0:0:0:0:
256,192,121764,1,8,0:0:0:0:
256,192,121852,1,8,0:0:0:0:
256,192,121941,1,8,0:0:0:0:
256,192,122117,1,0,0:0:0:0:
256,192,122294,1,0,0:0:0:0:
256,192,122382,1,0,0:0:0:0:
256,192,122470,1,8,0:0:0:0:
256,192,122647,1,0,0:0:0:0:
256,192,122823,1,8,0:0:0:0:
256,192,122911,1,0,0:0:0:0:
256,192,122999,1,8,0:0:0:0:
256,192,123088,1,0,0:0:0:0:
256,192,123176,1,8,0:0:0:0:
256,192,123352,1,0,0:0:0:0:
256,192,123529,1,0,0:0:0:0:
256,192,123617,1,8,0:0:0:0:
256,192,123705,1,0,0:0:0:0:
256,192,123794,1,0,0:0:0:0:
256,192,123882,1,8,0:0:0:0:
256,192,124058,1,0,0:0:0:0:
256,192,124235,1,0,0:0:0:0:
256,192,124411,1,0,0:0:0:0:
256,192,124499,1,0,0:0:0:0:
256,192,124588,1,8,0:0:0:0:
256,192,124764,1,0,0:0:0:0:
256,192,124941,1,0,0:0:0:0:
256,192,125029,1,8,0:0:0:0:
256,192,125117,1,0,0:0:0:0:
256,192,125205,1,0,0:0:0:0:
256,192,125294,1,8,0:0:0:0:
256,192,125470,1,0,0:0:0:0:
256,192,125647,1,0,0:0:0:0:
256,192,125823,1,0,0:0:0:0:
256,192,125911,1,0,0:0:0:0:
256,192,125999,1,8,0:0:0:0:
256,192,126176,1,0,0:0:0:0:
256,192,126352,1,8,0:0:0:0:
256,192,126441,1,0,0:0:0:0:
256,192,126529,1,8,0:0:0:0:
256,192,126617,1,0,0:0:0:0:
256,192,126705,1,8,0:0:0:0:
256,192,126794,1,8,0:0:0:0:
256,192,126882,1,0,0:0:0:0:
256,192,126970,1,0,0:0:0:0:
256,192,127058,1,0,0:0:0:0:
256,192,127235,1,0,0:0:0:0:
256,192,127323,1,0,0:0:0:0:
256,192,127411,1,8,0:0:0:0:
256,192,127588,1,0,0:0:0:0:
256,192,127676,1,8,0:0:0:0:
256,192,127764,1,0,0:0:0:0:
256,192,127941,1,0,0:0:0:0:
256,192,128117,1,8,0:0:0:0:
256,192,128205,1,0,0:0:0:0:
256,192,128294,1,8,0:0:0:0:
256,192,128382,1,0,0:0:0:0:
256,192,128470,1,0,0:0:0:0:
256,192,128647,1,0,0:0:0:0:
256,192,128735,1,0,0:0:0:0:
256,192,128823,1,8,0:0:0:0:
256,192,129000,1,0,0:0:0:0:
256,192,129088,1,8,0:0:0:0:
256,192,129176,1,0,0:0:0:0:
256,192,129353,1,0,0:0:0:0:
256,192,129529,1,8,0:0:0:0:
256,192,129617,1,0,0:0:0:0:
256,192,129706,1,8,0:0:0:0:
256,192,129794,1,0,0:0:0:0:
256,192,129882,1,0,0:0:0:0:
256,192,130058,1,0,0:0:0:0:
256,192,130234,1,8,0:0:0:0:
256,192,130411,1,0,0:0:0:0:
256,192,130499,1,0,0:0:0:0:
256,192,130587,1,0,0:0:0:0:
256,192,130764,1,0,0:0:0:0:
256,192,130940,1,8,0:0:0:0:
256,192,131028,1,0,0:0:0:0:
256,192,131117,1,8,0:0:0:0:
256,192,131205,1,8,0:0:0:0:
256,192,131293,1,0,0:0:0:0:
256,192,131470,1,0,0:0:0:0:
256,192,131647,1,8,0:0:0:0:
256,192,131823,1,0,0:0:0:0:
256,192,131911,1,8,0:0:0:0:
256,192,131999,1,0,0:0:0:0:
256,192,132088,1,8,0:0:0:0:
256,192,132176,1,0,0:0:0:0:
256,192,132264,1,0,0:0:0:0:
256,192,132352,1,8,0:0:0:0:
256,192,132441,1,8,0:0:0:0:
256,192,132529,1,8,0:0:0:0:
256,192,132617,1,8,0:0:0:0:
256,192,132705,1,0,0:0:0:0:
256,192,132882,1,0,0:0:0:0:
256,192,132970,1,0,0:0:0:0:
256,192,133058,1,8,0:0:0:0:
256,192,133235,1,0,0:0:0:0:
256,192,133411,1,0,0:0:0:0:
256,192,133499,1,8,0:0:0:0:
256,192,133588,1,0,0:0:0:0:
256,192,133676,1,0,0:0:0:0:
256,192,133764,1,8,0:0:0:0:
256,192,133941,1,0,0:0:0:0:
256,192,134117,1,8,0:0:0:0:
256,192,134205,1,8,0:0:0:0:
256,192,134294,1,0,0:0:0:0:
256,192,134382,1,0,0:0:0:0:
256,192,134470,1,8,0:0:0:0:
256,192,134558,1,8,0:0:0:0:
256,192,134647,1,0,0:0:0:0:
256,192,134735,1,0,0:0:0:0:
256,192,134823,1,8,0:0:0:0:
256,192,134999,1,0,0:0:0:0:
256,192,135088,1,0,0:0:0:0:
256,192,135176,1,8,0:0:0:0:
256,192,135352,1,0,0:0:0:0:
256,192,135529,1,0,0:0:0:0:
256,192,135705,1,0,0:0:0:0:
256,192,135794,1,8,0:0:0:0:
256,192,135882,1,0,0:0:0:0:
256,192,136058,1,8,0:0:0:0:
256,192,136235,1,0,0:0:0:0:
256,192,136323,1,0,0:0:0:0:
256,192,136411,1,0,0:0:0:0:
256,192,136499,1,0,0:0:0:0:
256,192,136588,1,8,0:0:0:0:
256,192,136764,1,0,0:0:0:0:
256,192,136941,1,0,0:0:0:0:
256,192,137117,1,0,0:0:0:0:
256,192,137205,1,8,0:0:0:0:
256,192,137294,1,8,0:0:0:0:
256,192,137470,1,0,0:0:0:0:
256,192,137647,1,8,0:0:0:0:
256,192,137735,1,0,0:0:0:0:
256,192,137823,1,8,0:0:0:0:
256,192,137911,1,0,0:0:0:0:
256,192,137999,1,8,0:0:0:0:
256,192,138088,1,8,0:0:0:0:
256,192,138176,1,0,0:0:0:0:
256,192,138264,1,8,0:0:0:0:
256,192,138352,1,0,0:0:0:0:
256,192,138529,1,0,0:0:0:0:
256,192,138617,1,0,0:0:0:0:
256,192,138705,1,8,0:0:0:0:
256,192,138882,1,0,0:0:0:0:
256,192,139058,1,0,0:0:0:0:
256,192,139147,1,0,0:0:0:0:
256,192,139235,1,8,0:0:0:0:
256,192,139323,1,8,0:0:0:0:
256,192,139411,1,0,0:0:0:0:
256,192,139588,1,0,0:0:0:0:
256,192,139764,1,8,0:0:0:0:
256,192,139941,1,0,0:0:0:0:
256,192,140029,1,8,0:0:0:0:
256,192,140117,1,0,0:0:0:0:
256,192,140294,1,0,0:0:0:0:
256,192,140470,1,8,0:0:0:0:
256,192,140558,1,8,0:0:0:0:
256,192,140647,1,0,0:0:0:0:
256,192,140735,1,0,0:0:0:0:
256,192,140823,1,8,0:0:0:0:
256,192,140999,1,0,0:0:0:0:
256,192,141176,1,8,0:0:0:0:
256,192,141352,1,8,0:0:0:0:
256,192,141441,1,8,0:0:0:0:
256,192,141529,1,8,0:0:0:0:
256,192,141705,1,0,0:0:0:0:
256,192,141882,1,8,0:0:0:0:
256,192,141970,1,0,0:0:0:0:
256,192,142058,1,8,0:0:0:0:
256,192,142147,1,8,0:0:0:0:
256,192,142235,1,0,0:0:0:0:
256,192,142411,1,0,0:0:0:0:
256,192,142588,1,8,0:0:0:0:
256,192,142764,1,0,0:0:0:0:
256,192,142852,1,8,0:0:0:0:
256,192,142941,1,0,0:0:0:0:
256,192,143117,1,0,0:0:0:0:
256,192,143294,1,8,0:0:0:0:
256,192,143382,1,8,0:0:0:0:
256,192,143470,1,0,0:0:0:0:
256,192,143558,1,0,0:0:0:0:
256,192,143647,1,8,0:0:0:0:
256,192,143735,1,0,0:0:0:0:
256,192,143823,1,8,0:0:0:0:
256,192,143911,1,0,0:0:0:0:
256,192,143999,1,8,0:0:0:0:
256,192,144176,1,8,0:0:0:0:
256,192,144264,1,8,0:0:0:0:
256,192,144352,1,0,0:0:0:0:
256,192,144529,1,0,0:0:0:0:
256,192,144705,1,8,0:0:0:0:
256,192,144794,1,0,0:0:0:0:
256,192,144882,1,0,0:0:0:0:
256,192,144970,1,0,0:0:0:0:
256,192,145058,1,8,0:0:0:0:
256,192,145147,1,8,0:0:0:0:
256,192,145235,1,0,0:0:0:0:
256,192,145323,1,0,0:0:0:0:
256,192,145411,1,8,0:0:0:0:
256,192,145499,1,8,0:0:0:0:
256,192,145588,1,8,0:0:0:0:
256,192,145676,1,0,0:0:0:0:
256,192,145764,1,8,0:0:0:0:
256,192,145852,1,8,0:0:0:0:
256,192,145941,1,8,0:0:0:0:
256,192,146029,1,8,0:0:0:0:
256,192,146117,1,0,0:0:0:0:
256,192,146205,1,8,0:0:0:0:
256,192,146294,1,0,0:0:0:0:
256,192,146382,1,0,0:0:0:0:
256,192,146470,1,8,0:0:0:0:
256,192,146647,1,8,0:0:0:0:
256,192,146823,1,0,0:0:0:0:
256,192,146999,1,0,0:0:0:0:
256,192,147088,1,0,0:0:0:0:
256,192,147176,1,8,0:0:0:0:
256,192,147352,1,0,0:0:0:0:
256,192,147529,1,0,0:0:0:0:
256,192,147617,1,0,0:0:0:0:
256,192,147705,1,0,0:0:0:0:
256,192,147794,1,0,0:0:0:0:
256,192,147882,1,8,0:0:0:0:
256,192,148058,1,0,0:0:0:0:
256,192,148235,1,0,0:0:0:0:
256,192,148411,1,0,0:0:0:0:
256,192,148499,1,0,0:0:0:0:
256,192,148588,1,8,0:0:0:0:
256,192,148764,1,0,0:0:0:0:
256,192,148852,1,8,0:0:0:0:
256,192,148941,1,8,0:0:0:0:
256,192,149029,1,0,0:0:0:0:
256,192,149117,1,0,0:0:0:0:
256,192,149205,1,8,0:0:0:0:
256,192,149294,1,0,0:0:0:0:
256,192,149382,1,8,0:0:0:0:
256,192,149470,1,8,0:0:0:0:
256,192,149558,1,8,0:0:0:0:
256,192,149647,1,0,0:0:0:0:
256,192,149823,1,0,0:0:0:0:
256,192,149911,1,0,0:0:0:0:
256,192,149999,1,8,0:0:0:0:
256,192,150176,1,0,0:0:0:0:
256,192,150352,1,0,0:0:0:0:
256,192,150441,1,0,0:0:0:0:
256,192,150529,1,8,0:0:0:0:
256,192,150617,1,8,0:0:0:0:
256,192,150705,1,8,0:0:0:0:
256,192,150882,1,8,0:0:0:0:
256,192,150970,1,0,0:0:0:0:
256,192,151058,1,8,0:0:0:0:
256,192,151147,1,8,0:0:0:0:
256,192,151235,1,8,0:0:0:0:
256,192,151411,1,8,0:0:0:0:
256,192,151588,1,0,0:0:0:0:
256,192,151676,1,8,0:0:0:0:
256,192,151764,1,0,0:0:0:0:
256,192,151852,1,0,0:0:0:0:
256,192,151941,1,0,0:0:0:0:
256,192,152117,1,8,0:0:0:0:
256,192,152294,1,8,0:0:0:0:
256,192,152382,1,0,0:0:0:0:
256,192,152470,1,8,0:0:0:0:
256,192,152558,1,8,0:0:0:0:
256,192,152647,1,8,0:0:0:0:
256,192,152823,1,8,0:0:0:0:
256,192,152999,1,0,0:0:0:0:
256,192,153088,1,0,0:0:0:0:
256,192,153176,1,0,0:0:0:0:
256,192,153264,1,0,0:0:0:0:
256,192,153352,1,8,0:0:0:0:
256,192,153441,1,8,0:0:0:0:
256,192,153529,1,8,0:0:0:0:
256,192,153705,1,8,0:0:0:0:
256,192,153794,1,0,0:0:0:0:
256,192,153882,1,8,0:0:0:0:
256,192,153970,1,8,0:0:0:0:
256,192,154058,1,8,0:0:0:0:
256,192,154235,1,8,0:0:0:0:
256,192,154411,1,0,0:0:0:0:
256,192,154499,1,0,0:0:0:0:
256,192,154588,1,0,0:0:0:0:
256,192,154676,1,0,0:0:0:0:
256,192,154764,1,8,0:0:0:0:
256,192,154852,1,8,0:0:0:0:
256,192,154941,1,8,0:0:0:0:
256,192,155029,1,0,0:0:0:0:
256,192,155117,1,8,0:0:0:0:
256,192,155205,1,8,0:0:0:0:
256,192,155294,1,8,0:0:0:0:
256,192,155470,1,0,0:0:0:0:
256,192,155558,1,8,0:0:0:0:
256,192,155647,1,8,0:0:0:0:
256,192,155823,1,8,0:0:0:0:
256,192,155999,1,0,0:0:0:0:
256,192,156088,1,0,0:0:0:0:
256,192,156176,1,8,0:0:0:0:
256,192,156264,1,0,0:0:0:0:
256,192,156352,1,0,0:0:0:0:
256,192,156529,1,0,0:0:0:0:
256,192,156617,1,0,0:0:0:0:
256,192,156705,1,8,0:0:0:0:
256,192,156882,1,0,0:0:0:0:
256,192,156970,1,0,0:0:0:0:
256,192,157058,1,8,0:0:0:0:
256,192,157235,1,0,0:0:0:0:
256,192,157323,1,8,0:0:0:0:
256,192,157411,1,0,0:0:0:0:
256,192,157588,1,0,0:0:0:0:
256,192,157764,1,8,0:0:0:0:
256,192,157941,1,0,0:0:0:0:
256,192,158117,1,8,0:0:0:0:
256,192,158470,1,8,0:0:0:0:
256,192,158999,1,8,0:0:0:0:
256,192,159176,1,8,0:0:0:0:
256,192,159441,1,0,0:0:0:0:
256,192,159529,1,8,0:0:0:0:
256,192,159882,1,8,0:0:0:0:
256,192,160058,1,0,0:0:0:0:
256,192,160235,1,8,0:0:0:0:
256,192,160411,1,0,0:0:0:0:
256,192,160588,1,8,0:0:0:0:
256,192,160764,1,0,0:0:0:0:
256,192,160941,1,4,0:0:0:0:
256,192,161470,1,0,0:0:0:0:
256,192,161558,1,0,0:0:0:0:
256,192,161647,1,8,0:0:0:0:
256,192,161823,1,8,0:0:0:0:
256,192,161999,1,0,0:0:0:0:
256,192,162352,1,0,0:0:0:0:
256,192,162882,1,0,0:0:0:0:
256,192,162970,1,8,0:0:0:0:
256,192,163058,1,0,0:0:0:0:
256,192,163235,1,8,0:0:0:0:
256,192,163411,1,0,0:0:0:0:
256,192,163764,1,0,0:0:0:0:
256,192,163941,1,0,0:0:0:0:
256,192,164117,1,8,0:0:0:0:
256,192,164294,1,0,0:0:0:0:
256,192,164382,1,0,0:0:0:0:
256,192,164470,1,8,0:0:0:0:
256,192,164647,1,8,0:0:0:0:
256,192,164823,1,8,0:0:0:0:
256,192,164999,1,0,0:0:0:0:
256,192,165176,1,8,0:0:0:0:
256,192,165352,1,0,0:0:0:0:
256,192,165529,1,8,0:0:0:0:
256,192,165705,1,0,0:0:0:0:
256,192,165882,1,0,0:0:0:0:
256,192,166058,1,8,0:0:0:0:
256,192,166235,1,0,0:0:0:0:
256,192,166588,1,0,0:0:0:0:
256,192,167118,1,0,0:0:0:0:
256,192,167206,1,0,0:0:0:0:
256,192,167294,1,8,0:0:0:0:
256,192,167471,1,8,0:0:0:0:
256,192,167647,1,0,0:0:0:0:
256,192,167999,1,0,0:0:0:0:
256,192,168529,1,0,0:0:0:0:
256,192,168617,1,8,0:0:0:0:
256,192,168705,1,0,0:0:0:0:
256,192,168882,1,8,0:0:0:0:
256,192,169058,1,0,0:0:0:0:
256,192,169411,1,0,0:0:0:0:
256,192,169588,1,0,0:0:0:0:
256,192,169764,1,8,0:0:0:0:
256,192,169941,1,0,0:0:0:0:
256,192,170117,1,8,0:0:0:0:
256,192,170294,1,8,0:0:0:0:
256,192,170470,1,8,0:0:0:0:
256,192,170647,1,0,0:0:0:0:
256,192,170823,1,8,0:0:0:0:
256,192,171088,1,8,0:0:0:0:
256,192,171352,1,8,0:0:0:0:
256,192,171441,1,0,0:0:0:0:
256,192,171529,1,8,0:0:0:0:
256,192,172235,1,4,0:0:0:0:
256,192,172765,1,0,0:0:0:0:
256,192,172853,1,0,0:0:0:0:
256,192,172941,1,8,0:0:0:0:
256,192,173118,1,8,0:0:0:0:
256,192,173294,1,0,0:0:0:0:
256,192,173647,1,0,0:0:0:0:
256,192,174177,1,0,0:0:0:0:
256,192,174265,1,8,0:0:0:0:
256,192,174353,1,0,0:0:0:0:
256,192,174529,1,8,0:0:0:0:
256,192,174706,1,0,0:0:0:0:
256,192,175058,1,0,0:0:0:0:
256,192,175235,1,0,0:0:0:0:
256,192,175411,1,8,0:0:0:0:
256,192,175588,1,0,0:0:0:0:
256,192,175676,1,0,0:0:0:0:
256,192,175764,1,8,0:0:0:0:
256,192,175941,1,8,0:0:0:0:
256,192,176117,1,8,0:0:0:0:
256,192,176294,1,0,0:0:0:0:
256,192,176470,1,8,0:0:0:0:
256,192,176647,1,0,0:0:0:0:
256,192,176823,1,8,0:0:0:0:
256,192,176999,1,0,0:0:0:0:
256,192,177176,1,0,0:0:0:0:
256,192,177352,1,8,0:0:0:0:
256,192,177529,1,0,0:0:0:0:
256,192,177882,1,4,0:0:0:0:
256,192,178412,1,0,0:0:0:0:
256,192,178500,1,0,0:0:0:0:
256,192,178588,1,8,0:0:0:0:
256,192,178765,1,8,0:0:0:0:
256,192,178941,1,0,0:0:0:0:
256,192,179294,1,4,0:0:0:0:
256,192,179824,1,0,0:0:0:0:
256,192,179912,1,8,0:0:0:0:
256,192,180000,1,0,0:0:0:0:
256,192,180177,1,8,0:0:0:0:
256,192,180353,1,0,0:0:0:0:
256,192,180705,1,4,0:0:0:0:
256,192,180882,1,0,0:0:0:0:
256,192,181058,1,8,0:0:0:0:
256,192,181235,1,0,0:0:0:0:
256,192,181411,1,4,0:0:0:0:
256,192,181588,1,0,0:0:0:0:
256,192,181764,1,8,0:0:0:0:
256,192,181941,1,8,0:0:0:0:
256,192,182117,1,4,0:0:0:0:
256,192,182382,1,0,0:0:0:0:
256,192,182647,1,0,0:0:0:0:
256,192,182735,1,8,0:0:0:0:
256,192,182823,1,4,0:0:0:0:
256,192,182999,1,0,0:0:0:0:
256,192,183088,1,0,0:0:0:0:
256,192,183176,1,8,0:0:0:0:
256,192,183264,1,0,0:0:0:0:
256,192,183352,1,8,0:0:0:0:
256,192,183441,1,0,0:0:0:0:
256,192,183529,1,0,0:0:0:0:
256,192,183705,1,0,0:0:0:0:
256,192,183794,1,0,0:0:0:0:
256,192,183882,1,0,0:0:0:0:
256,192,184058,1,0,0:0:0:0:
256,192,184147,1,0,0:0:0:0:
256,192,184235,1,8,0:0:0:0:
256,192,184411,1,0,0:0:0:0:
256,192,184499,1,0,0:0:0:0:
256,192,184588,1,0,0:0:0:0:
256,192,184676,1,0,0:0:0:0:
256,192,184764,1,8,0:0:0:0:
256,192,184852,1,0,0:0:0:0:
256,192,184941,1,8,0:0:0:0:
256,192,185117,1,0,0:0:0:0:
256,192,185205,1,8,0:0:0:0:
256,192,185294,1,0,0:0:0:0:
256,192,185470,1,8,0:0:0:0:
256,192,185558,1,0,0:0:0:0:
256,192,185647,1,8,0:0:0:0:
256,192,185735,1,0,0:0:0:0:
256,192,185823,1,0,0:0:0:0:
256,192,185911,1,8,0:0:0:0:
256,192,185999,1,0,0:0:0:0:
256,192,186088,1,0,0:0:0:0:
256,192,186176,1,8,0:0:0:0:
256,192,186264,1,0,0:0:0:0:
256,192,186352,1,8,0:0:0:0:
256,192,186529,1,8,0:0:0:0:
256,192,186617,1,0,0:0:0:0:
256,192,186705,1,0,0:0:0:0:
256,192,186882,1,0,0:0:0:0:
256,192,187058,1,8,0:0:0:0:
256,192,187147,1,0,0:0:0:0:
256,192,187235,1,8,0:0:0:0:
256,192,187323,1,0,0:0:0:0:
256,192,187411,1,0,0:0:0:0:
256,192,187588,1,0,0:0:0:0:
256,192,187676,1,0,0:0:0:0:
256,192,187764,1,8,0:0:0:0:
256,192,187852,1,8,0:0:0:0:
256,192,187941,1,0,0:0:0:0:
256,192,188029,1,0,0:0:0:0:
256,192,188117,1,8,0:0:0:0:
256,192,188205,1,0,0:0:0:0:
256,192,188294,1,0,0:0:0:0:
256,192,188382,1,8,0:0:0:0:
256,192,188470,1,8,0:0:0:0:
256,192,188558,1,0,0:0:0:0:
256,192,188647,1,8,0:0:0:0:
256,192,188735,1,0,0:0:0:0:
256,192,188823,1,8,0:0:0:0:
256,192,188911,1,8,0:0:0:0:
256,192,188999,1,0,0:0:0:0:
256,192,189088,1,8,0:0:0:0:
256,192,189176,1,0,0:0:0:0:
256,192,189352,1,0,0:0:0:0:
256,192,189441,1,0,0:0:0:0:
256,192,189529,1,0,0:0:0:0:
256,192,189705,1,0,0:0:0:0:
256,192,189794,1,0,0:0:0:0:
256,192,189882,1,8,0:0:0:0:
256,192,190058,1,0,0:0:0:0:
256,192,190146,1,0,0:0:0:0:
256,192,190235,1,0,0:0:0:0:
256,192,190323,1,0,0:0:0:0:
256,192,190411,1,8,0:0:0:0:
256,192,190499,1,0,0:0:0:0:
256,192,190588,1,8,0:0:0:0:
256,192,190764,1,0,0:0:0:0:
256,192,190852,1,8,0:0:0:0:
256,192,190941,1,0,0:0:0:0:
256,192,191117,1,8,0:0:0:0:
256,192,191205,1,0,0:0:0:0:
256,192,191294,1,8,0:0:0:0:
256,192,191382,1,0,0:0:0:0:
256,192,191470,1,0,0:0:0:0:
256,192,191558,1,8,0:0:0:0:
256,192,191646,1,0,0:0:0:0:
256,192,191735,1,0,0:0:0:0:
256,192,191823,1,8,0:0:0:0:
256,192,191911,1,0,0:0:0:0:
256,192,191999,1,8,0:0:0:0:
256,192,192176,1,0,0:0:0:0:
256,192,192352,1,8,0:0:0:0:
256,192,192529,1,0,0:0:0:0:
256,192,192617,1,0,0:0:0:0:
256,192,192705,1,8,0:0:0:0:
256,192,192794,1,0,0:0:0:0:
256,192,192882,1,0,0:0:0:0:
256,192,193058,1,8,0:0:0:0:
256,192,193147,1,0,0:0:0:0:
256,192,193235,1,8,0:0:0:0:
256,192,193323,1,0,0:0:0:0:
256,192,193411,1,0,0:0:0:0:
256,192,193499,1,0,0:0:0:0:
256,192,193588,1,8,0:0:0:0:
256,192,193676,1,8,0:0:0:0:
256,192,193764,1,0,0:0:0:0:
256,192,193852,1,8,0:0:0:0:
256,192,193941,1,8,0:0:0:0:
256,192,194029,1,0,0:0:0:0:
256,192,194117,1,0,0:0:0:0:
256,192,194205,1,8,0:0:0:0:
256,192,194294,1,8,0:0:0:0:
256,192,194382,1,0,0:0:0:0:
256,192,194470,1,8,0:0:0:0:
256,192,194558,1,8,0:0:0:0:
256,192,194647,1,8,0:0:0:0:
256,192,194735,1,8,0:0:0:0:
256,192,194823,1,0,0:0:0:0:
256,192,194911,1,0,0:0:0:0:
256,192,195088,1,8,0:0:0:0:
256,192,195176,1,0,0:0:0:0:
256,192,195352,1,8,0:0:0:0:
256,192,195441,1,0,0:0:0:0:
256,192,195529,1,8,0:0:0:0:
256,192,195617,1,0,0:0:0:0:
256,192,195705,1,0,0:0:0:0:
256,192,195794,1,8,0:0:0:0:
256,192,195882,1,0,0:0:0:0:
256,192,195970,1,0,0:0:0:0:
256,192,196058,1,8,0:0:0:0:
256,192,196147,1,8,0:0:0:0:
256,192,196235,1,0,0:0:0:0:
256,192,196323,1,0,0:0:0:0:
256,192,196499,1,8,0:0:0:0:
256,192,196588,1,0,0:0:0:0:
256,192,196764,1,0,0:0:0:0:
256,192,196852,1,8,0:0:0:0:
256,192,196941,1,8,0:0:0:0:
256,192,197029,1,0,0:0:0:0:
256,192,197117,1,0,0:0:0:0:
256,192,197205,1,8,0:0:0:0:
256,192,197294,1,0,0:0:0:0:
256,192,197382,1,0,0:0:0:0:
256,192,197470,1,8,0:0:0:0:
256,192,197558,1,0,0:0:0:0:
256,192,197647,1,0,0:0:0:0:
256,192,197823,1,0,0:0:0:0:
256,192,197911,1,8,0:0:0:0:
256,192,197999,1,0,0:0:0:0:
256,192,198176,1,0,0:0:0:0:
256,192,198352,1,0,0:0:0:0:
256,192,198441,1,0,0:0:0:0:
256,192,198529,1,8,0:0:0:0:
256,192,198617,1,8,0:0:0:0:
256,192,198705,1,0,0:0:0:0:
256,192,198882,1,8,0:0:0:0:
256,192,198970,1,8,0:0:0:0:
256,192,199058,1,8,0:0:0:0:
256,192,199147,1,0,0:0:0:0:
256,192,199235,1,0,0:0:0:0:
256,192,199323,1,0,0:0:0:0:
256,192,199411,1,8,0:0:0:0:
256,192,199499,1,0,0:0:0:0:
256,192,199588,1,8,0:0:0:0:
256,192,199676,1,0,0:0:0:0:
256,192,199764,1,0,0:0:0:0:
256,192,199852,1,8,0:0:0:0:
256,192,199941,1,8,0:0:0:0:
256,192,200029,1,0,0:0:0:0:
256,192,200117,1,0,0:0:0:0:
256,192,200205,1,8,0:0:0:0:
256,192,200294,1,0,0:0:0:0:
256,192,200382,1,8,0:0:0:0:
256,192,200470,1,4,0:0:0:0:
256,192,200647,1,0,0:0:0:0:
256,192,200823,1,0,0:0:0:0:
256,192,200999,1,0,0:0:0:0:
256,192,201176,1,12,0:0:0:0:
256,192,201352,1,0,0:0:0:0:
256,192,201529,1,0,0:0:0:0:
256,192,201705,1,0,0:0:0:0:
256,192,201882,1,12,0:0:0:0:
256,192,202058,1,0,0:0:0:0:
256,192,202235,1,0,0:0:0:0:
256,192,202411,1,0,0:0:0:0:
256,192,202588,1,12,0:0:0:0:
256,192,202764,1,0,0:0:0:0:
256,192,202852,1,12,0:0:0:0:
256,192,203029,1,8,0:0:0:0:
256,192,203117,1,4,0:0:0:0:
256,192,203294,1,0,0:0:0:0:
256,192,203382,1,0,0:0:0:0:
256,192,203470,1,8,0:0:0:0:
256,192,203558,1,0,0:0:0:0:
256,192,203647,1,8,0:0:0:0:
256,192,203735,1,8,0:0:0:0:
256,192,203823,1,0,0:0:0:0:
256,192,203911,1,8,0:0:0:0:
256,192,203999,1,0,0:0:0:0:
256,192,204088,1,8,0:0:0:0:
256,192,204176,1,8,0:0:0:0:
256,192,204264,1,0,0:0:0:0:
256,192,204352,1,8,0:0:0:0:
256,192,204441,1,0,0:0:0:0:
256,192,204529,1,0,0:0:0:0:
256,192,204617,1,0,0:0:0:0:
256,192,204705,1,8,0:0:0:0:
256,192,204794,1,0,0:0:0:0:
256,192,204882,1,0,0:0:0:0:
256,192,204970,1,8,0:0:0:0:
256,192,205058,1,0,0:0:0:0:
256,192,205147,1,0,0:0:0:0:
256,192,205235,1,8,0:0:0:0:
256,192,205323,1,0,0:0:0:0:
256,192,205411,1,8,0:0:0:0:
256,192,207529,5,0,0:0:0:0:
256,192,208941,1,0,0:0:0:0:
256,192,210352,1,0,0:0:0:0:
256,192,211764,1,8,0:0:0:0:
256,192,212470,1,0,0:0:0:0:
256,192,212823,1,8,0:0:0:0:
256,192,213176,1,8,0:0:0:0:
256,192,213882,1,8,0:0:0:0:
256,192,214235,1,8,0:0:0:0:
256,192,214588,1,8,0:0:0:0:
256,192,214941,1,8,0:0:0:0:
256,192,215294,1,0,0:0:0:0:
256,192,215647,1,8,0:0:0:0:
256,192,215999,1,0,0:0:0:0:
256,192,218823,1,0,0:0:0:0:
256,192,220235,1,0,0:0:0:0:
256,192,221647,1,0,0:0:0:0:
256,192,223058,1,8,0:0:0:0:
256,192,223764,1,0,0:0:0:0:
256,192,224117,1,8,0:0:0:0:
256,192,224470,1,8,0:0:0:0:
256,192,225176,1,0,0:0:0:0:
256,192,225529,1,8,0:0:0:0:
256,192,225882,1,8,0:0:0:0:
256,192,226235,1,8,0:0:0:0:
256,192,226588,1,0,0:0:0:0:
256,192,227294,1,8,0:0:0:0:
256,192,227647,1,0,0:0:0:0:
256,192,227823,1,0,0:0:0:0:
256,192,227999,1,8,0:0:0:0:
256,192,228176,1,0,0:0:0:0:
256,192,228352,1,8,0:0:0:0:
256,192,228529,1,0,0:0:0:0:
256,192,228705,1,0,0:0:0:0:
256,192,228882,1,0,0:0:0:0:
256,192,229058,1,8,0:0:0:0:
256,192,229235,1,0,0:0:0:0:
256,192,229411,1,8,0:0:0:0:
256,192,229588,1,8,0:0:0:0:
256,192,229764,1,0,0:0:0:0:
256,192,229941,1,0,0:0:0:0:
256,192,230117,1,4,0:0:0:0:
256,192,230470,1,0,0:0:0:0:
256,192,230823,1,8,0:0:0:0:
256,192,231176,1,8,0:0:0:0:
256,192,231529,1,0,0:0:0:0:
256,192,231882,1,0,0:0:0:0:
256,192,232235,1,8,0:0:0:0:
256,192,232587,1,8,0:0:0:0:
256,192,232940,1,0,0:0:0:0:
256,192,233293,1,0,0:0:0:0:
256,192,233646,1,0,0:0:0:0:
256,192,233999,1,8,0:0:0:0:
256,192,234352,1,8,0:0:0:0:
256,192,234705,1,0,0:0:0:0:
256,192,235058,1,8,0:0:0:0:
256,192,235411,1,8,0:0:0:0:
256,192,235764,1,8,0:0:0:0:
256,192,236117,1,0,0:0:0:0:
256,192,236293,1,8,0:0:0:0:
256,192,236470,1,0,0:0:0:0:
256,192,236823,1,8,0:0:0:0:
256,192,237176,1,8,0:0:0:0:
256,192,237529,1,8,0:0:0:0:
256,192,237882,1,0,0:0:0:0:
256,192,238235,1,8,0:0:0:0:
256,192,238587,1,0,0:0:0:0:
256,192,238852,1,0,0:0:0:0:
256,192,239117,1,0,0:0:0:0:
256,192,239293,1,8,0:0:0:0:
256,192,239558,1,8,0:0:0:0:
256,192,239823,1,8,0:0:0:0:
256,192,239999,1,0,0:0:0:0:
256,192,240087,1,8,0:0:0:0:
256,192,240176,1,0,0:0:0:0:
256,192,240352,1,0,0:0:0:0:
256,192,240529,1,8,0:0:0:0:
256,192,240705,1,0,0:0:0:0:
256,192,240882,1,8,0:0:0:0:
256,192,241058,1,0,0:0:0:0:
256,192,241411,1,0,0:0:0:0:
256,192,241764,1,0,0:0:0:0:
256,192,242117,1,8,0:0:0:0:
256,192,242470,1,8,0:0:0:0:
256,192,242823,1,0,0:0:0:0:
256,192,243176,1,0,0:0:0:0:
256,192,243529,1,8,0:0:0:0:
256,192,243882,1,8,0:0:0:0:
256,192,244235,1,0,0:0:0:0:
256,192,244587,1,0,0:0:0:0:
256,192,244940,1,0,0:0:0:0:
256,192,245293,1,8,0:0:0:0:
256,192,245646,1,8,0:0:0:0:
256,192,245999,1,0,0:0:0:0:
256,192,246352,1,8,0:0:0:0:
256,192,246705,1,8,0:0:0:0:
256,192,247058,1,8,0:0:0:0:
256,192,247411,1,0,0:0:0:0:
256,192,247587,1,8,0:0:0:0:
256,192,247764,1,0,0:0:0:0:
256,192,248117,1,0,0:0:0:0:
256,192,248470,1,8,0:0:0:0:
256,192,248823,1,8,0:0:0:0:
256,192,249176,1,0,0:0:0:0:
256,192,249882,1,8,0:0:0:0:
256,192,250235,1,0,0:0:0:0:
256,192,250411,1,0,0:0:0:0:
256,192,250587,1,0,0:0:0:0:
256,192,250764,1,0,0:0:0:0:
256,192,250940,1,8,0:0:0:0:
256,192,251117,1,0,0:0:0:0:
256,192,251293,1,8,0:0:0:0:
256,192,251470,1,8,0:0:0:0:
256,192,251646,1,8,0:0:0:0:
256,192,251823,1,0,0:0:0:0:
256,192,251999,1,8,0:0:0:0:
256,192,252176,1,0,0:0:0:0:
256,192,252705,1,8,0:0:0:0:
256,192,252882,1,0,0:0:0:0:
256,192,253058,1,8,0:0:0:0:
256,192,253235,1,0,0:0:0:0:
256,192,253323,1,0,0:0:0:0:
256,192,253411,1,8,0:0:0:0:
256,192,253588,1,0,0:0:0:0:
256,192,253764,1,8,0:0:0:0:
256,192,253941,1,0,0:0:0:0:
256,192,254029,1,0,0:0:0:0:
256,192,254117,1,8,0:0:0:0:
256,192,254470,1,0,0:0:0:0:
256,192,254647,1,8,0:0:0:0:
256,192,254823,1,8,0:0:0:0:
256,192,254911,1,0,0:0:0:0:
256,192,254999,1,0,0:0:0:0:
256,192,255176,1,8,0:0:0:0:
256,192,255529,1,8,0:0:0:0:
256,192,255706,1,0,0:0:0:0:
256,192,255882,1,8,0:0:0:0:
256,192,256059,1,0,0:0:0:0:
256,192,256147,1,0,0:0:0:0:
256,192,256235,1,8,0:0:0:0:
256,192,256412,1,0,0:0:0:0:
256,192,256588,1,8,0:0:0:0:
256,192,256765,1,0,0:0:0:0:
256,192,256853,1,0,0:0:0:0:
256,192,256941,1,8,0:0:0:0:
256,192,257294,1,8,0:0:0:0:
256,192,257471,1,8,0:0:0:0:
256,192,257647,1,0,0:0:0:0:
256,192,257823,1,8,0:0:0:0:
256,192,257911,1,0,0:0:0:0:
256,192,258000,1,0,0:0:0:0:
256,192,258352,1,8,0:0:0:0:
256,192,258529,1,0,0:0:0:0:
256,192,258705,1,8,0:0:0:0:
256,192,258882,1,0,0:0:0:0:
256,192,258970,1,0,0:0:0:0:
256,192,259058,1,8,0:0:0:0:
256,192,259235,1,0,0:0:0:0:
256,192,259411,1,8,0:0:0:0:
256,192,259588,1,0,0:0:0:0:
256,192,259676,1,0,0:0:0:0:
256,192,259764,1,8,0:0:0:0:
256,192,260117,1,0,0:0:0:0:
256,192,260294,1,8,0:0:0:0:
256,192,260470,1,8,0:0:0:0:
256,192,260558,1,0,0:0:0:0:
256,192,260646,1,0,0:0:0:0:
256,192,260823,1,8,0:0:0:0:
256,192,261176,1,8,0:0:0:0:
256,192,261353,1,0,0:0:0:0:
256,192,261529,1,8,0:0:0:0:
256,192,261706,1,0,0:0:0:0:
256,192,261794,1,0,0:0:0:0:
256,192,261882,1,8,0:0:0:0:
256,192,262059,1,0,0:0:0:0:
256,192,262235,1,8,0:0:0:0:
256,192,262412,1,0,0:0:0:0:
256,192,262500,1,0,0:0:0:0:
256,192,262588,1,8,0:0:0:0:
256,192,262941,1,8,0:0:0:0:
256,192,263118,1,8,0:0:0:0:
256,192,263294,1,0,0:0:0:0:
256,192,263470,1,8,0:0:0:0:
256,192,263558,1,0,0:0:0:0:
256,192,263647,1,0,0:0:0:0:
256,192,263999,1,8,0:0:0:0:
256,192,264088,1,0,0:0:0:0:
256,192,264176,1,0,0:0:0:0:
256,192,264352,1,8,0:0:0:0:
256,192,264529,1,0,0:0:0:0:
256,192,264705,1,0,0:0:0:0:
256,192,264882,1,8,0:0:0:0:
256,192,265058,1,0,0:0:0:0:
256,192,265147,1,0,0:0:0:0:
256,192,265235,1,8,0:0:0:0:
256,192,265411,1,0,0:0:0:0:
256,192,265764,1,0,0:0:0:0:
256,192,265941,1,8,0:0:0:0:
256,192,266029,1,0,0:0:0:0:
256,192,266117,1,0,0:0:0:0:
256,192,266294,1,8,0:0:0:0:
256,192,266470,1,0,0:0:0:0:
256,192,266823,1,8,0:0:0:0:
256,192,266911,1,0,0:0:0:0:
256,192,266999,1,0,0:0:0:0:
256,192,267176,1,8,0:0:0:0:
256,192,267352,1,0,0:0:0:0:
256,192,267529,1,0,0:0:0:0:
256,192,267705,1,8,0:0:0:0:
256,192,267794,1,0,0:0:0:0:
256,192,267882,1,0,0:0:0:0:
256,192,268058,1,8,0:0:0:0:
256,192,268235,1,0,0:0:0:0:
256,192,268588,1,0,0:0:0:0:
256,192,268764,1,8,0:0:0:0:
256,192,268852,1,0,0:0:0:0:
256,192,268941,1,0,0:0:0:0:
256,192,269117,1,8,0:0:0:0:
256,192,269294,1,0,0:0:0:0:
256,192,269647,1,8,0:0:0:0:
256,192,269823,1,0,0:0:0:0:
256,192,269999,1,8,0:0:0:0:
256,192,270176,1,0,0:0:0:0:
256,192,270352,1,0,0:0:0:0:
256,192,270529,1,8,0:0:0:0:
256,192,270705,1,0,0:0:0:0:
256,192,270882,1,8,0:0:0:0:
256,192,271058,1,0,0:0:0:0:
256,192,271235,1,0,0:0:0:0:
256,192,271411,1,0,0:0:0:0:
256,192,271588,1,8,0:0:0:0:
256,192,271764,1,0,0:0:0:0:
256,192,271941,1,8,0:0:0:0:
256,192,272117,1,0,0:0:0:0:
256,192,272294,1,0,0:0:0:0:
256,192,272470,1,8,0:0:0:0:
256,192,272558,1,0,0:0:0:0:
256,192,272647,1,0,0:0:0:0:
256,192,272823,1,0,0:0:0:0:
256,192,272911,1,0,0:0:0:0:
256,192,272999,1,0,0:0:0:0:
256,192,273176,1,0,0:0:0:0:
256,192,273264,1,0,0:0:0:0:
256,192,273352,1,0,0:0:0:0:
256,192,273529,1,0,0:0:0:0:
256,192,273617,1,0,0:0:0:0:
256,192,273705,1,8,0:0:0:0:
96,192,273882,2,0,P|256:128|352:192,1,279.119923172762
256,192,274941,1,12,0:0:0:0:
256,192,275294,1,8,0:0:0:0:
256,192,275470,1,0,0:0:0:0:
256,192,275558,1,0,0:0:0:0:
256,192,275646,1,8,0:0:0:0:
256,192,275823,1,0,0:0:0:0:
256,192,275911,1,0,0:0:0:0:
256,192,275999,1,0,0:0:0:0:
256,192,276088,1,0,0:0:0:0:
256,192,276176,1,8,0:0:0:0:
256,192,276352,1,0,0:0:0:0:
256,192,276529,1,8,0:0:0:0:
256,192,276617,1,0,0:0:0:0:
256,192,276705,1,0,0:0:0:0:
256,192,276882,1,0,0:0:0:0:
256,192,276970,1,8,0:0:0:0:
256,192,277058,1,0,0:0:0:0:
256,192,277147,1,0,0:0:0:0:
256,192,277235,1,8,0:0:0:0:
256,192,277411,1,0,0:0:0:0:
256,192,277588,1,8,0:0:0:0:
256,192,277676,1,8,0:0:0:0:
256,192,277764,1,0,0:0:0:0:
256,192,277941,1,0,0:0:0:0:
256,192,278029,1,0,0:0:0:0:
256,192,278117,1,8,0:0:0:0:
256,192,278294,1,0,0:0:0:0:
256,192,278382,1,0,0:0:0:0:
256,192,278470,1,8,0:0:0:0:
256,192,278647,1,0,0:0:0:0:
256,192,278735,1,0,0:0:0:0:
256,192,278823,1,0,0:0:0:0:
256,192,278911,1,0,0:0:0:0:
256,192,278999,1,8,0:0:0:0:
256,192,279176,1,0,0:0:0:0:
256,192,279352,1,8,0:0:0:0:
256,192,279441,1,0,0:0:0:0:
256,192,279529,1,0,0:0:0:0:
256,192,279705,1,0,0:0:0:0:
256,192,279794,1,8,0:0:0:0:
256,192,279882,1,0,0:0:0:0:
256,192,280058,1,8,0:0:0:0:
256,192,280235,1,0,0:0:0:0:
256,192,280323,1,8,0:0:0:0:
256,192,280411,1,8,0:0:0:0:
256,192,280499,1,8,0:0:0:0:
256,192,280588,1,0,0:0:0:0:
256,192,280764,1,0,0:0:0:0:
256,192,280852,1,0,0:0:0:0:
256,192,280941,1,8,0:0:0:0:
256,192,281117,1,0,0:0:0:0:
256,192,281205,1,0,0:0:0:0:
256,192,281294,1,8,0:0:0:0:
256,192,281470,1,0,0:0:0:0:
256,192,281558,1,8,0:0:0:0:
256,192,281647,1,0,0:0:0:0:
256,192,281823,1,8,0:0:0:0:
256,192,281999,1,0,0:0:0:0:
256,192,282088,1,0,0:0:0:0:
256,192,282176,1,8,0:0:0:0:
256,192,282264,1,0,0:0:0:0:
256,192,282352,1,0,0:0:0:0:
256,192,282529,1,0,0:0:0:0:
256,192,282617,1,8,0:0:0:0:
256,192,282705,1,0,0:0:0:0:
256,192,282882,1,8,0:0:0:0:
256,192,283058,1,0,0:0:0:0:
256,192,283147,1,0,0:0:0:0:
256,192,283235,1,8,0:0:0:0:
256,192,283323,1,0,0:0:0:0:
256,192,283411,1,0,0:0:0:0:
256,192,283588,1,0,0:0:0:0:
256,192,283764,1,8,0:0:0:0:
256,192,283852,1,0,0:0:0:0:
256,192,283941,1,0,0:0:0:0:
256,192,284117,1,8,0:0:0:0:
256,192,284294,1,0,0:0:0:0:
256,192,284382,1,8,0:0:0:0:
256,192,284470,1,0,0:0:0:0:
256,192,284647,1,8,0:0:0:0:
256,192,284823,1,0,0:0:0:0:
256,192,284911,1,0,0:0:0:0:
256,192,284999,1,8,0:0:0:0:
256,192,285088,1,8,0:0:0:0:
256,192,285176,1,0,0:0:0:0:
256,192,285706,1,8,0:0:0:0:
256,192,285882,1,0,0:0:0:0:
256,192,286059,1,8,0:0:0:0:
256,192,286235,1,0,0:0:0:0:
256,192,286411,1,8,0:0:0:0:
256,192,286499,1,8,0:0:0:0:
256,192,286588,1,8,0:0:0:0:
256,192,286764,1,0,0:0:0:0:
256,192,286852,1,0,0:0:0:0:
256,192,286941,1,8,0:0:0:0:
256,192,287117,1,0,0:0:0:0:
256,192,287205,1,0,0:0:0:0:
256,192,287294,1,8,0:0:0:0:
256,192,287470,1,0,0:0:0:0:
256,192,287558,1,0,0:0:0:0:
256,192,287647,1,8,0:0:0:0:
256,192,287735,1,0,0:0:0:0:
256,192,287823,1,8,0:0:0:0:
256,192,287911,1,8,0:0:0:0:
256,192,287999,1,0,0:0:0:0:
256,192,288176,1,8,0:0:0:0:
256,192,288264,1,0,0:0:0:0:
256,192,288352,1,0,0:0:0:0:
256,192,288529,1,8,0:0:0:0:
256,192,288617,1,0,0:0:0:0:
256,192,288705,1,8,0:0:0:0:
256,192,288794,1,8,0:0:0:0:
256,192,288882,1,8,0:0:0:0:
256,192,288970,1,0,0:0:0:0:
256,192,289058,1,8,0:0:0:0:
256,192,289147,1,0,0:0:0:0:
256,192,289235,1,0,0:0:0:0:
256,192,289411,1,8,0:0:0:0:
256,192,289588,1,0,0:0:0:0:
256,192,289676,1,0,0:0:0:0:
256,192,289764,1,8,0:0:0:0:
256,192,289941,1,0,0:0:0:0:
256,192,290029,1,0,0:0:0:0:
256,192,290117,1,8,0:0:0:0:
256,192,290205,1,0,0:0:0:0:
256,192,290294,1,0,0:0:0:0:
256,192,290470,1,8,0:0:0:0:
256,192,290647,1,0,0:0:0:0:
256,192,290735,1,0,0:0:0:0:
256,192,290823,1,0,0:0:0:0:
256,192,290911,1,8,0:0:0:0:
256,192,290999,1,0,0:0:0:0:
256,192,291088,1,0,0:0:0:0:
256,192,291176,1,8,0:0:0:0:
256,192,291352,1,0,0:0:0:0:
256,192,291441,1,0,0:0:0:0:
256,192,291529,1,0,0:0:0:0:
256,192,291617,1,8,0:0:0:0:
256,192,291705,1,0,0:0:0:0:
256,192,291794,1,0,0:0:0:0:
256,192,291882,1,8,0:0:0:0:
256,192,292058,1,0,0:0:0:0:
256,192,292235,1,8,0:0:0:0:
256,192,292411,1,0,0:0:0:0:
256,192,292499,1,0,0:0:0:0:
256,192,292588,1,8,0:0:0:0:
256,192,292764,1,0,0:0:0:0:
256,192,292852,1,0,0:0:0:0:
256,192,292941,1,8,0:0:0:0:
256,192,293117,1,0,0:0:0:0:
256,192,293205,1,0,0:0:0:0:
256,192,293294,1,8,0:0:0:0:
256,192,293382,1,0,0:0:0:0:
256,192,293470,1,8,0:0:0:0:
256,192,293558,1,8,0:0:0:0:
256,192,293646,1,0,0:0:0:0:
256,192,293823,1,0,0:0:0:0:
256,192,293911,1,0,0:0:0:0:
256,192,293999,1,0,0:0:0:0:
256,192,294088,1,0,0:0:0:0:
256,192,294176,1,8,0:0:0:0:
256,192,294264,1,0,0:0:0:0:
256,192,294352,1,0,0:0:0:0:
256,192,294441,1,8,0:0:0:0:
256,192,294529,1,8,0:0:0:0:
256,192,294617,1,0,0:0:0:0:
256,192,294705,1,8,0:0:0:0:
256,192,294794,1,0,0:0:0:0:
256,192,294882,1,0,0:0:0:0:
256,192,294970,1,0,0:0:0:0:
256,192,295058,1,8,0:0:0:0:
256,192,295235,1,0,0:0:0:0:
256,192,295411,1,8,0:0:0:0:
256,192,295588,1,0,0:0:0:0:
256,192,295941,1,0,0:0:0:0:
256,192,296117,1,8,0:0:0:0:
256,192,296294,1,8,0:0:0:0:
256,192,296470,1,4,0:0:0:0:
256,192,296647,1,4,0:0:0:0:
256,192,296823,1,4,0:0:0:0:
256,192,296999,1,12,0:0:0:0:
256,192,297176,1,4,0:0:0:0:
256,192,297352,1,4,0:0:0:0:
256,192,297529,1,4,0:0:0:0:
256,192,297882,1,0,0:0:0:0:
256,192,298588,1,8,0:0:0:0:
256,192,299294,1,8,0:0:0:0:
256,192,299999,1,8,0:0:0:0:
256,192,300264,1,8,0:0:0:0:
256,192,300529,1,8,0:0:0:0:
256,192,300705,1,0,0:0:0:0:
256,192,300882,1,8,0:0:0:0:
256,192,301058,1,0,0:0:0:0:
256,192,301411,1,0,0:0:0:0:
256,192,301588,1,8,0:0:0:0:
256,192,301764,1,0,0:0:0:0:
256,192,301941,1,8,0:0:0:0:
256,192,302294,1,8,0:0:0:0:
256,192,302470,1,0,0:0:0:0:
256,192,302647,1,0,0:0:0:0:
256,192,302999,1,8,0:0:0:0:
256,192,303529,1,0,0:0:0:0:
256,192,304235,1,8,0:0:0:0:
256,192,304941,1,8,0:0:0:0:
256,192,305647,1,8,0:0:0:0:
256,192,305911,1,8,0:0:0:0:
256,192,306176,1,0,0:0:0:0:
256,192,306352,1,8,0:0:0:0:
256,192,306529,1,8,0:0:0:0:
256,192,306705,1,0,0:0:0:0:
256,192,307058,1,8,0:0:0:0:
256,192,307235,1,8,0:0:0:0:
256,192,307411,1,0,0:0:0:0:
256,192,307588,1,8,0:0:0:0:
256,192,307941,1,8,0:0:0:0:
256,192,308117,1,0,0:0:0:0:
256,192,308294,1,0,0:0:0:0:
256,192,308647,1,8,0:0:0:0:
256,192,309176,1,0,0:0:0:0:
256,192,309529,1,0,0:0:0:0:
256,192,309882,1,8,0:0:0:0:
256,192,310235,1,0,0:0:0:0:
256,192,310588,1,8,0:0:0:0:
256,192,310941,1,0,0:0:0:0:
256,192,311294,1,8,0:0:0:0:
256,192,311558,1,8,0:0:0:0:
256,192,311647,1,0,0:0:0:0:
256,192,311823,1,8,0:0:0:0:
256,192,311999,1,0,0:0:0:0:
256,192,312176,1,8,0:0:0:0:
256,192,312352,1,0,0:0:0:0:
256,192,312705,1,0,0:0:0:0:
256,192,312882,1,8,0:0:0:0:
256,192,313058,1,0,0:0:0:0:
256,192,313235,1,8,0:0:0:0:
256,192,313499,1,0,0:0:0:0:
256,192,313588,1,8,0:0:0:0:
256,192,313764,1,0,0:0:0:0:
256,192,313941,1,0,0:0:0:0:
256,192,314205,1,0,0:0:0:0:
256,192,314294,1,8,0:0:0:0:
256,192,314470,1,0,0:0:0:0:
256,192,314823,1,8,0:0:0:0:
256,192,314999,1,0,0:0:0:0:
256,192,315176,1,0,0:0:0:0:
256,192,315352,1,0,0:0:0:0:
256,192,315529,1,8,0:0:0:0:
256,192,315705,1,8,0:0:0:0:
256,192,315882,1,0,0:0:0:0:
256,192,316058,1,0,0:0:0:0:
256,192,316235,1,8,0:0:0:0:
256,192,316411,1,8,0:0:0:0:
256,192,316588,1,8,0:0:0:0:
256,192,316764,1,0,0:0:0:0:
256,192,316941,1,8,0:0:0:0:
256,192,317117,1,0,0:0:0:0:
256,192,317205,1,8,0:0:0:0:
256,192,317382,1,8,0:0:0:0:
256,192,317470,1,0,0:0:0:0:
256,192,317647,1,0,0:0:0:0:
256,192,317735,1,0,0:0:0:0:
256,192,317823,1,8,0:0:0:0:
256,192,317911,1,0,0:0:0:0:
256,192,317999,1,8,0:0:0:0:
256,192,318088,1,8,0:0:0:0:
256,192,318176,1,8,0:0:0:0:
256,192,318264,1,0,0:0:0:0:
256,192,318352,1,0,0:0:0:0:
256,192,318441,1,0,0:0:0:0:
256,192,318529,1,8,0:0:0:0:
256,192,318617,1,0,0:0:0:0:
256,192,318705,1,8,0:0:0:0:
256,192,318794,1,0,0:0:0:0:
256,192,318882,1,8,0:0:0:0:
256,192,318970,1,8,0:0:0:0:
256,192,319058,1,0,0:0:0:0:
256,192,319323,1,8,0:0:0:0:
256,192,319588,1,8,0:0:0:0:
256,192,319676,1,0,0:0:0:0:
256,192,319764,1,8,0:0:0:0:
256,192,320117,1,0,0:0:0:0:
256,192,320470,1,0,0:0:0:0:
256,192,321882,1,0,0:0:0:0:
256,192,323294,1,8,0:0:0:0:
256,192,324705,1,8,0:0:0:0:
256,192,325411,1,0,0:0:0:0:
256,192,325764,1,8,0:0:0:0:
256,192,326117,1,8,0:0:0:0:
256,192,326823,1,0,0:0:0:0:
256,192,327176,1,0,0:0:0:0:
256,192,327529,1,8,0:0:0:0:
256,192,327882,1,8,0:0:0:0:
256,192,328235,1,0,0:0:0:0:
256,192,328588,1,8,0:0:0:0:
256,192,329117,1,0,0:0:0:0:
256,192,331058,1,0,0:0:0:0:
256,192,331764,1,0,0:0:0:0:
256,192,333176,1,0,0:0:0:0:
256,192,334588,1,8,0:0:0:0:
256,192,335999,1,8,0:0:0:0:
256,192,336705,1,0,0:0:0:0:
256,192,337058,1,8,0:0:0:0:
256,192,337411,1,8,0:0:0:0:
256,192,338117,1,0,0:0:0:0:
256,192,338470,1,0,0:0:0:0:
256,192,338823,1,8,0:0:0:0:
256,192,339176,1,8,0:0:0:0:
256,192,339529,1,0,0:0:0:0:
256,192,340235,1,8,0:0:0:0:
256,192,342352,1,0,0:0:0:0:
256,192,343058,1,8,0:0:0:0:
256,192,343147,1,0,0:0:0:0:
256,192,343235,1,0,0:0:0:0:
256,192,343323,1,0,0:0:0:0:
256,192,343411,1,8,0:0:0:0:
256,192,343499,1,0,0:0:0:0:
256,192,343588,1,0,0:0:0:0:
256,192,343676,1,0,0:0:0:0:
256,192,343764,1,8,0:0:0:0:
256,192,343852,1,0,0:0:0:0:
256,192,343941,1,8,0:0:0:0:
256,192,344029,1,0,0:0:0:0:
256,192,344117,1,8,0:0:0:0:
256,192,344294,1,8,0:0:0:0:
256,192,344382,1,0,0:0:0:0:
256,192,344470,1,0,0:0:0:0:
256,192,344647,1,0,0:0:0:0:
256,192,344735,1,0,0:0:0:0:
256,192,344823,1,8,0:0:0:0:
256,192,344999,1,0,0:0:0:0:
256,192,345088,1,0,0:0:0:0:
256,192,345176,1,8,0:0:0:0:
256,192,345264,1,0,0:0:0:0:
256,192,345352,1,8,0:0:0:0:
256,192,345441,1,0,0:0:0:0:
256,192,345529,1,8,0:0:0:0:
256,192,345617,1,0,0:0:0:0:
256,192,345705,1,0,0:0:0:0:
256,192,345794,1,8,0:0:0:0:
256,192,345882,1,0,0:0:0:0:
256,192,346058,1,0,0:0:0:0:
256,192,346147,1,8,0:0:0:0:
256,192,346235,1,0,0:0:0:0:
256,192,346411,1,8,0:0:0:0:
256,192,346588,1,0,0:0:0:0:
256,192,346676,1,0,0:0:0:0:
256,192,346764,1,8,0:0:0:0:
256,192,346852,1,8,0:0:0:0:
256,192,346941,1,0,0:0:0:0:
256,192,347029,1,0,0:0:0:0:
256,192,347117,1,8,0:0:0:0:
256,192,347205,1,8,0:0:0:0:
256,192,347294,1,0,0:0:0:0:
256,192,347470,1,0,0:0:0:0:
256,192,347558,1,8,0:0:0:0:
256,192,347647,1,0,0:0:0:0:
256,192,347823,1,0,0:0:0:0:
256,192,347911,1,8,0:0:0:0:
256,192,347999,1,8,0:0:0:0:
256,192,348088,1,0,0:0:0:0:
256,192,348176,1,0,0:0:0:0:
256,192,348264,1,0,0:0:0:0:
256,192,348352,1,8,0:0:0:0:
256,192,348441,1,0,0:0:0:0:
256,192,348529,1,8,0:0:0:0:
256,192,348617,1,8,0:0:0:0:
256,192,348705,1,0,0:0:0:0:
256,192,348882,1,0,0:0:0:0:
256,192,348970,1,0,0:0:0:0:
256,192,349058,1,8,0:0:0:0:
256,192,349235,1,0,0:0:0:0:
256,192,349323,1,0,0:0:0:0:
256,192,349411,1,8,0:0:0:0:
256,192,349499,1,0,0:0:0:0:
256,192,349588,1,0,0:0:0:0:
256,192,349676,1,0,0:0:0:0:
256,192,349764,1,8,0:0:0:0:
256,192,349852,1,0,0:0:0:0:
256,192,349941,1,0,0:0:0:0:
256,192,350029,1,0,0:0:0:0:
256,192,350117,1,8,0:0:0:0:
256,192,350205,1,8,0:0:0:0:
256,192,350294,1,0,0:0:0:0:
256,192,350382,1,0,0:0:0:0:
256,192,350470,1,8,0:0:0:0:
256,192,350558,1,8,0:0:0:0:
256,192,350647,1,0,0:0:0:0:
256,192,350735,1,0,0:0:0:0:
256,192,350823,1,8,0:0:0:0:
256,192,350999,1,0,0:0:0:0:
256,192,351088,1,0,0:0:0:0:
256,192,351176,1,8,0:0:0:0:
256,192,351264,1,0,0:0:0:0:
256,192,351352,1,8,0:0:0:0:
256,192,351529,1,8,0:0:0:0:
256,192,351705,1,0,0:0:0:0:
256,192,351794,1,0,0:0:0:0:
256,192,351882,1,8,0:0:0:0:
256,192,351970,1,0,0:0:0:0:
256,192,352058,1,0,0:0:0:0:
256,192,352235,1,0,0:0:0:0:
256,192,352323,1,0,0:0:0:0:
256,192,352411,1,0,0:0:0:0:
256,192,352499,1,8,0:0:0:0:
256,192,352588,1,8,0:0:0:0:
256,192,352676,1,0,0:0:0:0:
256,192,352764,1,0,0:0:0:0:
256,192,352852,1,8,0:0:0:0:
256,192,352941,1,0,0:0:0:0:
256,192,353117,1,0,0:0:0:0:
256,192,353205,1,0,0:0:0:0:
256,192,353294,1,8,0:0:0:0:
256,192,353470,1,0,0:0:0:0:
256,192,353558,1,8,0:0:0:0:
256,192,353647,1,0,0:0:0:0:
256,192,353735,1,8,0:0:0:0:
256,192,353823,1,8,0:0:0:0:
256,192,353911,1,0,0:0:0:0:
256,192,353999,1,8,0:0:0:0:
256,192,354088,1,0,0:0:0:0:
256,192,354176,1,0,0:0:0:0:
256,192,354264,1,0,0:0:0:0:
256,192,354352,1,0,0:0:0:0:
256,192,354529,1,0,0:0:0:0:
256,192,354617,1,0,0:0:0:0:
256,192,354705,1,0,0:0:0:0:
256,192,354882,1,0,0:0:0:0:
256,192,354970,1,8,0:0:0:0:
256,192,355058,1,0,0:0:0:0:
256,192,355147,1,8,0:0:0:0:
256,192,355235,1,0,0:0:0:0:
256,192,355323,1,0,0:0:0:0:
256,192,355411,1,8,0:0:0:0:
256,192,355588,1,0,0:0:0:0:
256,192,355676,1,0,0:0:0:0:
256,192,355764,1,8,0:0:0:0:
256,192,355940,1,0,0:0:0:0:
256,192,356028,1,0,0:0:0:0:
256,192,356117,1,0,0:0:0:0:
256,192,356294,1,0,0:0:0:0:
256,192,356382,1,8,0:0:0:0:
256,192,356470,1,0,0:0:0:0:
256,192,356558,1,8,0:0:0:0:
256,192,356647,1,0,0:0:0:0:
256,192,356735,1,0,0:0:0:0:
256,192,356823,1,8,0:0:0:0:
256,192,356999,1,0,0:0:0:0:
256,192,357088,1,8,0:0:0:0:
256,192,357176,1,0,0:0:0:0:
256,192,357352,1,0,0:0:0:0:
256,192,357441,1,0,0:0:0:0:
256,192,357529,1,8,0:0:0:0:
256,192,357705,1,0,0:0:0:0:
256,192,357794,1,0,0:0:0:0:
256,192,357882,1,8,0:0:0:0:
256,192,357970,1,8,0:0:0:0:
256,192,358058,1,8,0:0:0:0:
256,192,358147,1,8,0:0:0:0:
256,192,358235,1,8,0:0:0:0:
256,192,358411,1,0,0:0:0:0:
256,192,358499,1,0,0:0:0:0:
256,192,358588,1,8,0:0:0:0:
256,192,358764,1,8,0:0:0:0:
256,192,358852,1,8,0:0:0:0:
256,192,358941,1,8,0:0:0:0:
256,192,359117,1,0,0:0:0:0:
256,192,359205,1,0,0:0:0:0:
256,192,359294,1,8,0:0:0:0:
256,192,359382,1,0,0:0:0:0:
256,192,359470,1,8,0:0:0:0:
256,192,359558,1,0,0:0:0:0:
256,192,359647,1,8,0:0:0:0:
256,192,359735,1,8,0:0:0:0:
256,192,359823,1,0,0:0:0:0:
256,192,359911,1,0,0:0:0:0:
256,192,359999,1,0,0:0:0:0:
256,192,360176,1,0,0:0:0:0:
256,192,360264,1,0,0:0:0:0:
256,192,360353,1,0,0:0:0:0:
256,192,360441,1,8,0:0:0:0:
256,192,360529,1,8,0:0:0:0:
256,192,360617,1,8,0:0:0:0:
256,192,360706,1,8,0:0:0:0:
256,192,360794,1,0,0:0:0:0:
256,192,360882,1,0,0:0:0:0:
256,192,361059,1,8,0:0:0:0:
256,192,361147,1,0,0:0:0:0:
256,192,361235,1,0,0:0:0:0:
256,192,361411,1,8,0:0:0:0:
256,192,361499,1,8,0:0:0:0:
256,192,361588,1,0,0:0:0:0:
256,192,361676,1,0,0:0:0:0:
256,192,361764,1,8,0:0:0:0:
256,192,361853,1,8,0:0:0:0:
256,192,361941,1,8,0:0:0:0:
256,192,362029,1,0,0:0:0:0:
256,192,362117,1,8,0:0:0:0:
256,192,362205,1,0,0:0:0:0:
256,192,362294,1,0,0:0:0:0:
256,192,362470,1,8,0:0:0:0:
256,192,362647,1,0,0:0:0:0:
256,192,362823,1,8,0:0:0:0:
256,192,362911,1,0,0:0:0:0:
256,192,362999,1,0,0:0:0:0:
256,192,363088,1,0,0:0:0:0:
256,192,363176,1,8,0:0:0:0:
256,192,363352,1,0,0:0:0:0:
256,192,363441,1,0,0:0:0:0:
256,192,363529,1,8,0:0:0:0:
256,192,363617,1,0,0:0:0:0:
256,192,363705,1,0,0:0:0:0:
256,192,363794,1,8,0:0:0:0:
256,192,363882,1,0,0:0:0:0:
256,192,363970,1,8,0:0:0:0:
256,192,364058,1,0,0:0:0:0:
256,192,364147,1,0,0:0:0:0:
256,192,364235,1,8,0:0:0:0:
