osu file format v14

[General]
AudioFilename: audio.mp3
AudioLeadIn: 0
PreviewTime: 68677
Countdown: 0
SampleSet: Soft
StackLeniency: 0.7
Mode: 3
LetterboxInBreaks: 0
SpecialStyle: 0
WidescreenStoryboard: 1

[Editor]
DistanceSpacing: 0.6
BeatDivisor: 4
GridSize: 16
TimelineZoom: 1.5

[Metadata]
Title:YELL EX MAKINA!
TitleUnicode:エール・エクス・マキナ!
Artist:MAKINA prod. Rihito Tsuboi (BNSI)
ArtistUnicode:まきな prod. 坪井リヒト (BNSI)
Creator:MarioUniverseZ
Version:Normal!
Source:太鼓の達人
Tags:video game electronic japanese フューチャー・ラボ メカデス。 ドキドキ胸きゅん おまつりタイム future labo lab mecha desu. mecha death Doki-Doki Mune-Kyun Omatsuri TIME namco ナムコ 765 樺澤綾 Kabasawa Ryo taiko no tatsujin ニジイロVer. nijiiro version arcade 2020年3月バージョン 22周年 デウス・エクス・マキナ
BeatmapID:4046721
BeatmapSetID:1949847

[Difficulty]
HPDrainRate:7
CircleSize:7
OverallDifficulty:7
ApproachRate:5
SliderMultiplier:1.4
SliderTickRate:1

[Events]
//Background and Video events
0,0,"105200373_p3.jpg",0,0
//Break Periods
//Storyboard Layer 0 (Background)
//Storyboard Layer 1 (Fail)
//Storyboard Layer 2 (Pass)
//Storyboard Layer 3 (Foreground)
//Storyboard Layer 4 (Overlay)
//Storyboard Sound Samples

[TimingPoints]
2389,339.943342776204,4,2,1,60,1,0
13267,-100,4,2,1,70,0,1
24145,-100,4,2,1,60,0,0
69017,-100,4,2,1,70,0,1
89414,-100,4,2,1,60,0,0
93493,375,4,2,1,60,1,0
93493,-90.9090909090909,4,2,1,60,0,0
99493,-90.9090909090909,4,2,1,60,0,1
102493,-90.9090909090909,4,2,1,60,0,0
105493,-90.9090909090909,4,2,1,60,0,1
108493,283.018867924528,4,2,1,60,1,0
108493,-120.481927710843,4,2,1,60,0,0
110474,-120.481927710843,4,2,1,60,0,1
115285,339.943342776204,4,2,1,60,1,0
126163,-100,4,2,1,70,0,1
131602,-100,4,2,1,60,0,0
131942,-100,4,2,1,70,0,1
147919,216.998191681736,4,2,1,70,1,1
147919,-156.25,4,2,1,70,0,1
149654,300,4,2,1,70,1,1
149654,-113.636363636364,4,2,1,70,0,1
151454,289.855072463768,4,2,1,60,1,0
151454,-117.647058823529,4,2,1,60,0,0

[HitObjects]
109,192,2389,1,2,0:0:0:0:
402,192,2389,1,4,0:0:0:0:
402,192,2728,1,0,0:0:0:0:
329,192,3068,1,0,0:0:0:0:
182,192,3238,1,0,0:0:0:0:
256,192,3578,1,0,0:0:0:0:
182,192,3918,1,0,0:0:0:0:
36,192,4258,1,0,0:0:0:0:
109,192,4598,1,0,0:0:0:0:
256,192,4768,1,0,0:0:0:0:
402,192,4938,1,0,0:0:0:0:
109,192,5108,1,0,0:0:0:0:
109,192,5448,1,0,0:0:0:0:
182,192,5788,1,0,0:0:0:0:
329,192,5958,1,0,0:0:0:0:
256,192,6298,1,0,0:0:0:0:
329,192,6638,1,0,0:0:0:0:
475,192,6978,1,0,0:0:0:0:
402,192,7318,1,0,0:0:0:0:
256,192,7488,1,0,0:0:0:0:
109,192,7658,1,0,0:0:0:0:
36,192,7828,1,10,0:0:0:0:
475,192,7828,1,4,0:0:0:0:
182,192,8168,1,2,0:0:0:0:
329,192,8168,1,8,0:0:0:0:
402,192,8507,1,2,0:0:0:0:
475,192,8507,1,8,0:0:0:0:
256,192,8677,1,8,0:0:0:0:
36,192,8847,1,2,0:0:0:0:
109,192,8847,1,8,0:0:0:0:
329,192,9187,1,2,0:0:0:0:
475,192,9187,1,8,0:0:0:0:
182,192,9357,1,8,0:0:0:0:
329,192,9527,1,2,0:0:0:0:
475,192,9527,1,8,0:0:0:0:
36,192,9697,1,8,0:0:0:0:
109,192,9697,1,0,0:0:0:0:
36,192,10037,1,8,0:0:0:0:
182,192,10037,1,0,0:0:0:0:
402,192,10207,1,2,0:0:0:0:
475,192,10207,1,8,0:0:0:0:
109,192,10547,1,8,0:0:0:0:
256,192,10547,1,0,0:0:0:0:
402,192,10717,1,2,0:0:0:0:
182,192,10887,1,8,0:0:0:0:
329,192,10887,1,0,0:0:0:0:
36,192,11057,1,2,0:0:0:0:
256,192,11227,1,8,0:0:0:0:
475,192,11227,1,0,0:0:0:0:
329,192,11397,1,8,0:0:0:0:
109,192,11567,1,8,0:0:0:0:
402,192,11567,1,0,0:0:0:0:
182,192,11737,1,8,0:0:0:0:
256,192,11907,1,0,0:0:0:0:
36,192,12162,1,0,0:0:0:0:
182,192,12332,1,0,0:0:0:0:
329,192,12502,1,0,0:0:0:0:
475,192,12587,128,0,12927:0:0:0:0:
36,192,12927,128,0,13097:0:0:0:0:
182,192,13097,128,0,13267:0:0:0:0:
329,192,13267,1,2,0:0:0:0:
475,192,13267,1,4,0:0:0:0:
109,192,13437,1,0,0:0:0:0:
256,192,13607,1,2,0:0:0:0:
402,192,13607,1,8,0:0:0:0:
109,192,13777,1,0,0:0:0:0:
475,192,13947,1,2,0:0:0:0:
329,192,14117,1,0,0:0:0:0:
36,192,14287,1,2,0:0:0:0:
182,192,14287,1,8,0:0:0:0:
402,192,14456,1,0,0:0:0:0:
109,192,14626,1,2,0:0:0:0:
329,192,14796,1,0,0:0:0:0:
36,192,14966,1,2,0:0:0:0:
182,192,14966,1,8,0:0:0:0:
475,192,15136,1,0,0:0:0:0:
256,192,15306,1,2,0:0:0:0:
475,192,15476,1,0,0:0:0:0:
182,192,15646,1,2,0:0:0:0:
402,192,15646,1,8,0:0:0:0:
109,192,15816,1,0,0:0:0:0:
329,192,15986,1,2,0:0:0:0:
182,192,16156,1,0,0:0:0:0:
256,192,16326,1,2,0:0:0:0:
402,192,16326,1,8,0:0:0:0:
109,192,16496,1,0,0:0:0:0:
475,192,16666,1,2,0:0:0:0:
36,192,16836,1,0,0:0:0:0:
182,192,17006,1,2,0:0:0:0:
402,192,17006,1,8,0:0:0:0:
109,192,17176,1,0,0:0:0:0:
329,192,17346,1,2,0:0:0:0:
475,192,17346,128,0,17516:0:0:0:0:
36,192,17686,128,2,17856:0:0:0:0:
182,192,17686,1,8,0:0:0:0:
109,192,18026,1,2,0:0:0:0:
402,192,18026,1,8,0:0:0:0:
109,192,18281,1,8,0:0:0:0:
402,192,18281,1,2,0:0:0:0:
182,192,18536,128,10,18876:0:0:0:0:
329,192,18536,128,4,18876:0:0:0:0:
36,192,18876,1,0,0:0:0:0:
256,192,19046,1,2,0:0:0:0:
475,192,19046,1,8,0:0:0:0:
109,192,19216,1,0,0:0:0:0:
329,192,19386,1,2,0:0:0:0:
182,192,19556,1,0,0:0:0:0:
256,192,19726,1,2,0:0:0:0:
475,192,19726,1,8,0:0:0:0:
402,192,19896,1,0,0:0:0:0:
182,192,20066,1,2,0:0:0:0:
329,192,20236,1,0,0:0:0:0:
36,192,20405,1,2,0:0:0:0:
256,192,20405,1,8,0:0:0:0:
402,192,20575,1,0,0:0:0:0:
182,192,20745,1,2,0:0:0:0:
329,192,20915,1,0,0:0:0:0:
36,192,21085,1,2,0:0:0:0:
256,192,21085,1,8,0:0:0:0:
109,192,21255,1,0,0:0:0:0:
402,192,21425,1,2,0:0:0:0:
475,192,21425,1,0,0:0:0:0:
256,192,21680,1,2,0:0:0:0:
329,192,21680,1,0,0:0:0:0:
36,192,21935,1,2,0:0:0:0:
109,192,21935,1,0,0:0:0:0:
182,192,22190,1,2,0:0:0:0:
256,192,22190,1,0,0:0:0:0:
475,192,22445,1,2,0:0:0:0:
329,192,22530,1,2,0:0:0:0:
36,192,22615,1,2,0:0:0:0:
182,192,22700,1,2,0:0:0:0:
256,192,22785,1,2,0:0:0:0:
402,192,22785,1,0,0:0:0:0:
36,192,23125,128,2,23805:0:0:0:0:
475,192,23125,128,0,23805:0:0:0:0:
256,192,23805,1,0,0:0:0:0:
109,192,24145,1,2,0:0:0:0:
402,192,24145,1,4,0:0:0:0:
329,192,24825,1,0,0:0:0:0:
36,192,25335,1,2,0:0:0:0:
182,192,25335,1,0,0:0:0:0:
329,192,25845,1,0,0:0:0:0:
475,192,26185,1,0,0:0:0:0:
109,192,26864,1,2,0:0:0:0:
256,192,26864,1,0,0:0:0:0:
402,192,27544,1,0,0:0:0:0:
36,192,28054,1,2,0:0:0:0:
182,192,28054,1,0,0:0:0:0:
256,192,28564,1,0,0:0:0:0:
329,192,28904,1,2,0:0:0:0:
475,192,28904,1,0,0:0:0:0:
36,192,29244,1,2,0:0:0:0:
182,192,29244,1,0,0:0:0:0:
256,192,29584,1,2,0:0:0:0:
402,192,29584,1,4,0:0:0:0:
36,192,29839,1,0,0:0:0:0:
36,192,30094,1,0,0:0:0:0:
329,192,30264,1,0,0:0:0:0:
109,192,30519,1,0,0:0:0:0:
109,192,30774,1,0,0:0:0:0:
256,192,30944,1,2,0:0:0:0:
475,192,31199,1,0,0:0:0:0:
475,192,31454,1,0,0:0:0:0:
182,192,31624,1,0,0:0:0:0:
402,192,31879,1,0,0:0:0:0:
329,192,31964,1,0,0:0:0:0:
182,192,32134,1,0,0:0:0:0:
36,192,32304,1,2,0:0:0:0:
256,192,32473,1,0,0:0:0:0:
109,192,32643,1,2,0:0:0:0:
329,192,32813,1,0,0:0:0:0:
182,192,32983,1,2,0:0:0:0:
402,192,33153,1,0,0:0:0:0:
256,192,33323,1,2,0:0:0:0:
475,192,33493,1,0,0:0:0:0:
36,192,33663,1,2,0:0:0:0:
329,192,33663,1,4,0:0:0:0:
182,192,34003,1,2,0:0:0:0:
475,192,34003,1,4,0:0:0:0:
36,192,34343,1,2,0:0:0:0:
329,192,34343,1,4,0:0:0:0:
256,192,34513,1,0,0:0:0:0:
182,192,34683,128,0,35023:0:0:0:0:
109,192,35023,1,2,0:0:0:0:
402,192,35023,1,4,0:0:0:0:
256,192,35193,1,0,0:0:0:0:
329,192,35363,1,2,0:0:0:0:
475,192,35363,1,8,0:0:0:0:
36,192,35533,1,0,0:0:0:0:
256,192,35703,1,2,0:0:0:0:
109,192,35873,1,2,0:0:0:0:
329,192,36043,1,2,0:0:0:0:
475,192,36043,1,8,0:0:0:0:
36,192,36213,1,2,0:0:0:0:
256,192,36383,1,0,0:0:0:0:
402,192,36553,1,0,0:0:0:0:
182,192,36723,1,2,0:0:0:0:
329,192,36723,1,8,0:0:0:0:
475,192,36893,1,0,0:0:0:0:
36,192,37063,1,2,0:0:0:0:
182,192,37233,1,2,0:0:0:0:
329,192,37403,1,2,0:0:0:0:
475,192,37403,1,8,0:0:0:0:
109,192,37743,1,2,0:0:0:0:
182,192,37913,1,0,0:0:0:0:
256,192,38083,1,2,0:0:0:0:
402,192,38083,1,8,0:0:0:0:
109,192,38253,1,0,0:0:0:0:
475,192,38422,1,2,0:0:0:0:
329,192,38592,1,2,0:0:0:0:
36,192,38762,1,2,0:0:0:0:
182,192,38762,1,8,0:0:0:0:
475,192,38932,1,2,0:0:0:0:
329,192,39102,1,0,0:0:0:0:
109,192,39272,1,2,0:0:0:0:
256,192,39442,1,2,0:0:0:0:
402,192,39442,1,8,0:0:0:0:
109,192,39612,1,2,0:0:0:0:
475,192,39782,1,0,0:0:0:0:
329,192,39952,1,2,0:0:0:0:
36,192,40122,1,2,0:0:0:0:
182,192,40122,1,8,0:0:0:0:
256,192,40462,1,2,0:0:0:0:
475,192,40462,1,4,0:0:0:0:
182,192,40802,1,2,0:0:0:0:
402,192,40802,1,8,0:0:0:0:
109,192,41142,1,2,0:0:0:0:
329,192,41482,1,2,0:0:0:0:
475,192,41482,1,8,0:0:0:0:
182,192,41652,1,2,0:0:0:0:
36,192,41822,1,2,0:0:0:0:
256,192,41992,1,0,0:0:0:0:
329,192,42162,1,2,0:0:0:0:
475,192,42162,1,8,0:0:0:0:
109,192,42332,1,0,0:0:0:0:
256,192,42502,1,2,0:0:0:0:
36,192,42842,1,2,0:0:0:0:
182,192,42842,1,8,0:0:0:0:
475,192,43012,1,0,0:0:0:0:
402,192,43097,1,0,0:0:0:0:
329,192,43182,1,2,0:0:0:0:
109,192,43352,1,0,0:0:0:0:
182,192,43437,1,2,0:0:0:0:
256,192,43522,1,0,0:0:0:0:
36,192,43692,1,2,0:0:0:0:
475,192,43862,1,2,0:0:0:0:
329,192,44032,1,2,0:0:0:0:
182,192,44202,1,2,0:0:0:0:
36,192,44372,1,2,0:0:0:0:
475,192,44711,1,0,0:0:0:0:
36,192,44881,1,2,0:0:0:0:
256,192,44881,1,4,0:0:0:0:
329,192,45051,1,0,0:0:0:0:
109,192,45221,1,0,0:0:0:0:
402,192,45391,1,0,0:0:0:0:
182,192,45561,1,0,0:0:0:0:
475,192,45731,1,0,0:0:0:0:
36,192,45901,1,2,0:0:0:0:
329,192,45901,1,4,0:0:0:0:
256,192,46241,1,0,0:0:0:0:
109,192,46411,1,2,0:0:0:0:
329,192,46581,1,0,0:0:0:85:LR_Snare Fast.wav
475,192,46581,1,0,0:0:0:0:
182,192,46921,1,0,0:0:0:0:
329,192,47091,1,0,0:0:0:85:LR_Snare Fast.wav
475,192,47091,1,0,0:0:0:0:
329,192,47431,1,0,0:0:0:85:LR_Snare Fast.wav
475,192,47431,1,0,0:0:0:0:
182,192,47601,1,0,0:0:0:0:
36,192,47941,128,0,48281:0:0:0:85:LR_Snare Fast.wav
182,192,48281,128,0,48621:0:0:0:85:LR_Snare Fast.wav
475,192,48621,1,2,0:0:0:0:
256,192,48961,1,0,0:0:0:0:
402,192,49131,1,2,0:0:0:0:
36,192,49301,1,0,0:0:0:85:LR_Snare Fast.wav
182,192,49301,1,0,0:0:0:0:
329,192,49471,1,0,0:0:0:0:
36,192,49811,1,0,0:0:0:85:LR_Snare Fast.wav
182,192,49811,1,0,0:0:0:0:
402,192,49981,1,0,0:0:0:0:
36,192,50151,1,0,0:0:0:85:LR_Snare Fast.wav
182,192,50151,1,0,0:0:0:0:
329,192,50321,1,2,0:0:0:0:
475,192,50660,128,0,51000:0:0:0:85:LR_Snare Fast.wav
329,192,51000,128,0,51340:0:0:0:85:LR_Snare Fast.wav
36,192,51340,1,2,0:0:0:0:
182,192,51340,1,4,0:0:0:0:
256,192,51680,1,0,0:0:0:0:
109,192,51850,1,2,0:0:0:0:
329,192,52020,1,0,0:0:0:85:LR_Snare Fast.wav
475,192,52020,1,0,0:0:0:0:
36,192,52190,1,0,0:0:0:0:
182,192,52360,1,0,0:0:0:0:
329,192,52530,1,0,0:0:0:85:LR_Snare Fast.wav
475,192,52530,1,0,0:0:0:0:
109,192,52700,1,0,0:0:0:0:
329,192,52870,1,0,0:0:0:85:LR_Snare Fast.wav
475,192,52870,1,0,0:0:0:0:
36,192,53040,1,0,0:0:0:85:LR_Snare Fast.wav
182,192,53040,1,0,0:0:0:0:
329,192,53380,128,0,53720:0:0:0:85:LR_Snare Fast.wav
182,192,53720,128,0,54060:0:0:0:85:LR_Snare Fast.wav
402,192,54060,1,2,0:0:0:0:
256,192,54400,1,0,0:0:0:0:
402,192,54570,1,2,0:0:0:0:
36,192,54740,1,0,0:0:0:85:LR_Snare Fast.wav
182,192,54740,1,0,0:0:0:0:
109,192,55080,1,0,0:0:0:0:
329,192,55250,1,0,0:0:0:85:LR_Snare Fast.wav
475,192,55250,1,0,0:0:0:0:
256,192,55420,128,0,56779:0:0:0:0:
109,192,56100,1,0,0:0:0:0:
402,192,56270,1,0,0:0:0:0:
109,192,56439,1,0,0:0:0:0:
402,192,56609,1,0,0:0:0:0:
36,192,56779,1,2,0:0:0:0:
475,192,56779,1,4,0:0:0:0:
182,192,57034,1,0,0:0:0:0:
329,192,57289,1,0,0:0:0:0:
475,192,57459,1,0,0:0:0:0:
329,192,57714,1,0,0:0:0:0:
182,192,57969,1,0,0:0:0:0:
109,192,58139,1,0,0:0:0:0:
402,192,58394,1,0,0:0:0:0:
256,192,58649,1,0,0:0:0:0:
36,192,58819,1,0,0:0:0:0:
475,192,59074,1,0,0:0:0:0:
329,192,59329,1,0,0:0:0:0:
182,192,59499,1,4,0:0:0:0:
256,192,59754,1,0,0:0:0:0:
402,192,60009,1,0,0:0:0:0:
36,192,60179,1,0,0:0:0:0:
109,192,60434,1,0,0:0:0:0:
256,192,60689,1,0,0:0:0:0:
475,192,60859,1,0,0:0:0:0:
329,192,61114,1,0,0:0:0:0:
182,192,61369,1,0,0:0:0:0:
402,192,61539,1,0,0:0:0:0:
256,192,61794,1,0,0:0:0:0:
109,192,62049,1,0,0:0:0:0:
36,192,62219,1,2,0:0:0:0:
475,192,62219,1,4,0:0:0:0:
256,192,62389,1,0,0:0:0:0:
402,192,62558,1,2,0:0:0:0:
182,192,62728,1,0,0:0:0:0:
329,192,62898,1,2,0:0:0:0:
475,192,62898,1,4,0:0:0:0:
109,192,63068,1,0,0:0:0:0:
256,192,63238,1,2,0:0:0:0:
36,192,63408,1,0,0:0:0:0:
109,192,63578,1,2,0:0:0:0:
329,192,63578,1,4,0:0:0:0:
475,192,63748,1,0,0:0:0:0:
256,192,63918,1,2,0:0:0:0:
402,192,64088,1,0,0:0:0:0:
36,192,64258,1,2,0:0:0:0:
182,192,64258,1,4,0:0:0:0:
329,192,64428,1,0,0:0:0:0:
109,192,64598,1,2,0:0:0:0:
256,192,64768,1,0,0:0:0:0:
329,192,64938,1,2,0:0:0:0:
475,192,64938,1,0,0:0:0:0:
109,192,65108,1,0,0:0:0:0:
182,192,65278,1,2,0:0:0:0:
402,192,65278,1,0,0:0:0:0:
475,192,65448,1,0,0:0:0:0:
36,192,65618,1,2,0:0:0:0:
256,192,65618,1,0,0:0:0:0:
329,192,65788,1,2,0:0:0:0:
109,192,65958,1,2,0:0:0:0:
402,192,65958,1,0,0:0:0:0:
182,192,66128,1,2,0:0:0:0:
256,192,66298,1,2,0:0:0:0:
475,192,66298,1,4,0:0:0:0:
182,192,66638,1,0,0:0:0:0:
109,192,66978,1,0,0:0:0:0:
182,192,67148,1,0,0:0:0:0:
329,192,67318,1,0,0:0:0:0:
402,192,67488,1,0,0:0:0:0:
256,192,67658,1,0,0:0:0:0:
36,192,67828,1,0,0:0:0:0:
182,192,67998,1,0,0:0:0:0:
329,192,68168,1,0,0:0:0:0:
475,192,68338,1,0,0:0:0:0:
256,192,68677,128,0,69017:0:0:0:0:
109,192,69017,1,2,0:0:0:0:
402,192,69017,128,4,69357:0:0:0:0:
36,192,69357,1,2,0:0:0:0:
182,192,69357,1,8,0:0:0:0:
256,192,69527,1,0,0:0:0:0:
109,192,69697,128,2,70037:0:0:0:0:
329,192,70037,1,2,0:0:0:0:
475,192,70037,1,8,0:0:0:0:
256,192,70207,1,0,0:0:0:0:
402,192,70377,128,2,70717:0:0:0:0:
36,192,70717,1,2,0:0:0:0:
182,192,70717,1,8,0:0:0:0:
329,192,70887,1,0,0:0:0:0:
256,192,71057,1,2,0:0:0:0:
475,192,71227,1,0,0:0:0:0:
182,192,71397,1,2,0:0:0:0:
402,192,71397,1,8,0:0:0:0:
109,192,71567,1,0,0:0:0:0:
475,192,71737,1,2,0:0:0:0:
182,192,71907,1,0,0:0:0:0:
256,192,72077,1,2,0:0:0:0:
402,192,72077,1,8,0:0:0:0:
36,192,72247,1,0,0:0:0:0:
475,192,72417,1,2,0:0:0:0:
329,192,72587,1,0,0:0:0:0:
36,192,72757,1,2,0:0:0:0:
182,192,72757,1,8,0:0:0:0:
402,192,72927,1,0,0:0:0:0:
109,192,73097,1,2,0:0:0:0:
256,192,73267,1,0,0:0:0:0:
329,192,73437,1,2,0:0:0:0:
475,192,73437,128,8,73777:0:0:0:0:
36,192,73777,1,2,0:0:0:0:
182,192,73777,1,0,0:0:0:0:
329,192,74117,1,2,0:0:0:0:
475,192,74117,1,8,0:0:0:0:
36,192,74287,1,0,0:0:0:0:
109,192,74456,128,2,74796:0:0:0:0:
256,192,74456,1,4,0:0:0:0:
329,192,74796,1,2,0:0:0:0:
475,192,74796,1,8,0:0:0:0:
182,192,74966,1,0,0:0:0:0:
402,192,75136,128,2,75476:0:0:0:0:
36,192,75476,1,2,0:0:0:0:
182,192,75476,1,8,0:0:0:0:
329,192,75646,1,0,0:0:0:0:
109,192,75816,128,2,76156:0:0:0:0:
329,192,76156,1,2,0:0:0:0:
475,192,76156,1,8,0:0:0:0:
182,192,76326,1,0,0:0:0:0:
402,192,76496,1,2,0:0:0:0:
256,192,76666,1,0,0:0:0:0:
36,192,76836,1,2,0:0:0:0:
182,192,76836,1,8,0:0:0:0:
329,192,77006,1,0,0:0:0:0:
109,192,77176,1,2,0:0:0:0:
256,192,77346,1,0,0:0:0:0:
329,192,77516,1,2,0:0:0:0:
475,192,77516,1,8,0:0:0:0:
109,192,77686,1,0,0:0:0:0:
256,192,77856,1,2,0:0:0:0:
402,192,78026,1,0,0:0:0:0:
36,192,78196,1,2,0:0:0:0:
182,192,78196,1,8,0:0:0:0:
256,192,78366,1,2,0:0:0:0:
402,192,78536,1,2,0:0:0:0:
475,192,78536,1,0,0:0:0:0:
182,192,78791,1,2,0:0:0:0:
329,192,78791,1,0,0:0:0:0:
36,192,79046,1,2,0:0:0:0:
109,192,79046,1,0,0:0:0:0:
256,192,79216,1,2,0:0:0:0:
475,192,79216,1,0,0:0:0:0:
109,192,79386,1,0,0:0:0:0:
182,192,79556,1,2,0:0:0:0:
402,192,79556,1,0,0:0:0:0:
329,192,79726,1,0,0:0:0:0:
36,192,79896,1,6,0:0:0:0:
256,192,79896,1,8,0:0:0:0:
475,192,80236,1,0,0:0:0:0:
182,192,80575,1,2,0:0:0:0:
475,192,80915,1,0,0:0:0:0:
109,192,81255,1,2,0:0:0:0:
402,192,81255,1,8,0:0:0:0:
36,192,81595,1,0,0:0:0:0:
329,192,81935,1,2,0:0:0:0:
36,192,82275,1,0,0:0:0:0:
182,192,82615,1,2,0:0:0:0:
475,192,82615,1,8,0:0:0:0:
329,192,82955,1,0,0:0:0:0:
109,192,83295,1,2,0:0:0:0:
256,192,83295,1,8,0:0:0:0:
402,192,83465,1,2,0:0:0:0:
475,192,83805,1,2,0:0:0:0:
36,192,84145,1,2,0:0:0:0:
182,192,84145,1,0,0:0:0:0:
475,192,84315,1,0,0:0:0:0:
256,192,84485,1,2,0:0:0:0:
402,192,84485,1,0,0:0:0:0:
36,192,84655,1,0,0:0:0:0:
182,192,84825,1,2,0:0:0:0:
329,192,84825,1,0,0:0:0:0:
256,192,84995,128,2,85335:0:0:0:0:
475,192,84995,1,0,0:0:0:0:
109,192,85335,1,10,0:0:0:0:
402,192,85335,1,4,0:0:0:0:
182,192,85505,1,0,0:0:0:0:
329,192,85675,1,8,0:0:0:0:
475,192,85675,1,2,0:0:0:0:
182,192,85845,1,0,0:0:0:0:
109,192,86015,1,2,0:0:0:0:
402,192,86185,1,0,0:0:0:0:
36,192,86355,1,2,0:0:0:0:
256,192,86355,1,8,0:0:0:0:
402,192,86524,1,0,0:0:0:0:
109,192,86694,1,2,0:0:0:0:
182,192,86864,1,2,0:0:0:0:
329,192,87034,1,2,0:0:0:0:
182,192,87204,1,2,0:0:0:0:
256,192,87374,1,2,0:0:0:0:
475,192,87374,1,8,0:0:0:0:
329,192,87544,1,2,0:0:0:0:
36,192,87714,1,2,0:0:0:0:
402,192,87884,1,2,0:0:0:0:
256,192,88054,1,2,0:0:0:0:
182,192,88224,1,0,0:0:0:0:
109,192,88309,1,0,0:0:0:0:
36,192,88394,1,2,0:0:0:0:
329,192,88564,1,0,0:0:0:0:
256,192,88649,1,0,0:0:0:0:
182,192,88734,1,2,0:0:0:0:
475,192,88904,1,0,0:0:0:0:
402,192,88989,1,0,0:0:0:0:
329,192,89074,1,2,0:0:0:0:
109,192,89244,1,0,0:0:0:0:
182,192,89329,1,0,0:0:0:0:
256,192,89414,1,2,0:0:0:0:
475,192,89414,1,4,0:0:0:0:
329,192,90094,1,0,0:0:0:0:
182,192,90434,1,2,0:0:0:0:
109,192,90774,1,2,0:0:0:0:
402,192,90774,1,4,0:0:0:0:
329,192,90944,1,0,0:0:0:0:
36,192,91114,1,0,0:0:0:0:
475,192,91454,1,0,0:0:0:0:
182,192,91709,1,0,0:0:0:0:
475,192,91964,1,0,0:0:0:0:
109,192,92134,1,0,0:0:0:0:
182,192,92304,1,0,0:0:0:0:
475,192,92473,1,0,0:0:0:0:
36,192,92813,1,0,0:0:0:0:
329,192,93068,1,0,0:0:0:0:
36,192,93323,1,0,0:0:0:0:
256,192,93493,1,2,0:0:0:0:
475,192,93493,1,4,0:0:0:0:
329,192,93680,1,0,0:0:0:0:
36,192,93868,1,0,0:0:0:0:
475,192,94243,1,0,0:0:0:0:
182,192,94524,1,0,0:0:0:0:
475,192,94805,1,0,0:0:0:0:
329,192,94993,1,0,0:0:0:0:
36,192,95180,1,0,0:0:0:0:
402,192,95368,1,0,0:0:0:0:
109,192,95555,1,0,0:0:0:0:
475,192,95743,1,0,0:0:0:0:
182,192,95930,1,0,0:0:0:0:
36,192,96118,1,2,0:0:0:0:
256,192,96118,128,0,96493:0:0:0:0:
109,192,96493,1,2,0:0:0:0:
402,192,96493,1,4,0:0:0:0:
329,192,96868,1,0,0:0:0:55:LR_Snare Fast.wav
182,192,97055,1,2,0:0:0:0:
475,192,97243,1,0,0:0:0:55:LR_Snare Fast.wav
182,192,97430,1,2,0:0:0:0:
329,192,97618,1,0,0:0:0:55:LR_Snare Fast.wav
256,192,97993,1,2,0:0:0:0:
182,192,98368,1,0,0:0:0:55:LR_Snare Fast.wav
329,192,98555,1,2,0:0:0:0:
36,192,98743,1,0,0:0:0:0:
329,192,98930,1,2,0:0:0:0:
182,192,99118,128,0,99493:0:0:0:0:
109,192,99493,1,4,0:0:0:30:soft-hitfinish.wav
402,192,99493,1,0,0:0:0:0:
182,192,99680,1,0,0:0:0:0:
329,192,99868,1,0,0:0:0:0:
402,192,99868,1,0,0:0:0:0:
109,192,100055,1,0,0:0:0:0:
329,192,100243,1,0,0:0:0:0:
182,192,100430,1,0,0:0:0:0:
109,192,100618,1,0,0:0:0:0:
402,192,100618,1,0,0:0:0:0:
329,192,100805,1,0,0:0:0:0:
182,192,100993,1,0,0:0:0:0:
329,192,101180,1,0,0:0:0:0:
109,192,101368,1,0,0:0:0:0:
182,192,101368,1,0,0:0:0:0:
402,192,101555,1,0,0:0:0:0:
109,192,101743,1,0,0:0:0:0:
182,192,101930,1,0,0:0:0:0:
256,192,102118,128,2,102493:0:0:0:0:
475,192,102118,1,0,0:0:0:0:
109,192,102493,1,2,0:0:0:0:
402,192,102493,1,4,0:0:0:0:
475,192,102868,1,0,0:0:0:55:LR_Snare Fast.wav
182,192,103055,1,2,0:0:0:0:
329,192,103243,1,0,0:0:0:50:LR_Clap hollow echo.wav
182,192,103430,1,2,0:0:0:0:
475,192,103618,1,0,0:0:0:55:LR_Snare Fast.wav
256,192,103993,1,2,0:0:0:0:
36,192,104368,1,0,0:0:0:55:LR_Snare Fast.wav
329,192,104555,1,2,0:0:0:0:
182,192,104743,1,0,0:0:0:0:
329,192,104930,1,2,0:0:0:0:
36,192,105118,128,0,105493:0:0:0:0:
329,192,105493,1,0,0:0:0:0:
402,192,105493,1,0,0:0:0:0:
109,192,105868,1,0,0:0:0:0:
182,192,105868,1,0,0:0:0:0:
329,192,106243,1,0,0:0:0:0:
402,192,106243,1,0,0:0:0:0:
109,192,106493,1,0,0:0:0:0:
182,192,106618,1,0,0:0:0:0:
402,192,106868,1,0,0:0:0:0:
109,192,106993,1,4,0:0:0:30:soft-hitfinish.wav
329,192,106993,1,0,0:0:0:0:
329,192,107243,1,4,0:0:0:30:soft-hitfinish.wav
182,192,107368,1,0,0:0:0:0:
109,192,107618,1,0,0:0:0:0:
182,192,107743,1,4,0:0:0:30:soft-hitfinish.wav
402,192,107743,1,0,0:0:0:0:
402,192,107993,1,4,0:0:0:30:soft-hitfinish.wav
36,192,108118,1,2,0:0:0:0:
256,192,108118,128,0,108493:0:0:0:0:
109,192,108493,1,2,0:0:0:0:
402,192,108493,1,4,0:0:0:0:
329,192,108776,1,0,0:0:0:55:LR_Snare Fast.wav
36,192,108917,1,2,0:0:0:0:
182,192,109059,1,0,0:0:0:50:LR_Clap hollow echo.wav
36,192,109200,1,2,0:0:0:0:
329,192,109342,1,0,0:0:0:55:LR_Snare Fast.wav
256,192,109625,1,2,0:0:0:0:
182,192,109908,1,0,0:0:0:55:LR_Snare Fast.wav
475,192,110049,1,2,0:0:0:0:
329,192,110191,128,0,110474:0:0:0:0:
182,192,110474,1,0,0:0:0:0:
109,192,110615,128,0,111606:0:0:0:0:
329,192,110757,1,0,0:0:0:0:
182,192,111040,1,0,0:0:0:0:
402,192,111323,1,0,0:0:0:0:
329,192,111606,1,0,0:0:0:0:
402,192,111747,128,0,112455:0:0:0:0:
182,192,111889,1,0,0:0:0:0:
329,192,112172,1,0,0:0:0:0:
109,192,112455,1,0,0:0:0:0:
182,192,112738,1,0,0:0:0:0:
36,192,112879,128,0,113587:0:0:0:0:
329,192,113021,1,0,0:0:0:0:
182,192,113304,1,0,0:0:0:0:
475,192,113587,1,0,0:0:0:0:
329,192,113870,1,0,0:0:0:0:
475,192,114011,1,0,0:0:0:0:
182,192,114153,1,0,0:0:0:0:
329,192,114436,1,0,0:0:0:0:
182,192,114719,1,0,0:0:0:0:
256,192,115002,128,0,115285:0:0:0:0:
109,192,115285,1,2,0:0:0:0:
402,192,115285,1,4,0:0:0:0:
329,192,115624,1,0,0:0:0:55:LR_Snare Fast.wav
475,192,115794,1,2,0:0:0:0:
182,192,115964,1,0,0:0:0:50:LR_Clap hollow echo.wav
475,192,116134,1,2,0:0:0:0:
329,192,116304,1,0,0:0:0:55:LR_Snare Fast.wav
256,192,116644,1,2,0:0:0:0:
182,192,116984,1,0,0:0:0:55:LR_Snare Fast.wav
36,192,117154,1,2,0:0:0:0:
329,192,117324,1,0,0:0:0:0:
36,192,117494,1,2,0:0:0:0:
182,192,117664,128,0,118004:0:0:0:0:
402,192,118004,1,2,0:0:0:0:
475,192,118004,1,0,0:0:0:0:
256,192,118174,1,2,0:0:0:0:
329,192,118174,1,0,0:0:0:0:
36,192,118344,1,2,0:0:0:0:
109,192,118344,1,0,0:0:0:0:
182,192,118514,1,2,0:0:0:0:
256,192,118514,1,0,0:0:0:0:
475,192,118684,1,2,0:0:0:0:
402,192,118769,1,2,0:0:0:0:
329,192,118854,1,2,0:0:0:0:
36,192,119024,1,2,0:0:0:0:
109,192,119109,1,2,0:0:0:0:
182,192,119194,1,2,0:0:0:0:
256,192,119364,1,2,0:0:0:0:
475,192,119364,1,0,0:0:0:0:
36,192,119534,1,0,0:0:0:0:
182,192,119704,1,0,0:0:0:0:
329,192,119874,1,0,0:0:0:0:
475,192,120044,1,0,0:0:0:0:
256,192,120214,1,0,0:0:0:0:
36,192,120384,1,0,0:0:0:0:
182,192,120724,1,4,0:0:0:0:
475,192,120724,1,0,0:0:0:0:
36,192,121234,1,0,0:0:0:0:
329,192,121403,1,0,0:0:0:0:
182,192,121913,1,0,0:0:0:0:
475,192,122083,1,0,0:0:0:0:
256,192,122593,1,0,0:0:0:0:
402,192,122933,1,0,0:0:0:0:
256,192,123103,1,0,0:0:0:0:
109,192,123273,1,0,0:0:0:0:
182,192,123613,1,0,0:0:0:0:
329,192,123783,1,0,0:0:0:0:
475,192,123953,1,0,0:0:0:0:
256,192,124123,1,0,0:0:0:0:
36,192,124293,1,0,0:0:0:0:
182,192,124463,1,0,0:0:0:0:
402,192,124633,128,0,125483:0:0:0:0:
109,192,125483,1,0,0:0:0:0:
256,192,125823,128,0,126163:0:0:0:0:
36,192,126163,1,2,0:0:0:0:
475,192,126163,1,4,0:0:0:0:
256,192,126673,1,0,0:0:0:0:
109,192,126843,1,2,0:0:0:0:
402,192,126843,1,4,0:0:0:0:
256,192,127352,1,0,0:0:0:0:
182,192,127522,1,2,0:0:0:0:
329,192,127522,1,4,0:0:0:0:
256,192,127862,1,0,0:0:0:0:
36,192,128032,1,2,0:0:0:0:
475,192,128032,1,4,0:0:0:0:
256,192,128542,1,2,0:0:0:0:
109,192,128882,1,2,0:0:0:0:
402,192,128882,1,4,0:0:0:0:
475,192,129052,1,0,0:0:0:0:
182,192,129222,1,2,0:0:0:0:
329,192,129222,1,8,0:0:0:0:
402,192,129392,1,0,0:0:0:0:
36,192,129562,1,2,0:0:0:0:
256,192,129732,1,0,0:0:0:0:
109,192,129902,1,2,0:0:0:0:
329,192,129902,1,8,0:0:0:0:
475,192,130072,1,2,0:0:0:0:
36,192,130242,1,2,0:0:0:0:
182,192,130242,1,0,0:0:0:0:
109,192,130497,1,2,0:0:0:0:
256,192,130497,1,0,0:0:0:0:
329,192,130752,1,2,0:0:0:0:
475,192,130752,1,0,0:0:0:0:
256,192,131007,1,2,0:0:0:0:
402,192,131007,1,0,0:0:0:0:
36,192,131262,1,2,0:0:0:0:
182,192,131432,1,2,0:0:0:0:
402,192,131602,128,0,131942:0:0:0:0:
36,192,131942,1,10,0:0:0:0:
182,192,131942,1,4,0:0:0:0:
475,192,132112,1,0,0:0:0:0:
109,192,132282,128,2,132622:0:0:0:0:
329,192,132622,1,2,0:0:0:0:
475,192,132622,1,8,0:0:0:0:
36,192,132792,1,0,0:0:0:0:
402,192,132962,128,2,133301:0:0:0:0:
36,192,133301,1,2,0:0:0:0:
182,192,133301,1,8,0:0:0:0:
475,192,133471,1,0,0:0:0:0:
109,192,133641,1,2,0:0:0:0:
402,192,133811,1,0,0:0:0:0:
36,192,133981,1,2,0:0:0:0:
329,192,133981,1,8,0:0:0:0:
256,192,134151,128,0,135341:0:0:0:0:
475,192,134321,1,2,0:0:0:0:
182,192,134661,1,10,0:0:0:0:
402,192,134831,1,0,0:0:0:0:
36,192,135001,1,2,0:0:0:0:
182,192,135171,1,0,0:0:0:0:
329,192,135341,1,2,0:0:0:0:
475,192,135341,1,8,0:0:0:0:
109,192,135681,1,2,0:0:0:0:
182,192,136021,1,2,0:0:0:0:
402,192,136021,1,8,0:0:0:0:
36,192,136191,1,0,0:0:0:0:
256,192,136361,1,2,0:0:0:0:
109,192,136531,1,0,0:0:0:0:
329,192,136701,1,2,0:0:0:0:
475,192,136701,1,8,0:0:0:0:
256,192,136871,1,2,0:0:0:0:
36,192,137041,1,10,0:0:0:0:
182,192,137041,1,4,0:0:0:0:
402,192,137211,1,0,0:0:0:0:
109,192,137381,1,2,0:0:0:0:
329,192,137381,1,8,0:0:0:0:
402,192,137551,1,0,0:0:0:0:
182,192,137721,1,2,0:0:0:0:
475,192,137891,1,0,0:0:0:0:
109,192,138061,1,2,0:0:0:0:
256,192,138061,1,8,0:0:0:0:
475,192,138231,1,0,0:0:0:0:
36,192,138401,1,2,0:0:0:0:
109,192,138571,1,2,0:0:0:0:
182,192,138741,1,2,0:0:0:0:
329,192,138741,1,8,0:0:0:0:
109,192,138911,1,2,0:0:0:0:
475,192,139081,1,2,0:0:0:0:
402,192,139251,1,2,0:0:0:0:
182,192,139420,1,2,0:0:0:0:
329,192,139420,1,8,0:0:0:0:
402,192,139590,1,2,0:0:0:0:
109,192,139760,1,2,0:0:0:0:
329,192,139930,1,0,0:0:0:0:
402,192,140015,1,0,0:0:0:0:
475,192,140100,1,2,0:0:0:0:
36,192,140270,1,0,0:0:0:0:
109,192,140355,1,0,0:0:0:0:
182,192,140440,1,2,0:0:0:0:
402,192,140610,1,0,0:0:0:0:
329,192,140695,1,0,0:0:0:0:
256,192,140780,1,2,0:0:0:0:
475,192,140950,1,0,0:0:0:0:
402,192,141035,1,0,0:0:0:0:
109,192,141120,1,2,0:0:0:0:
329,192,141120,1,4,0:0:0:0:
182,192,141630,1,0,0:0:0:0:
402,192,141800,128,0,142140:0:0:0:0:
182,192,142310,1,0,0:0:0:0:
109,192,142480,1,2,0:0:0:0:
475,192,142480,128,4,144860:0:0:0:0:
329,192,142650,1,0,0:0:0:0:
182,192,142820,1,10,0:0:0:0:
329,192,142990,1,0,0:0:0:0:
36,192,143160,1,2,0:0:0:0:
182,192,143330,1,0,0:0:0:0:
402,192,143500,1,10,0:0:0:0:
256,192,143670,1,0,0:0:0:0:
329,192,143840,1,2,0:0:0:0:
109,192,144010,1,0,0:0:0:0:
256,192,144180,1,10,0:0:0:0:
109,192,144350,1,0,0:0:0:0:
402,192,144520,1,2,0:0:0:0:
256,192,144690,1,0,0:0:0:0:
36,192,144860,1,2,0:0:0:0:
182,192,144860,1,8,0:0:0:0:
329,192,145030,1,0,0:0:0:0:
402,192,145200,1,2,0:0:0:0:
109,192,145369,1,0,0:0:0:0:
329,192,145539,1,2,0:0:0:0:
475,192,145539,1,8,0:0:0:0:
256,192,145709,1,0,0:0:0:0:
182,192,145879,1,2,0:0:0:0:
402,192,146049,1,0,0:0:0:0:
36,192,146219,1,2,0:0:0:0:
256,192,146219,1,8,0:0:0:0:
475,192,146389,1,0,0:0:0:0:
329,192,146559,1,2,0:0:0:0:
109,192,146729,1,0,0:0:0:0:
182,192,146899,1,2,0:0:0:0:
402,192,146899,1,8,0:0:0:0:
36,192,147069,1,0,0:0:0:0:
475,192,147239,1,2,0:0:0:0:
182,192,147409,1,0,0:0:0:0:
109,192,147579,1,2,0:0:0:0:
402,192,147579,1,8,0:0:0:0:
329,192,147749,1,0,0:0:0:0:
36,192,147919,1,2,0:0:0:0:
256,192,147919,128,4,152033:0:0:0:0:
475,192,149654,1,0,0:0:0:0:
329,192,150554,1,0,0:0:0:0:
182,192,151454,1,0,0:0:0:0:
36,192,152323,128,2,153193:0:0:0:0:
256,192,152323,1,4,0:0:0:0:
475,192,152323,128,0,153193:0:0:0:0:
