osu file format v14

[General]
AudioFilename: audio.mp3
AudioLeadIn: 0
PreviewTime: 68677
Countdown: 0
SampleSet: Soft
StackLeniency: 0.7
Mode: 3
LetterboxInBreaks: 0
SpecialStyle: 0
WidescreenStoryboard: 1

[Editor]
DistanceSpacing: 0.6
BeatDivisor: 4
GridSize: 16
TimelineZoom: 1.5

[Metadata]
Title:YELL EX MAKINA!
TitleUnicode:エール・エクス・マキナ!
Artist:MAKINA prod. Rihito Tsuboi (BNSI)
ArtistUnicode:まきな prod. 坪井リヒト (BNSI)
Creator:MarioUniverseZ
Version:Easy!
Source:太鼓の達人
Tags:video game electronic japanese フューチャー・ラボ メカデス。 ドキドキ胸きゅん おまつりタイム future labo lab mecha desu. mecha death Doki-Doki Mune-Kyun Omatsuri TIME namco ナムコ 765 樺澤綾 Kabasawa Ryo taiko no tatsujin ニジイロVer. nijiiro version arcade 2020年3月バージョン 22周年 デウス・エクス・マキナ
BeatmapID:4046720
BeatmapSetID:1949847

[Difficulty]
HPDrainRate:6.5
CircleSize:7
OverallDifficulty:6.5
ApproachRate:5
SliderMultiplier:1.4
SliderTickRate:1

[Events]
//Background and Video events
0,0,"95816344_p0.jpg",0,0
//Break Periods
//Storyboard Layer 0 (Background)
//Storyboard Layer 1 (Fail)
//Storyboard Layer 2 (Pass)
//Storyboard Layer 3 (Foreground)
//Storyboard Layer 4 (Overlay)
//Storyboard Sound Samples

[TimingPoints]
2389,339.943342776204,4,2,1,60,1,0
13267,-100,4,2,1,70,0,1
24145,-100,4,2,1,60,0,0
69017,-100,4,2,1,70,0,1
89414,-100,4,2,1,60,0,0
93493,375,4,2,1,60,1,0
93493,-90.9090909090909,4,2,1,60,0,0
99493,-90.9090909090909,4,2,1,60,0,1
102493,-90.9090909090909,4,2,1,60,0,0
105493,-90.9090909090909,4,2,1,60,0,1
108493,283.018867924528,4,2,1,60,1,0
108493,-120.481927710843,4,2,1,60,0,0
110474,-120.481927710843,4,2,1,60,0,1
115285,339.943342776204,4,2,1,60,1,0
126163,-100,4,2,1,70,0,1
131602,-100,4,2,1,60,0,0
131942,-100,4,2,1,70,0,1
147919,216.998191681736,4,2,1,70,1,1
147919,-156.25,4,2,1,70,0,1
149654,300,4,2,1,70,1,1
149654,-113.636363636364,4,2,1,70,0,1
151454,289.855072463768,4,2,1,60,1,0
151454,-117.647058823529,4,2,1,60,0,0

[HitObjects]
109,192,2389,5,2,0:0:0:0:
402,192,2389,1,4,0:0:0:0:
182,192,5108,1,0,0:0:0:0:
475,192,5448,1,0,0:0:0:0:
182,192,5788,1,0,0:0:0:0:
402,192,6298,1,0,0:0:0:0:
182,192,6638,1,0,0:0:0:0:
36,192,6978,1,0,0:0:0:0:
402,192,7318,1,0,0:0:0:0:
256,192,7488,128,0,7828:0:0:0:0:
36,192,7828,1,10,0:0:0:0:
475,192,7828,1,4,0:0:0:0:
329,192,8168,1,10,0:0:0:0:
182,192,8507,1,10,0:0:0:0:
402,192,8677,1,8,0:0:0:0:
109,192,8847,1,10,0:0:0:0:
329,192,9187,1,10,0:0:0:0:
109,192,9357,1,8,0:0:0:0:
475,192,9527,1,10,0:0:0:0:
256,192,9697,1,8,0:0:0:0:
182,192,10037,1,8,0:0:0:0:
402,192,10207,1,10,0:0:0:0:
109,192,10547,1,8,0:0:0:0:
402,192,10887,1,8,0:0:0:0:
36,192,11227,1,8,0:0:0:0:
329,192,11397,1,8,0:0:0:0:
182,192,11567,1,8,0:0:0:0:
475,192,11737,1,8,0:0:0:0:
36,192,12927,128,0,13267:0:0:0:0:
182,192,13267,1,2,0:0:0:0:
402,192,13267,128,4,13607:0:0:0:0:
109,192,13607,1,10,0:0:0:0:
329,192,13947,1,2,0:0:0:0:
36,192,14287,1,10,0:0:0:0:
475,192,14456,1,0,0:0:0:0:
256,192,14626,128,2,14966:0:0:0:0:
109,192,14966,1,10,0:0:0:0:
329,192,15306,1,2,0:0:0:0:
36,192,15646,1,10,0:0:0:0:
475,192,15816,1,0,0:0:0:0:
182,192,15986,128,2,16326:0:0:0:0:
402,192,16326,1,10,0:0:0:0:
109,192,16666,1,2,0:0:0:0:
329,192,17006,1,10,0:0:0:0:
36,192,17176,1,0,0:0:0:0:
256,192,17346,128,2,17686:0:0:0:0:
475,192,17686,1,10,0:0:0:0:
182,192,18026,1,10,0:0:0:0:
329,192,18281,1,10,0:0:0:0:
36,192,18536,1,10,0:0:0:0:
475,192,18536,1,4,0:0:0:0:
109,192,19046,1,10,0:0:0:0:
256,192,19386,1,2,0:0:0:0:
109,192,19726,1,10,0:0:0:0:
329,192,19896,1,0,0:0:0:0:
475,192,20066,128,2,20405:0:0:0:0:
256,192,20405,1,10,0:0:0:0:
475,192,20745,1,2,0:0:0:0:
256,192,21085,1,10,0:0:0:0:
329,192,21255,1,0,0:0:0:0:
36,192,21425,1,2,0:0:0:0:
182,192,21680,1,2,0:0:0:0:
475,192,21935,1,2,0:0:0:0:
329,192,22190,1,2,0:0:0:0:
109,192,22445,1,2,0:0:0:0:
256,192,22615,1,2,0:0:0:0:
402,192,22785,1,2,0:0:0:0:
36,192,23125,128,2,23805:0:0:0:0:
475,192,23125,1,0,0:0:0:0:
109,192,24145,1,2,0:0:0:0:
402,192,24145,1,4,0:0:0:0:
329,192,24825,1,0,0:0:0:0:
182,192,25335,1,2,0:0:0:0:
256,192,26185,1,0,0:0:0:0:
109,192,26864,1,2,0:0:0:0:
402,192,27544,1,0,0:0:0:0:
182,192,28054,1,2,0:0:0:0:
475,192,28904,1,2,0:0:0:0:
329,192,29244,1,2,0:0:0:0:
36,192,29584,1,2,0:0:0:0:
182,192,29584,1,4,0:0:0:0:
256,192,30264,1,0,0:0:0:0:
402,192,30944,1,2,0:0:0:0:
329,192,31624,1,0,0:0:0:0:
36,192,32304,1,2,0:0:0:0:
182,192,32643,1,2,0:0:0:0:
329,192,32983,1,2,0:0:0:0:
475,192,33323,1,2,0:0:0:0:
36,192,33663,1,2,0:0:0:0:
182,192,33663,1,4,0:0:0:0:
329,192,34003,1,2,0:0:0:0:
475,192,34003,1,4,0:0:0:0:
36,192,34343,1,2,0:0:0:0:
182,192,34343,1,4,0:0:0:0:
256,192,34683,128,0,35023:0:0:0:0:
109,192,35023,1,2,0:0:0:0:
402,192,35023,1,4,0:0:0:0:
475,192,35363,1,10,0:0:0:0:
36,192,35703,1,2,0:0:0:0:
182,192,35873,1,2,0:0:0:0:
329,192,36043,1,10,0:0:0:0:
36,192,36213,1,2,0:0:0:0:
402,192,36723,1,10,0:0:0:0:
182,192,37063,1,2,0:0:0:0:
329,192,37233,1,2,0:0:0:0:
475,192,37403,1,10,0:0:0:0:
109,192,37743,1,2,0:0:0:0:
256,192,38083,1,10,0:0:0:0:
475,192,38422,1,2,0:0:0:0:
329,192,38592,1,2,0:0:0:0:
182,192,38762,1,10,0:0:0:0:
475,192,38932,1,2,0:0:0:0:
109,192,39272,1,2,0:0:0:0:
402,192,39442,1,10,0:0:0:0:
109,192,39612,1,2,0:0:0:0:
256,192,39952,1,2,0:0:0:0:
475,192,40122,1,10,0:0:0:0:
36,192,40462,1,2,0:0:0:0:
329,192,40462,1,4,0:0:0:0:
475,192,40802,1,10,0:0:0:0:
182,192,41142,1,2,0:0:0:0:
402,192,41482,1,10,0:0:0:0:
256,192,41652,1,2,0:0:0:0:
109,192,41822,1,2,0:0:0:0:
329,192,42162,1,10,0:0:0:0:
36,192,42502,1,2,0:0:0:0:
475,192,42842,1,10,0:0:0:0:
256,192,43182,1,2,0:0:0:0:
182,192,43437,1,2,0:0:0:0:
36,192,43692,1,2,0:0:0:0:
475,192,43862,1,2,0:0:0:0:
329,192,44032,1,2,0:0:0:0:
182,192,44202,1,2,0:0:0:0:
36,192,44372,1,2,0:0:0:0:
256,192,44881,128,2,45901:0:0:0:0:
475,192,44881,1,4,0:0:0:0:
36,192,45901,1,2,0:0:0:0:
329,192,45901,1,4,0:0:0:0:
36,192,46411,1,2,0:0:0:0:
329,192,46581,1,0,0:0:0:85:LR_Snare Fast.wav
329,192,47091,1,0,0:0:0:85:LR_Snare Fast.wav
329,192,47431,1,0,0:0:0:85:LR_Snare Fast.wav
182,192,47941,128,0,48281:0:0:0:85:LR_Snare Fast.wav
36,192,48281,1,0,0:0:0:85:LR_Snare Fast.wav
402,192,48621,1,2,0:0:0:0:
402,192,49131,1,2,0:0:0:0:
109,192,49301,1,0,0:0:0:85:LR_Snare Fast.wav
109,192,49811,1,0,0:0:0:85:LR_Snare Fast.wav
109,192,50151,1,0,0:0:0:85:LR_Snare Fast.wav
402,192,50321,1,2,0:0:0:0:
329,192,50660,128,0,51000:0:0:0:85:LR_Snare Fast.wav
182,192,51000,1,0,0:0:0:85:LR_Snare Fast.wav
36,192,51340,1,2,0:0:0:0:
256,192,51340,1,4,0:0:0:0:
36,192,51850,1,2,0:0:0:0:
475,192,52020,1,0,0:0:0:85:LR_Snare Fast.wav
475,192,52530,1,0,0:0:0:85:LR_Snare Fast.wav
475,192,52870,1,0,0:0:0:85:LR_Snare Fast.wav
36,192,53040,1,0,0:0:0:85:LR_Snare Fast.wav
475,192,53380,128,0,53720:0:0:0:85:LR_Snare Fast.wav
329,192,53720,1,0,0:0:0:85:LR_Snare Fast.wav
182,192,54060,1,2,0:0:0:0:
182,192,54570,1,2,0:0:0:0:
329,192,54740,1,0,0:0:0:85:LR_Snare Fast.wav
329,192,55250,1,0,0:0:0:85:LR_Snare Fast.wav
182,192,55420,128,0,56100:0:0:0:0:
329,192,56100,128,0,56779:0:0:0:0:
36,192,56779,1,2,0:0:0:0:
475,192,56779,1,4,0:0:0:0:
329,192,57459,1,0,0:0:0:0:
182,192,58139,1,0,0:0:0:0:
36,192,58819,1,0,0:0:0:0:
475,192,59499,1,4,0:0:0:0:
109,192,60179,1,0,0:0:0:0:
256,192,60859,1,0,0:0:0:0:
402,192,61539,1,0,0:0:0:0:
36,192,62219,1,6,0:0:0:0:
329,192,62558,1,2,0:0:0:0:
109,192,62898,1,6,0:0:0:0:
402,192,63238,1,2,0:0:0:0:
182,192,63578,1,6,0:0:0:0:
475,192,63918,1,2,0:0:0:0:
256,192,64258,1,6,0:0:0:0:
36,192,64598,1,2,0:0:0:0:
402,192,64938,1,2,0:0:0:0:
256,192,65278,1,2,0:0:0:0:
36,192,65618,1,2,0:0:0:0:
182,192,65788,1,2,0:0:0:0:
329,192,65958,1,2,0:0:0:0:
475,192,66128,1,2,0:0:0:0:
109,192,66298,1,2,0:0:0:0:
256,192,66298,1,4,0:0:0:0:
182,192,66978,1,0,0:0:0:0:
329,192,67318,1,0,0:0:0:0:
36,192,67658,1,0,0:0:0:0:
256,192,67998,1,0,0:0:0:0:
475,192,68338,1,0,0:0:0:0:
256,192,68677,128,0,69017:0:0:0:0:
109,192,69017,1,2,0:0:0:0:
402,192,69017,128,4,69357:0:0:0:0:
182,192,69357,1,10,0:0:0:0:
109,192,69697,128,2,70037:0:0:0:0:
329,192,70037,1,10,0:0:0:0:
402,192,70377,128,2,70717:0:0:0:0:
182,192,70717,1,10,0:0:0:0:
475,192,71057,1,2,0:0:0:0:
256,192,71397,1,10,0:0:0:0:
36,192,71737,1,2,0:0:0:0:
402,192,72077,1,10,0:0:0:0:
109,192,72417,1,2,0:0:0:0:
329,192,72757,1,10,0:0:0:0:
36,192,73097,1,2,0:0:0:0:
256,192,73437,128,10,73777:0:0:0:0:
475,192,73777,1,2,0:0:0:0:
36,192,74117,1,10,0:0:0:0:
109,192,74456,1,2,0:0:0:0:
402,192,74456,128,4,74796:0:0:0:0:
256,192,74796,1,10,0:0:0:0:
109,192,75136,128,2,75476:0:0:0:0:
256,192,75476,1,10,0:0:0:0:
402,192,75816,128,2,76156:0:0:0:0:
256,192,76156,1,10,0:0:0:0:
36,192,76496,1,2,0:0:0:0:
475,192,76836,1,10,0:0:0:0:
182,192,77176,1,2,0:0:0:0:
402,192,77516,1,10,0:0:0:0:
109,192,77856,1,2,0:0:0:0:
329,192,78196,1,10,0:0:0:0:
182,192,78366,1,2,0:0:0:0:
475,192,78536,1,2,0:0:0:0:
256,192,78791,1,2,0:0:0:0:
36,192,79046,1,2,0:0:0:0:
402,192,79216,128,2,79556:0:0:0:0:
109,192,79556,128,2,79896:0:0:0:0:
36,192,79896,1,6,0:0:0:0:
475,192,79896,1,8,0:0:0:0:
475,192,80575,1,2,0:0:0:0:
256,192,81255,1,10,0:0:0:0:
475,192,81935,1,2,0:0:0:0:
36,192,82615,1,10,0:0:0:0:
36,192,83295,1,10,0:0:0:0:
256,192,83465,1,2,0:0:0:0:
475,192,83805,1,2,0:0:0:0:
329,192,84145,1,2,0:0:0:0:
256,192,84485,1,2,0:0:0:0:
182,192,84825,1,2,0:0:0:0:
36,192,84995,128,2,85335:0:0:0:0:
182,192,85335,1,10,0:0:0:0:
329,192,85335,1,4,0:0:0:0:
475,192,85675,1,10,0:0:0:0:
36,192,86015,1,2,0:0:0:0:
329,192,86355,1,10,0:0:0:0:
109,192,86694,1,2,0:0:0:0:
256,192,86864,1,2,0:0:0:0:
402,192,87034,1,2,0:0:0:0:
182,192,87374,1,10,0:0:0:0:
329,192,87544,1,2,0:0:0:0:
475,192,87714,1,2,0:0:0:0:
256,192,88054,128,2,89414:0:0:0:0:
109,192,88394,1,2,0:0:0:0:
402,192,88734,1,2,0:0:0:0:
109,192,89074,1,2,0:0:0:0:
36,192,89414,1,2,0:0:0:0:
475,192,89414,1,4,0:0:0:0:
256,192,90434,1,2,0:0:0:0:
109,192,90774,1,2,0:0:0:0:
402,192,90774,1,4,0:0:0:0:
256,192,92134,1,0,0:0:0:0:
182,192,93493,1,2,0:0:0:0:
329,192,93493,1,4,0:0:0:0:
36,192,94993,128,0,95368:0:0:0:0:
182,192,95368,128,0,95743:0:0:0:0:
329,192,95743,128,0,96118:0:0:0:0:
475,192,96118,128,2,96493:0:0:0:0:
36,192,96493,1,2,0:0:0:0:
182,192,96493,1,4,0:0:0:0:
329,192,96868,1,0,0:0:0:55:LR_Snare Fast.wav
109,192,97055,1,2,0:0:0:0:
329,192,97243,1,0,0:0:0:55:LR_Snare Fast.wav
109,192,97430,1,2,0:0:0:0:
329,192,97618,1,0,0:0:0:55:LR_Snare Fast.wav
256,192,97993,1,2,0:0:0:0:
182,192,98368,1,0,0:0:0:55:LR_Snare Fast.wav
402,192,98555,1,2,0:0:0:0:
402,192,98930,1,2,0:0:0:0:
256,192,99118,128,0,99493:0:0:0:0:
109,192,99493,1,4,0:0:0:30:soft-hitfinish.wav
402,192,99868,1,0,0:0:0:0:
109,192,100243,1,0,0:0:0:0:
182,192,100618,1,0,0:0:0:0:
329,192,100805,1,0,0:0:0:0:
402,192,100993,1,0,0:0:0:0:
109,192,101368,1,0,0:0:0:0:
402,192,101743,1,0,0:0:0:0:
256,192,102118,128,2,102493:0:0:0:0:
36,192,102493,1,2,0:0:0:0:
475,192,102493,1,4,0:0:0:0:
109,192,102868,1,0,0:0:0:55:LR_Snare Fast.wav
329,192,103055,1,2,0:0:0:0:
109,192,103243,1,0,0:0:0:50:LR_Clap hollow echo.wav
329,192,103430,1,2,0:0:0:0:
109,192,103618,1,0,0:0:0:55:LR_Snare Fast.wav
256,192,103993,1,2,0:0:0:0:
402,192,104368,1,0,0:0:0:55:LR_Snare Fast.wav
182,192,104555,1,2,0:0:0:0:
182,192,104930,1,2,0:0:0:0:
256,192,105118,128,0,105493:0:0:0:0:
402,192,105493,1,0,0:0:0:0:
109,192,105868,1,0,0:0:0:0:
402,192,106243,1,0,0:0:0:0:
109,192,106618,1,0,0:0:0:0:
182,192,106993,1,4,0:0:0:30:soft-hitfinish.wav
402,192,106993,1,0,0:0:0:0:
329,192,107243,1,4,0:0:0:30:soft-hitfinish.wav
109,192,107743,1,4,0:0:0:30:soft-hitfinish.wav
182,192,107993,1,4,0:0:0:30:soft-hitfinish.wav
256,192,108118,128,2,108493:0:0:0:0:
109,192,108493,1,2,0:0:0:0:
402,192,108493,1,4,0:0:0:0:
475,192,108776,1,0,0:0:0:55:LR_Snare Fast.wav
182,192,108917,1,2,0:0:0:0:
475,192,109059,1,0,0:0:0:50:LR_Clap hollow echo.wav
182,192,109200,1,2,0:0:0:0:
475,192,109342,1,0,0:0:0:55:LR_Snare Fast.wav
256,192,109625,1,2,0:0:0:0:
36,192,109908,1,0,0:0:0:55:LR_Snare Fast.wav
329,192,110049,1,2,0:0:0:0:
36,192,110191,128,0,110474:0:0:0:0:
182,192,110474,1,0,0:0:0:0:
402,192,110615,128,0,111606:0:0:0:0:
329,192,111606,1,0,0:0:0:0:
109,192,111747,128,0,112455:0:0:0:0:
182,192,112738,1,0,0:0:0:0:
475,192,112879,128,0,113587:0:0:0:0:
329,192,113870,1,0,0:0:0:0:
36,192,114011,1,0,0:0:0:0:
256,192,115002,128,0,115285:0:0:0:0:
109,192,115285,1,2,0:0:0:0:
402,192,115285,1,4,0:0:0:0:
329,192,115624,1,0,0:0:0:55:LR_Snare Fast.wav
182,192,115794,1,2,0:0:0:0:
329,192,115964,1,0,0:0:0:50:LR_Clap hollow echo.wav
182,192,116134,1,2,0:0:0:0:
329,192,116304,1,0,0:0:0:55:LR_Snare Fast.wav
256,192,116644,1,2,0:0:0:0:
182,192,116984,1,0,0:0:0:55:LR_Snare Fast.wav
329,192,117154,1,2,0:0:0:0:
329,192,117494,1,2,0:0:0:0:
256,192,117664,128,0,118004:0:0:0:0:
36,192,118004,1,2,0:0:0:0:
182,192,118174,1,2,0:0:0:0:
329,192,118344,1,2,0:0:0:0:
475,192,118514,1,2,0:0:0:0:
109,192,118684,128,2,119024:0:0:0:0:
402,192,119024,128,2,119364:0:0:0:0:
256,192,119364,1,2,0:0:0:0:
36,192,119534,1,0,0:0:0:0:
475,192,119704,1,0,0:0:0:0:
329,192,119874,1,0,0:0:0:0:
182,192,120044,1,0,0:0:0:0:
256,192,120384,1,0,0:0:0:0:
109,192,120724,1,4,0:0:0:0:
402,192,120724,1,0,0:0:0:0:
475,192,121403,1,0,0:0:0:0:
329,192,122083,1,0,0:0:0:0:
256,192,122593,1,0,0:0:0:0:
182,192,123103,1,0,0:0:0:0:
36,192,123613,1,0,0:0:0:0:
182,192,123783,1,0,0:0:0:0:
475,192,124123,1,0,0:0:0:0:
182,192,124463,1,0,0:0:0:0:
329,192,124633,128,0,125483:0:0:0:0:
256,192,125823,1,0,0:0:0:0:
182,192,126163,1,2,0:0:0:0:
329,192,126163,1,4,0:0:0:0:
109,192,126843,1,2,0:0:0:0:
402,192,126843,1,4,0:0:0:0:
36,192,127522,1,2,0:0:0:0:
475,192,127522,1,4,0:0:0:0:
109,192,128032,1,2,0:0:0:0:
402,192,128032,1,4,0:0:0:0:
256,192,128542,1,2,0:0:0:0:
182,192,128882,1,2,0:0:0:0:
329,192,128882,1,4,0:0:0:0:
475,192,129222,1,10,0:0:0:0:
36,192,129562,1,2,0:0:0:0:
402,192,129902,1,10,0:0:0:0:
256,192,130072,1,2,0:0:0:0:
36,192,130242,1,2,0:0:0:0:
182,192,130497,1,2,0:0:0:0:
475,192,130752,1,2,0:0:0:0:
329,192,131007,1,2,0:0:0:0:
36,192,131262,1,2,0:0:0:0:
182,192,131432,1,2,0:0:0:0:
402,192,131602,128,0,131942:0:0:0:0:
36,192,131942,1,10,0:0:0:0:
256,192,131942,1,4,0:0:0:0:
109,192,132282,128,2,132622:0:0:0:0:
475,192,132622,1,10,0:0:0:0:
402,192,132962,128,2,133301:0:0:0:0:
36,192,133301,1,10,0:0:0:0:
329,192,133641,1,2,0:0:0:0:
109,192,133981,1,10,0:0:0:0:
475,192,134321,128,2,135341:0:0:0:0:
36,192,134661,1,10,0:0:0:0:
329,192,135001,1,2,0:0:0:0:
182,192,135341,1,10,0:0:0:0:
402,192,135681,1,2,0:0:0:0:
256,192,136021,1,10,0:0:0:0:
109,192,136361,1,2,0:0:0:0:
329,192,136701,1,10,0:0:0:0:
182,192,136871,1,2,0:0:0:0:
36,192,137041,1,10,0:0:0:0:
475,192,137041,1,4,0:0:0:0:
256,192,137381,1,10,0:0:0:0:
109,192,137721,1,2,0:0:0:0:
402,192,138061,1,10,0:0:0:0:
36,192,138401,1,2,0:0:0:0:
182,192,138571,1,2,0:0:0:0:
329,192,138741,1,10,0:0:0:0:
182,192,139081,1,2,0:0:0:0:
329,192,139251,1,2,0:0:0:0:
475,192,139420,1,10,0:0:0:0:
256,192,139760,128,2,141120:0:0:0:0:
402,192,140100,1,2,0:0:0:0:
109,192,140440,1,2,0:0:0:0:
402,192,140780,1,2,0:0:0:0:
36,192,141120,1,2,0:0:0:0:
475,192,141120,1,4,0:0:0:0:
329,192,141800,128,0,142480:0:0:0:0:
36,192,142480,128,2,144860:0:0:0:0:
182,192,142480,1,4,0:0:0:0:
475,192,142820,1,10,0:0:0:0:
182,192,143160,1,2,0:0:0:0:
402,192,143500,1,10,0:0:0:0:
109,192,143840,1,2,0:0:0:0:
329,192,144180,1,10,0:0:0:0:
182,192,144520,1,2,0:0:0:0:
256,192,144860,1,10,0:0:0:0:
475,192,145030,1,0,0:0:0:0:
329,192,145200,128,2,145539:0:0:0:0:
36,192,145539,1,10,0:0:0:0:
182,192,145879,1,2,0:0:0:0:
402,192,146219,1,10,0:0:0:0:
109,192,146389,1,0,0:0:0:0:
256,192,146559,128,2,146899:0:0:0:0:
475,192,146899,1,10,0:0:0:0:
182,192,147239,1,2,0:0:0:0:
329,192,147579,1,10,0:0:0:0:
475,192,147749,1,0,0:0:0:0:
36,192,147919,1,2,0:0:0:0:
256,192,147919,128,4,152323:0:0:0:0:
109,192,152323,128,2,153193:0:0:0:0:
402,192,152323,128,4,153193:0:0:0:0:
