osu file format v14

[General]
AudioFilename: audio.mp3
AudioLeadIn: 0
PreviewTime: 68677
Countdown: 0
SampleSet: Soft
StackLeniency: 0.7
Mode: 3
LetterboxInBreaks: 0
SpecialStyle: 0
WidescreenStoryboard: 0

[Editor]
DistanceSpacing: 0.6
BeatDivisor: 4
GridSize: 16
TimelineZoom: 1.5

[Metadata]
Title:YELL EX MAKINA!
TitleUnicode:エール・エクス・マキナ!
Artist:MAKINA prod. Rihito Tsuboi (BNSI)
ArtistUnicode:まきな prod. 坪井リヒト (BNSI)
Creator:MarioUniverseZ
Version:Deus ex Machina!
Source:太鼓の達人
Tags:video game electronic japanese フューチャー・ラボ メカデス。 ドキドキ胸きゅん おまつりタイム future labo lab mecha desu. mecha death Doki-Doki Mune-Kyun Omatsuri TIME namco ナムコ 765 樺澤綾 Kabasawa Ryo taiko no tatsujin ニジイロVer. nijiiro version arcade 2020年3月バージョン 22周年 デウス・エクス・マキナ
BeatmapID:4036858
BeatmapSetID:1949847

[Difficulty]
HPDrainRate:8.3
CircleSize:7
OverallDifficulty:7.7
ApproachRate:5
SliderMultiplier:1.4
SliderTickRate:1

[Events]
//Background and Video events
0,0,"105200373_p6.jpg",0,0
//Break Periods
//Storyboard Layer 0 (Background)
//Storyboard Layer 1 (Fail)
//Storyboard Layer 2 (Pass)
//Storyboard Layer 3 (Foreground)
//Storyboard Layer 4 (Overlay)
//Storyboard Sound Samples

[TimingPoints]
2389,339.943342776204,4,2,1,60,1,0
13267,-100,4,2,1,70,0,1
24145,-100,4,2,1,60,0,0
69017,-100,4,2,1,70,0,1
89414,-100,4,2,1,60,0,0
93493,375,4,2,1,60,1,0
93493,-90.9090909090909,4,2,1,60,0,0
99493,-90.9090909090909,4,2,1,60,0,1
102493,-90.9090909090909,4,2,1,60,0,0
105493,-90.9090909090909,4,2,1,60,0,1
108493,283.018867924528,4,2,1,60,1,0
108493,-120.481927710843,4,2,1,60,0,0
110474,-120.481927710843,4,2,1,60,0,1
115285,339.943342776204,4,2,1,60,1,0
126163,-100,4,2,1,70,0,1
131602,-100,4,2,1,60,0,0
131942,-100,4,2,1,70,0,1
147919,216.998191681736,4,2,1,70,1,1
147919,-156.25,4,2,1,70,0,1
149654,300,4,2,1,70,1,1
149654,-113.636363636364,4,2,1,70,0,1
151454,289.855072463768,4,2,1,60,1,0
151454,-117.647058823529,4,2,1,60,0,0

[HitObjects]
182,192,349,128,0,434:0:0:0:0:
329,192,349,128,0,434:0:0:0:0:
182,192,887,128,0,1199:0:0:0:0:
329,192,887,128,0,1199:0:0:0:0:
36,192,2389,1,2,0:0:0:0:
109,192,2389,1,4,0:0:0:0:
256,192,2389,1,0,0:0:0:0:
402,192,2389,1,0,0:0:0:0:
475,192,2389,1,0,0:0:0:0:
36,192,2728,1,0,0:0:0:0:
329,192,2728,1,0,0:0:0:0:
402,192,3068,1,0,0:0:0:0:
402,192,3238,1,0,0:0:0:0:
36,192,3408,1,0,0:0:0:0:
182,192,3408,1,0,0:0:0:0:
329,192,3578,1,0,0:0:0:0:
256,192,3918,1,0,0:0:0:0:
36,192,4088,1,0,0:0:0:0:
329,192,4088,1,0,0:0:0:0:
109,192,4258,1,0,0:0:0:0:
256,192,4598,1,0,0:0:0:0:
36,192,4768,1,0,0:0:0:0:
182,192,4768,1,0,0:0:0:0:
329,192,4938,1,0,0:0:0:0:
109,192,5108,1,0,0:0:0:0:
182,192,5448,1,0,0:0:0:0:
475,192,5448,1,0,0:0:0:0:
256,192,5618,1,0,0:0:0:0:
109,192,5788,1,0,0:0:0:0:
109,192,5958,1,0,0:0:0:0:
329,192,6128,1,0,0:0:0:0:
475,192,6128,1,0,0:0:0:0:
182,192,6298,1,0,0:0:0:0:
402,192,6383,1,0,0:0:0:0:
36,192,6468,1,0,0:0:0:0:
256,192,6638,1,0,0:0:0:0:
109,192,6808,1,0,0:0:0:0:
475,192,6808,1,0,0:0:0:0:
182,192,6978,1,0,0:0:0:0:
329,192,7063,1,0,0:0:0:0:
475,192,7233,1,0,0:0:0:0:
256,192,7233,1,0,0:0:0:0:
109,192,7318,1,0,0:0:0:0:
329,192,7488,1,0,0:0:0:0:
475,192,7488,1,0,0:0:0:0:
182,192,7658,1,0,0:0:0:0:
36,192,7828,1,2,0:0:0:0:
109,192,7828,1,8,0:0:0:0:
256,192,7828,1,4,0:0:0:0:
402,192,7828,1,0,0:0:0:0:
475,192,7828,1,0,0:0:0:0:
182,192,7998,1,0,0:0:0:0:
402,192,7998,1,0,0:0:0:0:
36,192,8168,1,2,0:0:0:0:
256,192,8168,1,8,0:0:0:0:
329,192,8168,1,0,0:0:0:0:
475,192,8168,1,0,0:0:0:0:
109,192,8338,1,0,0:0:0:0:
329,192,8338,1,0,0:0:0:0:
36,192,8507,1,2,0:0:0:0:
182,192,8507,1,8,0:0:0:0:
256,192,8507,1,0,0:0:0:0:
402,192,8507,1,0,0:0:0:0:
109,192,8677,1,8,0:0:0:0:
182,192,8677,1,0,0:0:0:0:
329,192,8677,1,0,0:0:0:0:
475,192,8677,1,0,0:0:0:0:
36,192,8847,1,2,0:0:0:0:
256,192,8847,1,8,0:0:0:0:
402,192,8847,1,0,0:0:0:0:
475,192,8847,1,0,0:0:0:0:
182,192,9017,1,0,0:0:0:0:
402,192,9017,1,0,0:0:0:0:
109,192,9187,1,2,0:0:0:0:
256,192,9187,1,8,0:0:0:0:
329,192,9187,1,0,0:0:0:0:
475,192,9187,1,0,0:0:0:0:
36,192,9357,1,8,0:0:0:0:
182,192,9357,1,0,0:0:0:0:
256,192,9357,1,0,0:0:0:0:
402,192,9357,1,0,0:0:0:0:
109,192,9527,1,2,0:0:0:0:
329,192,9527,1,8,0:0:0:0:
402,192,9527,1,0,0:0:0:0:
475,192,9527,1,0,0:0:0:0:
36,192,9697,1,8,0:0:0:0:
182,192,9697,1,0,0:0:0:0:
256,192,9697,1,0,0:0:0:0:
475,192,9697,1,0,0:0:0:0:
256,192,9867,1,2,0:0:0:0:
402,192,9867,1,0,0:0:0:0:
36,192,10037,1,8,0:0:0:0:
182,192,10037,1,0,0:0:0:0:
329,192,10037,1,0,0:0:0:0:
475,192,10037,1,0,0:0:0:0:
36,192,10207,1,2,0:0:0:0:
109,192,10207,1,8,0:0:0:0:
402,192,10207,1,0,0:0:0:0:
475,192,10207,1,0,0:0:0:0:
109,192,10377,1,0,0:0:0:0:
402,192,10377,1,0,0:0:0:0:
36,192,10547,1,8,0:0:0:0:
182,192,10547,1,0,0:0:0:0:
256,192,10547,1,0,0:0:0:0:
475,192,10547,1,0,0:0:0:0:
329,192,10632,1,0,0:0:0:0:
109,192,10717,1,2,0:0:0:0:
402,192,10717,1,0,0:0:0:0:
475,192,10717,1,0,0:0:0:0:
182,192,10802,1,0,0:0:0:0:
36,192,10887,1,8,0:0:0:0:
256,192,10887,1,0,0:0:0:0:
329,192,10887,1,0,0:0:0:0:
402,192,10887,1,0,0:0:0:0:
182,192,10972,1,0,0:0:0:0:
109,192,11057,1,2,0:0:0:0:
329,192,11057,1,0,0:0:0:0:
475,192,11057,1,0,0:0:0:0:
256,192,11142,1,0,0:0:0:0:
36,192,11227,1,8,0:0:0:0:
182,192,11227,1,0,0:0:0:0:
402,192,11227,1,0,0:0:0:0:
475,192,11227,1,0,0:0:0:0:
256,192,11312,1,2,0:0:0:0:
329,192,11312,1,0,0:0:0:0:
36,192,11397,1,8,0:0:0:0:
109,192,11397,1,0,0:0:0:0:
402,192,11397,1,0,0:0:0:0:
182,192,11482,1,2,0:0:0:0:
256,192,11482,1,0,0:0:0:0:
36,192,11567,1,8,0:0:0:0:
329,192,11567,1,0,0:0:0:0:
402,192,11567,1,0,0:0:0:0:
475,192,11567,1,0,0:0:0:0:
109,192,11652,1,2,0:0:0:0:
182,192,11652,1,0,0:0:0:0:
256,192,11737,1,8,0:0:0:0:
329,192,11737,1,0,0:0:0:0:
475,192,11737,1,0,0:0:0:0:
36,192,11822,1,2,0:0:0:0:
109,192,11822,1,0,0:0:0:0:
182,192,11907,1,0,0:0:0:0:
256,192,11992,1,0,0:0:0:0:
329,192,12162,1,0,0:0:0:0:
402,192,12332,1,0,0:0:0:0:
475,192,12502,1,0,0:0:0:0:
182,192,12587,1,0,0:0:0:0:
36,192,12672,1,0,0:0:0:0:
329,192,12757,1,0,0:0:0:0:
109,192,12842,1,0,0:0:0:0:
182,192,12927,1,0,0:0:0:0:
256,192,12969,1,0,0:0:0:0:
402,192,13054,1,0,0:0:0:0:
36,192,13097,1,0,0:0:0:0:
475,192,13097,1,0,0:0:0:0:
109,192,13139,1,0,0:0:0:0:
256,192,13182,1,0,0:0:0:0:
329,192,13224,1,0,0:0:0:0:
36,192,13267,128,2,13607:0:0:0:0:
109,192,13267,1,4,0:0:0:0:
182,192,13267,1,0,0:0:0:0:
402,192,13267,1,0,0:0:0:0:
475,192,13267,1,0,0:0:0:0:
182,192,13437,128,0,13607:0:0:0:0:
256,192,13437,1,0,0:0:0:0:
402,192,13437,1,0,0:0:0:0:
109,192,13607,1,2,0:0:0:0:
329,192,13607,1,8,0:0:0:0:
475,192,13607,1,0,0:0:0:0:
182,192,13692,1,0,0:0:0:0:
402,192,13692,1,0,0:0:0:0:
109,192,13777,1,0,0:0:0:0:
329,192,13777,1,0,0:0:0:0:
182,192,13862,1,0,0:0:0:0:
402,192,13862,1,0,0:0:0:0:
36,192,13947,1,2,0:0:0:0:
256,192,13947,1,0,0:0:0:0:
475,192,13947,1,0,0:0:0:0:
109,192,14032,1,0,0:0:0:0:
329,192,14032,1,0,0:0:0:0:
182,192,14117,1,0,0:0:0:0:
402,192,14117,1,0,0:0:0:0:
36,192,14202,1,0,0:0:0:0:
256,192,14202,1,0,0:0:0:0:
182,192,14287,1,2,0:0:0:0:
329,192,14287,1,8,0:0:0:0:
475,192,14287,1,0,0:0:0:0:
109,192,14372,1,0,0:0:0:0:
402,192,14372,1,0,0:0:0:0:
36,192,14456,1,0,0:0:0:0:
329,192,14456,1,0,0:0:0:0:
182,192,14541,1,0,0:0:0:0:
475,192,14541,1,0,0:0:0:0:
36,192,14626,1,2,0:0:0:0:
256,192,14626,1,0,0:0:0:0:
402,192,14626,128,0,14966:0:0:0:0:
109,192,14796,1,0,0:0:0:0:
256,192,14796,128,0,14966:0:0:0:0:
329,192,14796,1,0,0:0:0:0:
182,192,14881,1,0,0:0:0:0:
36,192,14966,1,2,0:0:0:0:
329,192,14966,1,8,0:0:0:0:
475,192,14966,1,0,0:0:0:0:
109,192,15051,1,0,0:0:0:0:
256,192,15051,1,0,0:0:0:0:
182,192,15136,1,0,0:0:0:0:
402,192,15136,1,0,0:0:0:0:
109,192,15221,1,0,0:0:0:0:
329,192,15221,1,0,0:0:0:0:
36,192,15306,1,2,0:0:0:0:
256,192,15306,1,0,0:0:0:0:
475,192,15306,1,0,0:0:0:0:
182,192,15391,1,0,0:0:0:0:
402,192,15391,1,0,0:0:0:0:
109,192,15476,1,0,0:0:0:0:
329,192,15476,1,0,0:0:0:0:
256,192,15561,1,0,0:0:0:0:
475,192,15561,1,0,0:0:0:0:
36,192,15646,1,2,0:0:0:0:
182,192,15646,1,8,0:0:0:0:
402,192,15646,1,0,0:0:0:0:
109,192,15731,1,0,0:0:0:0:
329,192,15731,1,0,0:0:0:0:
182,192,15816,1,0,0:0:0:0:
402,192,15816,1,0,0:0:0:0:
256,192,15901,1,0,0:0:0:0:
475,192,15901,1,0,0:0:0:0:
36,192,15986,128,2,16326:0:0:0:0:
109,192,15986,1,0,0:0:0:0:
329,192,15986,1,0,0:0:0:0:
109,192,16156,128,0,16326:0:0:0:0:
182,192,16156,1,0,0:0:0:0:
256,192,16156,1,0,0:0:0:0:
182,192,16326,1,2,0:0:0:0:
402,192,16326,1,8,0:0:0:0:
475,192,16326,128,0,16666:0:0:0:0:
256,192,16496,1,0,0:0:0:0:
329,192,16496,1,0,0:0:0:0:
402,192,16496,128,0,16666:0:0:0:0:
36,192,16581,1,0,0:0:0:0:
109,192,16666,1,2,0:0:0:0:
182,192,16666,1,0,0:0:0:0:
329,192,16666,1,0,0:0:0:0:
36,192,16751,1,0,0:0:0:0:
256,192,16751,1,0,0:0:0:0:
109,192,16836,1,0,0:0:0:0:
402,192,16836,1,0,0:0:0:0:
182,192,16921,1,0,0:0:0:0:
329,192,16921,1,0,0:0:0:0:
36,192,17006,1,2,0:0:0:0:
256,192,17006,1,8,0:0:0:0:
475,192,17006,1,0,0:0:0:0:
109,192,17091,1,0,0:0:0:0:
402,192,17091,1,0,0:0:0:0:
182,192,17176,1,0,0:0:0:0:
329,192,17176,1,0,0:0:0:0:
109,192,17261,1,0,0:0:0:0:
402,192,17261,1,0,0:0:0:0:
36,192,17346,1,2,0:0:0:0:
329,192,17346,1,0,0:0:0:0:
475,192,17346,128,0,17856:0:0:0:0:
182,192,17431,1,0,0:0:0:0:
256,192,17516,1,0,0:0:0:0:
402,192,17516,1,0,0:0:0:0:
182,192,17601,1,0,0:0:0:0:
36,192,17686,128,2,17856:0:0:0:0:
109,192,17686,1,8,0:0:0:0:
329,192,17686,1,0,0:0:0:0:
256,192,17771,1,0,0:0:0:0:
182,192,17856,1,0,0:0:0:0:
402,192,17856,1,0,0:0:0:0:
329,192,17941,1,0,0:0:0:0:
36,192,18026,1,2,0:0:0:0:
109,192,18026,1,8,0:0:0:0:
256,192,18026,1,0,0:0:0:0:
475,192,18026,1,0,0:0:0:0:
36,192,18281,1,8,0:0:0:0:
256,192,18281,1,2,0:0:0:0:
402,192,18281,1,0,0:0:0:0:
475,192,18281,1,0,0:0:0:0:
36,192,18536,128,2,18876:0:0:0:0:
182,192,18536,1,8,0:0:0:0:
256,192,18536,1,4,0:0:0:0:
329,192,18536,1,0,0:0:0:0:
475,192,18536,128,0,18876:0:0:0:0:
182,192,18876,128,0,19046:0:0:0:0:
256,192,18876,1,0,0:0:0:0:
329,192,18876,128,0,19046:0:0:0:0:
36,192,19046,128,2,19131:0:0:0:0:
109,192,19046,128,8,19131:0:0:0:0:
475,192,19046,128,0,19131:0:0:0:0:
256,192,19131,1,0,0:0:0:0:
402,192,19131,1,0,0:0:0:0:
36,192,19216,1,0,0:0:0:0:
329,192,19216,1,0,0:0:0:0:
109,192,19301,1,0,0:0:0:0:
402,192,19301,1,0,0:0:0:0:
256,192,19386,1,2,0:0:0:0:
182,192,19386,1,0,0:0:0:0:
475,192,19386,1,0,0:0:0:0:
36,192,19471,1,0,0:0:0:0:
329,192,19471,1,0,0:0:0:0:
182,192,19556,1,0,0:0:0:0:
475,192,19556,1,0,0:0:0:0:
109,192,19641,1,0,0:0:0:0:
402,192,19641,1,0,0:0:0:0:
36,192,19726,128,2,19811:0:0:0:0:
256,192,19726,128,8,19811:0:0:0:0:
329,192,19726,128,0,19811:0:0:0:0:
182,192,19811,1,0,0:0:0:0:
402,192,19811,1,0,0:0:0:0:
109,192,19896,1,0,0:0:0:0:
329,192,19896,1,0,0:0:0:0:
256,192,19981,1,0,0:0:0:0:
475,192,19981,1,0,0:0:0:0:
36,192,20066,128,2,20405:0:0:0:0:
182,192,20066,1,0,0:0:0:0:
402,192,20066,1,0,0:0:0:0:
109,192,20236,1,0,0:0:0:0:
182,192,20236,128,0,20405:0:0:0:0:
329,192,20236,1,0,0:0:0:0:
402,192,20321,1,0,0:0:0:0:
109,192,20405,128,2,20490:0:0:0:0:
256,192,20405,128,8,20490:0:0:0:0:
475,192,20405,128,0,20490:0:0:0:0:
182,192,20490,1,0,0:0:0:0:
402,192,20490,1,0,0:0:0:0:
109,192,20575,1,0,0:0:0:0:
329,192,20575,1,0,0:0:0:0:
36,192,20660,1,0,0:0:0:0:
256,192,20660,1,0,0:0:0:0:
182,192,20745,1,2,0:0:0:0:
402,192,20745,1,0,0:0:0:0:
475,192,20745,1,0,0:0:0:0:
109,192,20830,1,0,0:0:0:0:
329,192,20830,1,0,0:0:0:0:
182,192,20915,1,0,0:0:0:0:
402,192,20915,1,0,0:0:0:0:
256,192,21000,1,0,0:0:0:0:
475,192,21000,1,0,0:0:0:0:
36,192,21085,128,2,21170:0:0:0:0:
109,192,21085,128,8,21170:0:0:0:0:
329,192,21085,128,0,21170:0:0:0:0:
402,192,21170,1,0,0:0:0:0:
475,192,21170,1,0,0:0:0:0:
182,192,21255,1,0,0:0:0:0:
329,192,21255,1,0,0:0:0:0:
256,192,21340,1,0,0:0:0:0:
109,192,21340,1,0,0:0:0:0:
36,192,21425,1,2,0:0:0:0:
182,192,21425,1,0,0:0:0:0:
402,192,21425,1,0,0:0:0:0:
475,192,21425,1,0,0:0:0:0:
329,192,21510,1,0,0:0:0:0:
256,192,21595,1,0,0:0:0:0:
36,192,21680,1,2,0:0:0:0:
109,192,21680,1,0,0:0:0:0:
182,192,21680,1,0,0:0:0:0:
475,192,21680,1,0,0:0:0:0:
402,192,21765,1,0,0:0:0:0:
329,192,21850,1,0,0:0:0:0:
36,192,21935,1,2,0:0:0:0:
109,192,21935,1,0,0:0:0:0:
402,192,21935,1,0,0:0:0:0:
475,192,21935,1,0,0:0:0:0:
182,192,22020,1,0,0:0:0:0:
256,192,22105,1,0,0:0:0:0:
36,192,22190,1,2,0:0:0:0:
329,192,22190,1,0,0:0:0:0:
402,192,22190,1,0,0:0:0:0:
475,192,22190,1,0,0:0:0:0:
109,192,22275,1,0,0:0:0:0:
182,192,22360,1,0,0:0:0:0:
36,192,22445,1,2,0:0:0:0:
256,192,22445,1,0,0:0:0:0:
402,192,22445,1,0,0:0:0:0:
475,192,22445,1,0,0:0:0:0:
109,192,22530,1,2,0:0:0:0:
182,192,22530,1,0,0:0:0:0:
329,192,22530,1,0,0:0:0:0:
36,192,22615,1,2,0:0:0:0:
256,192,22615,1,0,0:0:0:0:
475,192,22615,1,0,0:0:0:0:
182,192,22700,1,2,0:0:0:0:
329,192,22700,1,0,0:0:0:0:
402,192,22700,1,0,0:0:0:0:
36,192,22785,1,2,0:0:0:0:
109,192,22785,1,0,0:0:0:0:
256,192,22785,1,0,0:0:0:0:
475,192,22785,1,0,0:0:0:0:
36,192,23125,128,2,23805:0:0:0:0:
109,192,23125,1,0,0:0:0:0:
256,192,23125,1,0,0:0:0:0:
402,192,23125,1,0,0:0:0:0:
475,192,23125,128,0,23805:0:0:0:0:
182,192,23295,1,0,0:0:0:0:
329,192,23380,1,0,0:0:0:0:
182,192,23465,1,0,0:0:0:0:
329,192,23550,1,0,0:0:0:0:
256,192,23635,1,0,0:0:0:0:
109,192,23805,1,0,0:0:0:0:
402,192,23805,1,0,0:0:0:0:
329,192,23890,1,0,0:0:0:0:
182,192,23975,1,0,0:0:0:0:
256,192,24060,1,0,0:0:0:0:
36,192,24145,1,2,0:0:0:0:
109,192,24145,1,4,0:0:0:0:
329,192,24145,1,0,0:0:0:0:
402,192,24145,1,0,0:0:0:0:
475,192,24145,1,0,0:0:0:0:
256,192,24315,1,0,0:0:0:0:
402,192,24485,1,0,0:0:0:0:
182,192,24655,1,0,0:0:0:0:
36,192,24825,1,0,0:0:0:0:
329,192,24825,1,0,0:0:0:0:
109,192,24995,1,0,0:0:0:0:
182,192,25335,1,2,0:0:0:0:
402,192,25335,1,0,0:0:0:0:
475,192,25335,1,0,0:0:0:0:
36,192,25505,1,0,0:0:0:0:
256,192,25675,1,0,0:0:0:0:
109,192,25845,128,0,26694:0:0:0:0:
329,192,26185,1,0,0:0:0:0:
475,192,26185,128,0,26864:0:0:0:0:
256,192,26524,1,0,0:0:0:0:
182,192,26694,1,0,0:0:0:0:
36,192,26864,1,2,0:0:0:0:
329,192,26864,1,0,0:0:0:0:
402,192,26864,1,0,0:0:0:0:
182,192,27204,1,0,0:0:0:0:
256,192,27544,1,0,0:0:0:0:
475,192,27544,1,0,0:0:0:0:
182,192,27884,1,0,0:0:0:0:
109,192,28054,1,2,0:0:0:0:
329,192,28054,1,0,0:0:0:0:
402,192,28054,1,0,0:0:0:0:
256,192,28394,1,0,0:0:0:0:
36,192,28564,1,0,0:0:0:0:
256,192,28904,1,2,0:0:0:0:
402,192,28904,1,0,0:0:0:0:
475,192,28904,128,0,29244:0:0:0:0:
36,192,29244,1,2,0:0:0:0:
109,192,29244,1,0,0:0:0:0:
256,192,29244,1,0,0:0:0:0:
329,192,29287,1,0,0:0:0:0:
402,192,29329,1,0,0:0:0:0:
475,192,29372,1,0,0:0:0:0:
182,192,29414,1,0,0:0:0:0:
256,192,29456,1,0,0:0:0:0:
329,192,29499,1,0,0:0:0:0:
402,192,29541,1,0,0:0:0:0:
36,192,29584,1,2,0:0:0:0:
109,192,29584,1,4,0:0:0:0:
182,192,29584,1,0,0:0:0:0:
475,192,29584,1,0,0:0:0:0:
329,192,29754,1,0,0:0:0:0:
36,192,29839,1,0,0:0:0:0:
182,192,29839,1,0,0:0:0:0:
329,192,29924,1,0,0:0:0:0:
36,192,30094,1,0,0:0:0:0:
256,192,30094,1,0,0:0:0:0:
402,192,30264,1,0,0:0:0:0:
475,192,30264,1,0,0:0:0:0:
182,192,30434,1,0,0:0:0:0:
329,192,30519,1,0,0:0:0:0:
475,192,30519,1,0,0:0:0:0:
182,192,30604,1,0,0:0:0:0:
256,192,30774,1,0,0:0:0:0:
475,192,30774,1,0,0:0:0:0:
36,192,30944,1,2,0:0:0:0:
109,192,30944,1,0,0:0:0:0:
402,192,30944,1,0,0:0:0:0:
329,192,31114,1,0,0:0:0:0:
36,192,31199,1,0,0:0:0:0:
182,192,31199,1,0,0:0:0:0:
329,192,31284,1,0,0:0:0:0:
36,192,31454,1,0,0:0:0:0:
256,192,31454,1,0,0:0:0:0:
402,192,31624,1,0,0:0:0:0:
475,192,31624,1,0,0:0:0:0:
182,192,31709,1,0,0:0:0:0:
475,192,31879,1,0,0:0:0:0:
109,192,31964,1,0,0:0:0:0:
329,192,31964,1,0,0:0:0:0:
256,192,32134,1,0,0:0:0:0:
475,192,32134,1,0,0:0:0:0:
329,192,32219,1,0,0:0:0:0:
36,192,32304,1,2,0:0:0:0:
109,192,32304,1,0,0:0:0:0:
402,192,32304,1,0,0:0:0:0:
182,192,32473,1,0,0:0:0:0:
475,192,32558,1,0,0:0:0:0:
36,192,32643,1,2,0:0:0:0:
256,192,32643,1,0,0:0:0:0:
329,192,32643,1,0,0:0:0:0:
109,192,32813,1,0,0:0:0:0:
36,192,32983,1,2,0:0:0:0:
182,192,32983,1,0,0:0:0:0:
402,192,32983,1,0,0:0:0:0:
475,192,32983,1,0,0:0:0:0:
256,192,33153,1,0,0:0:0:0:
109,192,33323,1,2,0:0:0:0:
329,192,33323,1,0,0:0:0:0:
402,192,33323,1,0,0:0:0:0:
475,192,33323,1,0,0:0:0:0:
36,192,33493,1,0,0:0:0:0:
182,192,33493,1,0,0:0:0:0:
109,192,33578,1,0,0:0:0:0:
256,192,33578,1,0,0:0:0:0:
36,192,33663,1,2,0:0:0:0:
182,192,33663,1,4,0:0:0:0:
329,192,33663,1,0,0:0:0:0:
402,192,33663,1,0,0:0:0:0:
475,192,33663,1,0,0:0:0:0:
36,192,34003,1,2,0:0:0:0:
109,192,34003,1,4,0:0:0:0:
182,192,34003,1,0,0:0:0:0:
329,192,34003,1,0,0:0:0:0:
475,192,34003,1,0,0:0:0:0:
36,192,34343,1,2,0:0:0:0:
182,192,34343,1,4,0:0:0:0:
329,192,34343,1,0,0:0:0:0:
402,192,34343,1,0,0:0:0:0:
475,192,34343,1,0,0:0:0:0:
256,192,34513,1,0,0:0:0:0:
475,192,34513,1,0,0:0:0:0:
182,192,34598,1,0,0:0:0:0:
402,192,34598,1,0,0:0:0:0:
109,192,34683,1,0,0:0:0:0:
329,192,34683,1,0,0:0:0:0:
36,192,34768,1,0,0:0:0:0:
256,192,34768,1,0,0:0:0:0:
329,192,34938,1,0,0:0:0:0:
475,192,34938,1,0,0:0:0:0:
36,192,35023,1,2,0:0:0:0:
109,192,35023,1,4,0:0:0:0:
182,192,35023,1,0,0:0:0:0:
256,192,35023,1,0,0:0:0:0:
402,192,35023,1,0,0:0:0:0:
329,192,35193,1,0,0:0:0:0:
475,192,35193,1,0,0:0:0:0:
256,192,35278,1,0,0:0:0:0:
36,192,35363,1,2,0:0:0:0:
109,192,35363,1,8,0:0:0:0:
182,192,35363,1,0,0:0:0:0:
475,192,35363,1,0,0:0:0:0:
402,192,35448,1,0,0:0:0:0:
109,192,35533,1,0,0:0:0:0:
329,192,35533,1,0,0:0:0:0:
182,192,35618,1,0,0:0:0:0:
36,192,35703,1,2,0:0:0:0:
256,192,35703,1,0,0:0:0:0:
402,192,35703,1,0,0:0:0:0:
109,192,35873,1,2,0:0:0:0:
256,192,35873,1,0,0:0:0:0:
475,192,35873,1,0,0:0:0:0:
329,192,35958,1,0,0:0:0:0:
36,192,36043,1,2,0:0:0:0:
182,192,36043,1,8,0:0:0:0:
402,192,36043,1,0,0:0:0:0:
475,192,36043,1,0,0:0:0:0:
256,192,36128,1,0,0:0:0:0:
36,192,36213,1,2,0:0:0:0:
109,192,36213,1,0,0:0:0:0:
329,192,36213,1,0,0:0:0:0:
182,192,36298,1,0,0:0:0:0:
256,192,36383,1,0,0:0:0:0:
475,192,36383,1,0,0:0:0:0:
109,192,36553,1,0,0:0:0:0:
402,192,36553,1,0,0:0:0:0:
329,192,36638,1,0,0:0:0:0:
36,192,36723,1,2,0:0:0:0:
182,192,36723,1,8,0:0:0:0:
256,192,36723,1,0,0:0:0:0:
475,192,36723,1,0,0:0:0:0:
329,192,36808,1,0,0:0:0:0:
182,192,36893,1,0,0:0:0:0:
402,192,36893,1,0,0:0:0:0:
109,192,36978,1,0,0:0:0:0:
36,192,37063,1,2,0:0:0:0:
256,192,37063,1,0,0:0:0:0:
475,192,37063,1,0,0:0:0:0:
329,192,37148,1,0,0:0:0:0:
36,192,37233,1,2,0:0:0:0:
182,192,37233,1,0,0:0:0:0:
402,192,37233,1,0,0:0:0:0:
256,192,37318,1,0,0:0:0:0:
109,192,37403,1,2,0:0:0:0:
182,192,37403,1,8,0:0:0:0:
329,192,37403,1,0,0:0:0:0:
475,192,37403,1,0,0:0:0:0:
256,192,37573,1,0,0:0:0:0:
402,192,37573,1,0,0:0:0:0:
182,192,37658,1,0,0:0:0:0:
36,192,37743,1,2,0:0:0:0:
109,192,37743,1,0,0:0:0:0:
402,192,37743,1,0,0:0:0:0:
256,192,37913,1,0,0:0:0:0:
475,192,37913,1,0,0:0:0:0:
182,192,37998,1,0,0:0:0:0:
36,192,38083,1,2,0:0:0:0:
109,192,38083,1,8,0:0:0:0:
329,192,38083,1,0,0:0:0:0:
402,192,38083,1,0,0:0:0:0:
256,192,38168,1,0,0:0:0:0:
182,192,38253,1,0,0:0:0:0:
402,192,38253,1,0,0:0:0:0:
329,192,38338,1,0,0:0:0:0:
36,192,38422,1,2,0:0:0:0:
109,192,38422,1,0,0:0:0:0:
475,192,38422,1,0,0:0:0:0:
109,192,38592,1,2,0:0:0:0:
182,192,38592,1,0,0:0:0:0:
329,192,38592,1,0,0:0:0:0:
402,192,38677,1,0,0:0:0:0:
36,192,38762,1,2,0:0:0:0:
182,192,38762,1,8,0:0:0:0:
256,192,38762,1,0,0:0:0:0:
475,192,38762,1,0,0:0:0:0:
329,192,38847,1,0,0:0:0:0:
36,192,38932,1,2,0:0:0:0:
109,192,38932,1,0,0:0:0:0:
402,192,38932,1,0,0:0:0:0:
182,192,38975,1,0,0:0:0:0:
256,192,39017,1,0,0:0:0:0:
329,192,39060,1,0,0:0:0:0:
402,192,39102,1,0,0:0:0:0:
475,192,39102,1,0,0:0:0:0:
36,192,39272,1,2,0:0:0:0:
109,192,39272,1,0,0:0:0:0:
329,192,39272,1,0,0:0:0:0:
256,192,39357,1,0,0:0:0:0:
109,192,39442,1,2,0:0:0:0:
182,192,39442,1,8,0:0:0:0:
402,192,39442,1,0,0:0:0:0:
475,192,39442,1,0,0:0:0:0:
329,192,39527,1,0,0:0:0:0:
36,192,39612,1,2,0:0:0:0:
256,192,39612,1,0,0:0:0:0:
475,192,39612,1,0,0:0:0:0:
109,192,39697,1,0,0:0:0:0:
182,192,39782,1,0,0:0:0:0:
329,192,39782,1,0,0:0:0:0:
402,192,39867,1,0,0:0:0:0:
109,192,39952,1,2,0:0:0:0:
256,192,39952,1,0,0:0:0:0:
475,192,39952,1,0,0:0:0:0:
329,192,40037,1,0,0:0:0:0:
36,192,40122,1,2,0:0:0:0:
109,192,40122,1,8,0:0:0:0:
182,192,40122,1,0,0:0:0:0:
475,192,40122,1,0,0:0:0:0:
256,192,40292,1,0,0:0:0:0:
402,192,40292,1,0,0:0:0:0:
182,192,40377,1,0,0:0:0:0:
36,192,40462,1,2,0:0:0:0:
109,192,40462,1,4,0:0:0:0:
329,192,40462,1,0,0:0:0:0:
402,192,40462,1,0,0:0:0:0:
475,192,40462,1,0,0:0:0:0:
182,192,40632,1,0,0:0:0:0:
475,192,40632,1,0,0:0:0:0:
256,192,40717,1,0,0:0:0:0:
36,192,40802,1,2,0:0:0:0:
109,192,40802,1,8,0:0:0:0:
182,192,40802,1,0,0:0:0:0:
402,192,40802,1,0,0:0:0:0:
329,192,40887,1,0,0:0:0:0:
256,192,40972,1,0,0:0:0:0:
475,192,40972,1,0,0:0:0:0:
329,192,41057,1,0,0:0:0:0:
36,192,41142,1,2,0:0:0:0:
182,192,41142,1,0,0:0:0:0:
402,192,41142,1,0,0:0:0:0:
256,192,41227,1,0,0:0:0:0:
109,192,41312,1,0,0:0:0:0:
329,192,41312,1,0,0:0:0:0:
182,192,41397,1,0,0:0:0:0:
36,192,41482,1,2,0:0:0:0:
109,192,41482,1,8,0:0:0:0:
256,192,41482,1,0,0:0:0:0:
475,192,41482,1,0,0:0:0:0:
402,192,41567,1,0,0:0:0:0:
36,192,41652,1,2,0:0:0:0:
329,192,41652,1,0,0:0:0:0:
475,192,41652,1,0,0:0:0:0:
109,192,41737,1,0,0:0:0:0:
182,192,41822,1,2,0:0:0:0:
256,192,41822,1,0,0:0:0:0:
402,192,41822,1,0,0:0:0:0:
109,192,41907,1,0,0:0:0:0:
36,192,41992,1,0,0:0:0:0:
329,192,41992,1,0,0:0:0:0:
256,192,42077,1,0,0:0:0:0:
109,192,42162,1,2,0:0:0:0:
182,192,42162,1,8,0:0:0:0:
402,192,42162,1,0,0:0:0:0:
475,192,42162,1,0,0:0:0:0:
329,192,42247,1,0,0:0:0:0:
36,192,42332,1,0,0:0:0:0:
256,192,42332,1,0,0:0:0:0:
329,192,42417,1,0,0:0:0:0:
109,192,42502,1,2,0:0:0:0:
182,192,42502,1,0,0:0:0:0:
475,192,42502,1,0,0:0:0:0:
256,192,42587,1,0,0:0:0:0:
36,192,42672,1,0,0:0:0:0:
329,192,42672,1,0,0:0:0:0:
109,192,42757,1,0,0:0:0:0:
36,192,42842,1,2,0:0:0:0:
182,192,42842,1,8,0:0:0:0:
256,192,42842,1,0,0:0:0:0:
402,192,42842,1,0,0:0:0:0:
329,192,42927,1,0,0:0:0:0:
109,192,43012,1,0,0:0:0:0:
475,192,43012,1,0,0:0:0:0:
402,192,43097,1,0,0:0:0:0:
36,192,43182,1,2,0:0:0:0:
256,192,43182,1,0,0:0:0:0:
329,192,43182,1,0,0:0:0:0:
475,192,43182,1,0,0:0:0:0:
182,192,43267,1,0,0:0:0:0:
109,192,43352,1,0,0:0:0:0:
36,192,43437,1,2,0:0:0:0:
329,192,43437,1,0,0:0:0:0:
402,192,43437,1,0,0:0:0:0:
475,192,43437,1,0,0:0:0:0:
256,192,43522,1,0,0:0:0:0:
182,192,43607,1,0,0:0:0:0:
36,192,43692,1,2,0:0:0:0:
109,192,43692,1,0,0:0:0:0:
402,192,43692,1,0,0:0:0:0:
475,192,43692,1,0,0:0:0:0:
329,192,43777,1,0,0:0:0:0:
182,192,43862,1,2,0:0:0:0:
256,192,43862,1,0,0:0:0:0:
475,192,43862,1,0,0:0:0:0:
36,192,43947,1,0,0:0:0:0:
109,192,43947,1,0,0:0:0:0:
256,192,44032,1,2,0:0:0:0:
329,192,44032,1,0,0:0:0:0:
402,192,44032,1,0,0:0:0:0:
109,192,44117,1,0,0:0:0:0:
182,192,44117,1,0,0:0:0:0:
36,192,44202,1,2,0:0:0:0:
329,192,44202,1,0,0:0:0:0:
475,192,44202,1,0,0:0:0:0:
182,192,44287,1,0,0:0:0:0:
256,192,44287,1,0,0:0:0:0:
109,192,44372,1,2,0:0:0:0:
402,192,44372,1,0,0:0:0:0:
475,192,44372,1,0,0:0:0:0:
256,192,44456,1,0,0:0:0:0:
329,192,44456,1,0,0:0:0:0:
182,192,44711,1,0,0:0:0:0:
36,192,44881,1,2,0:0:0:0:
109,192,44881,128,4,45051:0:0:0:0:
329,192,44881,1,0,0:0:0:0:
402,192,44881,1,0,0:0:0:0:
475,192,44881,1,0,0:0:0:0:
182,192,44966,128,0,45136:0:0:0:0:
256,192,45051,128,0,45221:0:0:0:0:
402,192,45051,1,0,0:0:0:0:
329,192,45136,128,0,45306:0:0:0:0:
182,192,45221,128,0,45391:0:0:0:0:
475,192,45221,1,0,0:0:0:0:
256,192,45306,128,0,45476:0:0:0:0:
36,192,45391,1,0,0:0:0:0:
329,192,45391,128,0,45561:0:0:0:0:
402,192,45476,128,0,45646:0:0:0:0:
256,192,45561,128,0,45731:0:0:0:0:
475,192,45561,1,0,0:0:0:0:
182,192,45646,128,0,45816:0:0:0:0:
109,192,45731,128,0,45901:0:0:0:0:
329,192,45731,1,0,0:0:0:0:
36,192,45816,128,0,45901:0:0:0:0:
182,192,45901,1,2,0:0:0:0:
256,192,45901,1,4,0:0:0:0:
402,192,45901,1,0,0:0:0:0:
475,192,45901,128,0,46241:0:0:0:0:
256,192,46071,1,0,0:0:0:0:
329,192,46071,128,0,46411:0:0:0:0:
36,192,46241,1,0,0:0:0:0:
402,192,46241,128,0,46751:0:0:0:0:
36,192,46411,1,2,0:0:0:0:
182,192,46411,1,0,0:0:0:0:
475,192,46411,128,0,46581:0:0:0:0:
109,192,46581,1,0,0:0:0:85:LR_Snare Fast.wav
256,192,46581,1,0,0:0:0:0:
329,192,46581,128,0,46921:0:0:0:0:
36,192,46751,1,0,0:0:0:0:
475,192,46751,128,0,47091:0:0:0:0:
256,192,46921,1,0,0:0:0:0:
402,192,46921,128,0,47431:0:0:0:0:
109,192,47091,1,0,0:0:0:85:LR_Snare Fast.wav
256,192,47091,1,0,0:0:0:0:
329,192,47091,128,0,47261:0:0:0:0:
182,192,47261,1,0,0:0:0:0:
475,192,47261,128,0,47601:0:0:0:0:
36,192,47431,1,0,0:0:0:85:LR_Snare Fast.wav
182,192,47431,1,0,0:0:0:0:
329,192,47431,128,0,48196:0:0:0:0:
109,192,47601,1,0,0:0:0:0:
402,192,47601,128,0,47771:0:0:0:0:
256,192,47771,1,0,0:0:0:0:
475,192,47771,128,0,48196:0:0:0:0:
36,192,47941,128,0,48621:0:0:0:85:LR_Snare Fast.wav
182,192,47941,128,0,48621:0:0:0:0:
402,192,47941,128,0,48536:0:0:0:0:
109,192,48281,128,0,48536:0:0:0:85:LR_Snare Fast.wav
329,192,48281,128,0,48621:0:0:0:0:
475,192,48281,128,0,48621:0:0:0:0:
109,192,48621,1,2,0:0:0:0:
256,192,48621,128,0,48961:0:0:0:0:
402,192,48621,1,0,0:0:0:0:
329,192,48791,128,0,49301:0:0:0:0:
475,192,48791,1,0,0:0:0:0:
36,192,48961,1,0,0:0:0:0:
182,192,48961,128,0,49131:0:0:0:0:
36,192,49131,1,2,0:0:0:0:
256,192,49131,128,0,49641:0:0:0:0:
402,192,49131,1,0,0:0:0:0:
109,192,49301,1,0,0:0:0:85:LR_Snare Fast.wav
182,192,49301,128,0,49811:0:0:0:0:
475,192,49301,1,0,0:0:0:0:
329,192,49471,128,0,49981:0:0:0:0:
402,192,49471,1,0,0:0:0:0:
36,192,49641,1,0,0:0:0:0:
36,192,49811,1,0,0:0:0:85:LR_Snare Fast.wav
256,192,49811,128,0,50151:0:0:0:0:
402,192,49811,1,0,0:0:0:0:
182,192,49981,128,0,50321:0:0:0:0:
475,192,49981,1,0,0:0:0:0:
109,192,50151,1,0,0:0:0:85:LR_Snare Fast.wav
329,192,50151,128,0,50490:0:0:0:0:
475,192,50151,1,0,0:0:0:0:
36,192,50321,1,2,0:0:0:0:
256,192,50321,128,0,51000:0:0:0:0:
402,192,50321,1,0,0:0:0:0:
109,192,50490,1,0,0:0:0:0:
182,192,50490,128,0,50915:0:0:0:0:
36,192,50660,128,0,51340:0:0:0:85:LR_Snare Fast.wav
329,192,50660,128,0,51255:0:0:0:0:
475,192,50660,128,0,51255:0:0:0:0:
109,192,51000,128,0,51255:0:0:0:85:LR_Snare Fast.wav
182,192,51000,128,0,51340:0:0:0:0:
402,192,51000,128,0,51255:0:0:0:0:
109,192,51340,128,2,52020:0:0:0:0:
329,192,51340,1,4,0:0:0:0:
402,192,51340,1,0,0:0:0:0:
475,192,51340,1,0,0:0:0:0:
256,192,51510,1,0,0:0:0:0:
182,192,51680,128,0,52190:0:0:0:0:
475,192,51680,1,0,0:0:0:0:
329,192,51850,1,2,0:0:0:0:
475,192,51850,1,0,0:0:0:0:
36,192,52020,128,0,52530:0:0:0:85:LR_Snare Fast.wav
256,192,52020,1,0,0:0:0:0:
402,192,52020,1,0,0:0:0:0:
109,192,52190,128,0,52360:0:0:0:0:
329,192,52190,1,0,0:0:0:0:
182,192,52360,128,0,52870:0:0:0:0:
475,192,52360,1,0,0:0:0:0:
109,192,52530,128,0,53210:0:0:0:85:LR_Snare Fast.wav
256,192,52530,1,0,0:0:0:0:
475,192,52530,1,0,0:0:0:0:
36,192,52700,128,0,53040:0:0:0:0:
329,192,52700,1,0,0:0:0:0:
329,192,52870,1,0,0:0:0:85:LR_Snare Fast.wav
402,192,52870,1,0,0:0:0:0:
182,192,53040,128,0,53635:0:0:0:85:LR_Snare Fast.wav
475,192,53040,1,0,0:0:0:0:
36,192,53210,128,0,53635:0:0:0:0:
256,192,53210,1,0,0:0:0:0:
109,192,53380,128,0,53975:0:0:0:85:LR_Snare Fast.wav
329,192,53380,128,0,54060:0:0:0:0:
475,192,53380,128,0,54060:0:0:0:0:
36,192,53720,128,0,54060:0:0:0:85:LR_Snare Fast.wav
182,192,53720,128,0,54060:0:0:0:0:
402,192,53720,128,0,53975:0:0:0:0:
109,192,54060,1,2,0:0:0:0:
256,192,54060,128,0,54400:0:0:0:0:
402,192,54060,1,0,0:0:0:0:
329,192,54230,128,0,54570:0:0:0:0:
402,192,54400,128,0,54740:0:0:0:0:
36,192,54570,1,2,0:0:0:0:
182,192,54570,1,0,0:0:0:0:
256,192,54570,128,0,54910:0:0:0:0:
109,192,54740,128,0,55080:0:0:0:85:LR_Snare Fast.wav
329,192,54740,1,0,0:0:0:0:
475,192,54740,1,0,0:0:0:0:
182,192,54910,128,0,55250:0:0:0:0:
256,192,55080,128,0,55420:0:0:0:0:
36,192,55250,1,0,0:0:0:85:LR_Snare Fast.wav
329,192,55250,128,0,55420:0:0:0:0:
475,192,55250,1,0,0:0:0:0:
109,192,55420,128,0,55505:0:0:0:0:
402,192,55462,128,0,55547:0:0:0:0:
109,192,55590,128,0,55675:0:0:0:0:
402,192,55632,128,0,55717:0:0:0:0:
109,192,55760,128,0,55845:0:0:0:0:
402,192,55802,128,0,55887:0:0:0:0:
109,192,55930,128,0,56015:0:0:0:0:
402,192,55972,128,0,56057:0:0:0:0:
36,192,56100,128,0,56270:0:0:0:0:
182,192,56142,128,0,56312:0:0:0:0:
475,192,56270,128,0,56439:0:0:0:0:
329,192,56312,128,0,56482:0:0:0:0:
36,192,56439,128,0,56609:0:0:0:0:
182,192,56482,128,0,56652:0:0:0:0:
475,192,56609,128,0,56779:0:0:0:0:
329,192,56652,128,0,56779:0:0:0:0:
36,192,56779,1,2,0:0:0:0:
109,192,56779,1,4,0:0:0:0:
182,192,56779,1,0,0:0:0:0:
256,192,56779,1,0,0:0:0:0:
402,192,56779,1,0,0:0:0:0:
109,192,56949,1,0,0:0:0:0:
182,192,57034,1,0,0:0:0:0:
402,192,57034,1,0,0:0:0:0:
109,192,57119,1,0,0:0:0:0:
182,192,57289,1,0,0:0:0:0:
402,192,57289,1,0,0:0:0:0:
256,192,57459,1,0,0:0:0:0:
475,192,57459,1,0,0:0:0:0:
182,192,57629,1,0,0:0:0:0:
329,192,57714,1,0,0:0:0:0:
475,192,57714,1,0,0:0:0:0:
182,192,57799,1,0,0:0:0:0:
329,192,57969,1,0,0:0:0:0:
475,192,57969,1,0,0:0:0:0:
36,192,58139,1,0,0:0:0:0:
109,192,58139,1,0,0:0:0:0:
256,192,58139,1,0,0:0:0:0:
402,192,58309,1,0,0:0:0:0:
109,192,58394,1,0,0:0:0:0:
329,192,58394,1,0,0:0:0:0:
402,192,58479,1,0,0:0:0:0:
109,192,58649,1,0,0:0:0:0:
329,192,58649,1,0,0:0:0:0:
36,192,58819,1,0,0:0:0:0:
256,192,58819,1,0,0:0:0:0:
329,192,58989,1,0,0:0:0:0:
36,192,59074,1,0,0:0:0:0:
182,192,59074,1,0,0:0:0:0:
329,192,59159,1,0,0:0:0:0:
36,192,59329,1,0,0:0:0:0:
182,192,59329,1,0,0:0:0:0:
109,192,59499,1,4,0:0:0:0:
256,192,59499,1,0,0:0:0:0:
402,192,59499,1,0,0:0:0:0:
475,192,59499,1,0,0:0:0:0:
182,192,59669,1,0,0:0:0:0:
329,192,59754,1,0,0:0:0:0:
475,192,59754,1,0,0:0:0:0:
109,192,59839,1,0,0:0:0:0:
256,192,60009,1,0,0:0:0:0:
402,192,60009,1,0,0:0:0:0:
36,192,60179,1,0,0:0:0:0:
109,192,60179,1,0,0:0:0:0:
329,192,60349,1,0,0:0:0:0:
36,192,60434,1,0,0:0:0:0:
182,192,60434,1,0,0:0:0:0:
402,192,60519,1,0,0:0:0:0:
109,192,60689,1,0,0:0:0:0:
256,192,60689,1,0,0:0:0:0:
182,192,60859,1,0,0:0:0:0:
329,192,60859,1,0,0:0:0:0:
475,192,60859,1,0,0:0:0:0:
36,192,61029,1,0,0:0:0:0:
256,192,61199,1,0,0:0:0:0:
329,192,61369,1,0,0:0:0:0:
475,192,61369,1,0,0:0:0:0:
36,192,61539,1,0,0:0:0:0:
182,192,61539,1,0,0:0:0:0:
475,192,61709,1,0,0:0:0:0:
256,192,61879,1,0,0:0:0:0:
36,192,62049,1,0,0:0:0:0:
182,192,62049,1,0,0:0:0:0:
109,192,62219,1,2,0:0:0:0:
256,192,62219,1,4,0:0:0:0:
402,192,62219,1,0,0:0:0:0:
475,192,62219,1,0,0:0:0:0:
36,192,62304,1,0,0:0:0:0:
182,192,62389,1,0,0:0:0:0:
329,192,62389,1,0,0:0:0:0:
109,192,62473,1,0,0:0:0:0:
36,192,62558,1,2,0:0:0:0:
256,192,62558,1,0,0:0:0:0:
402,192,62558,1,0,0:0:0:0:
182,192,62643,1,0,0:0:0:0:
329,192,62728,1,0,0:0:0:0:
475,192,62728,1,0,0:0:0:0:
109,192,62813,1,0,0:0:0:0:
36,192,62898,1,2,0:0:0:0:
182,192,62898,1,4,0:0:0:0:
256,192,62898,1,0,0:0:0:0:
402,192,62898,1,0,0:0:0:0:
475,192,62983,1,0,0:0:0:0:
182,192,63068,1,0,0:0:0:0:
329,192,63068,1,0,0:0:0:0:
402,192,63153,1,0,0:0:0:0:
109,192,63238,1,2,0:0:0:0:
256,192,63238,1,0,0:0:0:0:
475,192,63238,1,0,0:0:0:0:
329,192,63323,1,0,0:0:0:0:
36,192,63408,1,0,0:0:0:0:
182,192,63408,1,0,0:0:0:0:
256,192,63493,1,0,0:0:0:0:
109,192,63578,1,2,0:0:0:0:
182,192,63578,1,4,0:0:0:0:
329,192,63578,1,0,0:0:0:0:
475,192,63578,1,0,0:0:0:0:
36,192,63663,1,0,0:0:0:0:
329,192,63748,1,0,0:0:0:0:
402,192,63748,1,0,0:0:0:0:
182,192,63833,1,0,0:0:0:0:
36,192,63918,1,2,0:0:0:0:
109,192,63918,1,0,0:0:0:0:
402,192,63918,1,0,0:0:0:0:
256,192,64003,1,0,0:0:0:0:
182,192,64088,1,0,0:0:0:0:
475,192,64088,1,0,0:0:0:0:
329,192,64173,1,0,0:0:0:0:
36,192,64258,1,2,0:0:0:0:
109,192,64258,1,4,0:0:0:0:
256,192,64258,1,0,0:0:0:0:
475,192,64258,1,0,0:0:0:0:
402,192,64343,1,0,0:0:0:0:
36,192,64428,1,0,0:0:0:0:
182,192,64428,1,0,0:0:0:0:
329,192,64513,1,0,0:0:0:0:
109,192,64598,1,2,0:0:0:0:
402,192,64598,1,0,0:0:0:0:
475,192,64598,1,0,0:0:0:0:
256,192,64683,1,0,0:0:0:0:
36,192,64768,1,0,0:0:0:0:
329,192,64768,1,0,0:0:0:0:
182,192,64853,1,0,0:0:0:0:
256,192,64938,1,2,0:0:0:0:
402,192,64938,1,0,0:0:0:0:
475,192,64938,1,0,0:0:0:0:
36,192,65023,1,0,0:0:0:0:
109,192,65023,1,0,0:0:0:0:
256,192,65108,1,0,0:0:0:0:
329,192,65108,1,0,0:0:0:0:
109,192,65193,1,0,0:0:0:0:
182,192,65193,1,0,0:0:0:0:
329,192,65278,1,2,0:0:0:0:
402,192,65278,1,0,0:0:0:0:
475,192,65278,1,0,0:0:0:0:
182,192,65363,1,0,0:0:0:0:
256,192,65363,1,0,0:0:0:0:
36,192,65448,1,0,0:0:0:0:
109,192,65448,1,0,0:0:0:0:
475,192,65448,1,0,0:0:0:0:
256,192,65533,1,0,0:0:0:0:
329,192,65533,1,0,0:0:0:0:
36,192,65618,1,2,0:0:0:0:
109,192,65618,1,0,0:0:0:0:
182,192,65618,1,0,0:0:0:0:
329,192,65703,1,0,0:0:0:0:
402,192,65703,1,0,0:0:0:0:
109,192,65788,1,2,0:0:0:0:
182,192,65788,1,0,0:0:0:0:
256,192,65788,1,0,0:0:0:0:
402,192,65873,1,0,0:0:0:0:
475,192,65873,1,0,0:0:0:0:
182,192,65958,1,2,0:0:0:0:
256,192,65958,1,0,0:0:0:0:
329,192,65958,1,0,0:0:0:0:
36,192,66043,1,0,0:0:0:0:
109,192,66043,1,0,0:0:0:0:
329,192,66128,1,2,0:0:0:0:
402,192,66128,1,0,0:0:0:0:
475,192,66128,1,0,0:0:0:0:
182,192,66213,1,0,0:0:0:0:
256,192,66213,1,0,0:0:0:0:
36,192,66298,1,2,0:0:0:0:
109,192,66298,1,4,0:0:0:0:
329,192,66298,1,0,0:0:0:0:
402,192,66298,1,0,0:0:0:0:
475,192,66298,1,0,0:0:0:0:
36,192,66638,1,0,0:0:0:0:
475,192,66638,1,0,0:0:0:0:
109,192,66978,1,0,0:0:0:0:
402,192,66978,1,0,0:0:0:0:
182,192,67148,1,0,0:0:0:0:
329,192,67148,1,0,0:0:0:0:
36,192,67318,1,0,0:0:0:0:
475,192,67318,1,0,0:0:0:0:
109,192,67488,1,0,0:0:0:0:
402,192,67488,1,0,0:0:0:0:
182,192,67658,1,0,0:0:0:0:
329,192,67658,1,0,0:0:0:0:
109,192,67828,1,0,0:0:0:0:
402,192,67828,1,0,0:0:0:0:
109,192,67913,1,0,0:0:0:0:
402,192,67913,1,0,0:0:0:0:
182,192,67998,1,0,0:0:0:0:
329,192,67998,1,0,0:0:0:0:
109,192,68168,1,0,0:0:0:0:
402,192,68168,1,0,0:0:0:0:
36,192,68338,1,0,0:0:0:0:
475,192,68338,1,0,0:0:0:0:
109,192,68677,1,0,0:0:0:0:
182,192,68720,1,0,0:0:0:0:
329,192,68762,1,0,0:0:0:0:
402,192,68805,1,0,0:0:0:0:
109,192,68847,1,0,0:0:0:0:
182,192,68890,1,0,0:0:0:0:
329,192,68932,1,0,0:0:0:0:
402,192,68975,1,0,0:0:0:0:
36,192,69017,1,2,0:0:0:0:
109,192,69017,1,4,0:0:0:0:
182,192,69017,1,0,0:0:0:0:
256,192,69017,1,0,0:0:0:0:
475,192,69017,128,0,69357:0:0:0:0:
329,192,69102,1,0,0:0:0:0:
36,192,69187,1,0,0:0:0:0:
402,192,69187,1,0,0:0:0:0:
109,192,69272,1,0,0:0:0:0:
36,192,69357,1,2,0:0:0:0:
182,192,69357,1,8,0:0:0:0:
256,192,69357,1,0,0:0:0:0:
329,192,69357,1,0,0:0:0:0:
402,192,69442,1,0,0:0:0:0:
109,192,69527,1,0,0:0:0:0:
256,192,69527,128,0,69697:0:0:0:0:
475,192,69527,1,0,0:0:0:0:
329,192,69612,1,0,0:0:0:0:
36,192,69697,128,2,70037:0:0:0:0:
182,192,69697,1,0,0:0:0:0:
402,192,69697,1,0,0:0:0:0:
109,192,69782,1,0,0:0:0:0:
329,192,69867,1,0,0:0:0:0:
475,192,69867,1,0,0:0:0:0:
256,192,69952,1,0,0:0:0:0:
109,192,70037,1,2,0:0:0:0:
182,192,70037,1,8,0:0:0:0:
402,192,70037,1,0,0:0:0:0:
475,192,70037,1,0,0:0:0:0:
329,192,70122,1,0,0:0:0:0:
36,192,70207,1,0,0:0:0:0:
256,192,70207,128,0,70377:0:0:0:0:
402,192,70207,1,0,0:0:0:0:
109,192,70292,1,0,0:0:0:0:
182,192,70377,1,2,0:0:0:0:
329,192,70377,128,0,70717:0:0:0:0:
475,192,70377,1,0,0:0:0:0:
402,192,70462,1,0,0:0:0:0:
36,192,70547,1,0,0:0:0:0:
256,192,70547,1,0,0:0:0:0:
182,192,70632,1,0,0:0:0:0:
36,192,70717,1,2,0:0:0:0:
109,192,70717,1,8,0:0:0:0:
402,192,70717,1,0,0:0:0:0:
475,192,70717,1,0,0:0:0:0:
182,192,70802,1,0,0:0:0:0:
109,192,70887,1,0,0:0:0:0:
256,192,70887,1,0,0:0:0:0:
475,192,70887,128,0,70972:0:0:0:0:
329,192,70972,1,0,0:0:0:0:
36,192,71057,1,2,0:0:0:0:
182,192,71057,1,0,0:0:0:0:
402,192,71057,128,0,71142:0:0:0:0:
256,192,71142,1,0,0:0:0:0:
109,192,71227,1,0,0:0:0:0:
329,192,71227,128,0,71312:0:0:0:0:
475,192,71227,1,0,0:0:0:0:
182,192,71312,1,0,0:0:0:0:
36,192,71397,1,2,0:0:0:0:
256,192,71397,128,8,71482:0:0:0:0:
402,192,71397,1,0,0:0:0:0:
475,192,71397,1,0,0:0:0:0:
109,192,71482,1,0,0:0:0:0:
36,192,71567,1,0,0:0:0:0:
182,192,71567,128,0,71652:0:0:0:0:
329,192,71567,1,0,0:0:0:0:
256,192,71652,1,0,0:0:0:0:
109,192,71737,1,2,0:0:0:0:
402,192,71737,1,0,0:0:0:0:
475,192,71737,1,0,0:0:0:0:
329,192,71822,1,0,0:0:0:0:
36,192,71907,1,0,0:0:0:0:
182,192,71907,128,0,71992:0:0:0:0:
475,192,71907,1,0,0:0:0:0:
402,192,71992,1,0,0:0:0:0:
36,192,72077,1,2,0:0:0:0:
109,192,72077,1,8,0:0:0:0:
256,192,72077,128,0,72162:0:0:0:0:
329,192,72077,1,0,0:0:0:0:
475,192,72162,1,0,0:0:0:0:
109,192,72247,1,0,0:0:0:0:
182,192,72247,1,0,0:0:0:0:
329,192,72247,128,0,72332:0:0:0:0:
402,192,72332,1,0,0:0:0:0:
36,192,72417,128,2,72502:0:0:0:0:
256,192,72417,1,0,0:0:0:0:
475,192,72417,1,0,0:0:0:0:
329,192,72502,1,0,0:0:0:0:
36,192,72587,1,0,0:0:0:0:
109,192,72587,128,0,72757:0:0:0:0:
402,192,72587,1,0,0:0:0:0:
182,192,72672,1,0,0:0:0:0:
256,192,72757,1,2,0:0:0:0:
329,192,72757,1,8,0:0:0:0:
402,192,72757,1,0,0:0:0:0:
475,192,72757,1,0,0:0:0:0:
36,192,72842,1,0,0:0:0:0:
182,192,72927,128,0,73097:0:0:0:0:
329,192,72927,1,0,0:0:0:0:
475,192,72927,1,0,0:0:0:0:
256,192,73012,1,0,0:0:0:0:
36,192,73097,1,2,0:0:0:0:
109,192,73097,1,0,0:0:0:0:
402,192,73097,1,0,0:0:0:0:
329,192,73182,1,0,0:0:0:0:
36,192,73267,1,0,0:0:0:0:
182,192,73267,1,0,0:0:0:0:
475,192,73267,128,0,73352:0:0:0:0:
329,192,73352,1,0,0:0:0:0:
109,192,73437,1,2,0:0:0:0:
256,192,73437,128,8,73777:0:0:0:0:
402,192,73437,1,0,0:0:0:0:
475,192,73437,1,0,0:0:0:0:
182,192,73522,1,0,0:0:0:0:
36,192,73607,1,0,0:0:0:0:
402,192,73607,1,0,0:0:0:0:
109,192,73692,1,0,0:0:0:0:
182,192,73777,128,2,73862:0:0:0:0:
329,192,73777,128,0,73862:0:0:0:0:
475,192,73777,128,0,73862:0:0:0:0:
109,192,73862,1,0,0:0:0:0:
36,192,73947,1,0,0:0:0:0:
402,192,73947,1,0,0:0:0:0:
256,192,74032,1,0,0:0:0:0:
36,192,74117,128,2,74202:0:0:0:0:
182,192,74117,128,8,74202:0:0:0:0:
329,192,74117,128,0,74202:0:0:0:0:
475,192,74117,128,0,74202:0:0:0:0:
109,192,74202,1,0,0:0:0:0:
256,192,74287,128,0,74456:0:0:0:0:
402,192,74287,1,0,0:0:0:0:
475,192,74287,1,0,0:0:0:0:
182,192,74372,1,0,0:0:0:0:
36,192,74456,1,2,0:0:0:0:
109,192,74456,1,4,0:0:0:0:
329,192,74456,1,0,0:0:0:0:
402,192,74456,1,0,0:0:0:0:
475,192,74456,128,0,74796:0:0:0:0:
256,192,74541,1,0,0:0:0:0:
109,192,74626,1,0,0:0:0:0:
182,192,74626,1,0,0:0:0:0:
329,192,74711,1,0,0:0:0:0:
36,192,74796,1,2,0:0:0:0:
182,192,74796,1,8,0:0:0:0:
256,192,74796,1,0,0:0:0:0:
402,192,74796,1,0,0:0:0:0:
109,192,74881,1,0,0:0:0:0:
256,192,74966,128,0,75136:0:0:0:0:
329,192,74966,1,0,0:0:0:0:
475,192,74966,1,0,0:0:0:0:
402,192,75051,1,0,0:0:0:0:
36,192,75136,128,2,75476:0:0:0:0:
109,192,75136,1,0,0:0:0:0:
182,192,75136,1,0,0:0:0:0:
329,192,75221,1,0,0:0:0:0:
402,192,75306,1,0,0:0:0:0:
475,192,75306,1,0,0:0:0:0:
256,192,75391,1,0,0:0:0:0:
109,192,75476,1,2,0:0:0:0:
182,192,75476,1,8,0:0:0:0:
329,192,75476,1,0,0:0:0:0:
475,192,75476,1,0,0:0:0:0:
402,192,75561,1,0,0:0:0:0:
36,192,75646,1,0,0:0:0:0:
109,192,75646,1,0,0:0:0:0:
256,192,75646,128,0,75816:0:0:0:0:
329,192,75731,1,0,0:0:0:0:
182,192,75816,128,2,76156:0:0:0:0:
402,192,75816,1,0,0:0:0:0:
475,192,75816,1,0,0:0:0:0:
36,192,75901,1,0,0:0:0:0:
109,192,75986,1,0,0:0:0:0:
329,192,75986,1,0,0:0:0:0:
402,192,76071,1,0,0:0:0:0:
36,192,76156,1,2,0:0:0:0:
256,192,76156,1,8,0:0:0:0:
329,192,76156,128,0,76241:0:0:0:0:
475,192,76156,1,0,0:0:0:0:
109,192,76241,1,0,0:0:0:0:
36,192,76326,1,0,0:0:0:0:
182,192,76326,1,0,0:0:0:0:
402,192,76326,128,0,76666:0:0:0:0:
329,192,76411,1,0,0:0:0:0:
109,192,76496,1,2,0:0:0:0:
256,192,76496,1,0,0:0:0:0:
475,192,76496,1,0,0:0:0:0:
36,192,76581,1,0,0:0:0:0:
182,192,76666,128,0,76751:0:0:0:0:
256,192,76666,1,0,0:0:0:0:
329,192,76666,1,0,0:0:0:0:
109,192,76751,1,0,0:0:0:0:
36,192,76836,1,2,0:0:0:0:
329,192,76836,128,8,76921:0:0:0:0:
402,192,76836,1,0,0:0:0:0:
475,192,76836,1,0,0:0:0:0:
256,192,76921,1,0,0:0:0:0:
109,192,77006,128,0,77091:0:0:0:0:
182,192,77006,1,0,0:0:0:0:
475,192,77006,1,0,0:0:0:0:
402,192,77091,1,0,0:0:0:0:
36,192,77176,1,2,0:0:0:0:
256,192,77176,1,0,0:0:0:0:
329,192,77176,1,0,0:0:0:0:
402,192,77261,1,0,0:0:0:0:
109,192,77346,1,0,0:0:0:0:
256,192,77346,1,0,0:0:0:0:
329,192,77431,1,0,0:0:0:0:
36,192,77516,128,2,77601:0:0:0:0:
182,192,77516,1,8,0:0:0:0:
402,192,77516,1,0,0:0:0:0:
475,192,77516,1,0,0:0:0:0:
256,192,77601,1,0,0:0:0:0:
109,192,77686,1,0,0:0:0:0:
182,192,77686,128,0,77771:0:0:0:0:
329,192,77686,1,0,0:0:0:0:
36,192,77771,1,0,0:0:0:0:
256,192,77856,1,2,0:0:0:0:
402,192,77856,1,0,0:0:0:0:
475,192,77856,128,0,77941:0:0:0:0:
182,192,77941,1,0,0:0:0:0:
36,192,78026,1,0,0:0:0:0:
109,192,78026,1,0,0:0:0:0:
329,192,78026,128,0,78111:0:0:0:0:
402,192,78111,1,0,0:0:0:0:
109,192,78196,1,2,0:0:0:0:
182,192,78196,128,8,78281:0:0:0:0:
256,192,78196,1,0,0:0:0:0:
475,192,78196,1,0,0:0:0:0:
329,192,78281,1,0,0:0:0:0:
36,192,78366,128,2,78451:0:0:0:0:
256,192,78366,1,0,0:0:0:0:
402,192,78366,1,0,0:0:0:0:
109,192,78451,1,0,0:0:0:0:
182,192,78536,1,2,0:0:0:0:
329,192,78536,1,0,0:0:0:0:
402,192,78536,1,0,0:0:0:0:
475,192,78536,1,0,0:0:0:0:
109,192,78621,1,0,0:0:0:0:
36,192,78706,1,0,0:0:0:0:
256,192,78791,1,2,0:0:0:0:
329,192,78791,1,0,0:0:0:0:
402,192,78791,1,0,0:0:0:0:
475,192,78791,1,0,0:0:0:0:
182,192,78876,1,0,0:0:0:0:
109,192,78961,1,0,0:0:0:0:
36,192,79046,1,2,0:0:0:0:
329,192,79046,1,0,0:0:0:0:
402,192,79046,1,0,0:0:0:0:
475,192,79046,1,0,0:0:0:0:
256,192,79131,1,0,0:0:0:0:
36,192,79216,1,2,0:0:0:0:
182,192,79216,1,0,0:0:0:0:
475,192,79216,1,0,0:0:0:0:
256,192,79301,1,0,0:0:0:0:
402,192,79301,1,0,0:0:0:0:
182,192,79386,1,0,0:0:0:0:
329,192,79386,1,0,0:0:0:0:
109,192,79471,1,0,0:0:0:0:
256,192,79471,1,0,0:0:0:0:
36,192,79556,1,2,0:0:0:0:
329,192,79556,1,0,0:0:0:0:
475,192,79556,1,0,0:0:0:0:
182,192,79641,1,0,0:0:0:0:
402,192,79641,1,0,0:0:0:0:
256,192,79726,1,0,0:0:0:0:
475,192,79726,1,0,0:0:0:0:
109,192,79811,1,0,0:0:0:0:
329,192,79811,1,0,0:0:0:0:
36,192,79896,1,2,0:0:0:0:
182,192,79896,128,4,80575:0:0:0:0:
256,192,79896,1,8,0:0:0:0:
402,192,79896,1,0,0:0:0:0:
475,192,79896,1,0,0:0:0:0:
329,192,80236,128,0,80915:0:0:0:0:
402,192,80405,1,0,0:0:0:0:
36,192,80575,1,2,0:0:0:0:
109,192,80575,1,0,0:0:0:0:
256,192,80575,1,0,0:0:0:0:
475,192,80575,128,0,81255:0:0:0:0:
109,192,80915,1,0,0:0:0:0:
402,192,80915,128,0,81085:0:0:0:0:
256,192,81085,128,0,81255:0:0:0:0:
36,192,81255,128,2,81765:0:0:0:0:
109,192,81255,1,8,0:0:0:0:
329,192,81255,1,0,0:0:0:0:
402,192,81255,1,0,0:0:0:0:
182,192,81425,128,0,81935:0:0:0:0:
256,192,81595,1,0,0:0:0:0:
475,192,81595,1,0,0:0:0:0:
329,192,81765,128,0,82105:0:0:0:0:
36,192,81935,1,2,0:0:0:0:
109,192,81935,1,0,0:0:0:0:
402,192,81935,1,0,0:0:0:0:
475,192,81935,1,0,0:0:0:0:
36,192,82275,1,0,0:0:0:0:
475,192,82275,1,0,0:0:0:0:
256,192,82445,128,0,82785:0:0:0:0:
36,192,82615,1,2,0:0:0:0:
182,192,82615,1,8,0:0:0:0:
329,192,82615,1,0,0:0:0:0:
402,192,82615,128,0,82955:0:0:0:0:
109,192,82785,128,0,83125:0:0:0:0:
256,192,82955,1,0,0:0:0:0:
475,192,82955,128,0,83295:0:0:0:0:
329,192,83125,128,0,83295:0:0:0:0:
36,192,83295,1,2,0:0:0:0:
182,192,83295,1,8,0:0:0:0:
256,192,83295,1,0,0:0:0:0:
402,192,83295,1,0,0:0:0:0:
36,192,83465,1,2,0:0:0:0:
182,192,83465,1,0,0:0:0:0:
329,192,83465,128,0,83805:0:0:0:0:
256,192,83635,128,0,83975:0:0:0:0:
475,192,83635,1,0,0:0:0:0:
36,192,83805,128,2,84145:0:0:0:0:
109,192,83805,1,0,0:0:0:0:
402,192,83805,1,0,0:0:0:0:
329,192,83975,1,0,0:0:0:0:
109,192,84145,1,2,0:0:0:0:
402,192,84145,1,0,0:0:0:0:
475,192,84145,128,0,84315:0:0:0:0:
329,192,84230,1,0,0:0:0:0:
36,192,84315,1,0,0:0:0:0:
256,192,84315,1,0,0:0:0:0:
402,192,84400,1,0,0:0:0:0:
109,192,84485,1,2,0:0:0:0:
182,192,84485,128,0,84655:0:0:0:0:
475,192,84485,1,0,0:0:0:0:
256,192,84570,1,0,0:0:0:0:
36,192,84655,1,0,0:0:0:0:
329,192,84655,1,0,0:0:0:0:
109,192,84740,1,0,0:0:0:0:
182,192,84825,1,2,0:0:0:0:
329,192,84825,1,0,0:0:0:0:
402,192,84825,128,0,84995:0:0:0:0:
256,192,84910,1,0,0:0:0:0:
36,192,84995,1,2,0:0:0:0:
109,192,84995,128,0,85165:0:0:0:0:
475,192,84995,1,0,0:0:0:0:
329,192,85080,1,0,0:0:0:0:
256,192,85165,1,0,0:0:0:0:
402,192,85165,1,0,0:0:0:0:
475,192,85250,1,0,0:0:0:0:
36,192,85335,1,2,0:0:0:0:
109,192,85335,1,8,0:0:0:0:
182,192,85335,1,4,0:0:0:0:
329,192,85335,1,0,0:0:0:0:
402,192,85335,1,0,0:0:0:0:
256,192,85420,1,0,0:0:0:0:
36,192,85505,128,0,85590:0:0:0:0:
329,192,85505,1,0,0:0:0:0:
475,192,85505,1,0,0:0:0:0:
109,192,85590,1,0,0:0:0:0:
36,192,85675,128,8,85760:0:0:0:0:
182,192,85675,1,2,0:0:0:0:
256,192,85675,1,0,0:0:0:0:
402,192,85675,1,0,0:0:0:0:
329,192,85760,1,0,0:0:0:0:
109,192,85845,128,0,85930:0:0:0:0:
182,192,85845,1,0,0:0:0:0:
475,192,85845,1,0,0:0:0:0:
402,192,85930,1,0,0:0:0:0:
36,192,86015,1,2,0:0:0:0:
256,192,86015,128,0,86100:0:0:0:0:
329,192,86015,1,0,0:0:0:0:
402,192,86100,1,0,0:0:0:0:
182,192,86185,1,0,0:0:0:0:
475,192,86185,1,0,0:0:0:0:
256,192,86270,1,0,0:0:0:0:
36,192,86355,1,2,0:0:0:0:
109,192,86355,1,8,0:0:0:0:
329,192,86355,1,0,0:0:0:0:
402,192,86355,1,0,0:0:0:0:
256,192,86439,1,0,0:0:0:0:
36,192,86524,1,0,0:0:0:0:
182,192,86524,128,0,86609:0:0:0:0:
475,192,86524,1,0,0:0:0:0:
402,192,86609,1,0,0:0:0:0:
109,192,86694,128,2,86779:0:0:0:0:
329,192,86694,1,0,0:0:0:0:
475,192,86694,1,0,0:0:0:0:
182,192,86779,1,0,0:0:0:0:
36,192,86864,1,2,0:0:0:0:
256,192,86864,128,0,86949:0:0:0:0:
402,192,86864,1,0,0:0:0:0:
109,192,86949,1,0,0:0:0:0:
182,192,87034,1,2,0:0:0:0:
402,192,87034,128,0,87119:0:0:0:0:
475,192,87034,1,0,0:0:0:0:
36,192,87119,1,0,0:0:0:0:
109,192,87204,1,2,0:0:0:0:
256,192,87204,1,0,0:0:0:0:
329,192,87204,1,0,0:0:0:0:
475,192,87289,1,0,0:0:0:0:
36,192,87374,128,2,87459:0:0:0:0:
182,192,87374,1,8,0:0:0:0:
329,192,87374,1,0,0:0:0:0:
402,192,87374,1,0,0:0:0:0:
256,192,87459,1,0,0:0:0:0:
109,192,87544,128,2,87629:0:0:0:0:
402,192,87544,1,0,0:0:0:0:
475,192,87544,1,0,0:0:0:0:
329,192,87629,1,0,0:0:0:0:
36,192,87714,1,2,0:0:0:0:
182,192,87714,128,0,87799:0:0:0:0:
475,192,87714,1,0,0:0:0:0:
402,192,87799,1,0,0:0:0:0:
36,192,87884,1,2,0:0:0:0:
109,192,87884,1,0,0:0:0:0:
256,192,87884,128,0,87969:0:0:0:0:
329,192,87969,1,0,0:0:0:0:
109,192,88054,1,2,0:0:0:0:
182,192,88054,1,0,0:0:0:0:
402,192,88054,1,0,0:0:0:0:
256,192,88139,1,0,0:0:0:0:
329,192,88224,1,0,0:0:0:0:
402,192,88224,1,0,0:0:0:0:
475,192,88224,1,0,0:0:0:0:
36,192,88309,1,0,0:0:0:0:
182,192,88309,1,0,0:0:0:0:
109,192,88394,1,2,0:0:0:0:
329,192,88394,1,0,0:0:0:0:
475,192,88394,1,0,0:0:0:0:
256,192,88479,1,0,0:0:0:0:
36,192,88564,1,0,0:0:0:0:
109,192,88564,1,0,0:0:0:0:
182,192,88564,1,0,0:0:0:0:
329,192,88649,1,0,0:0:0:0:
475,192,88649,1,0,0:0:0:0:
36,192,88734,1,2,0:0:0:0:
182,192,88734,1,0,0:0:0:0:
402,192,88734,1,0,0:0:0:0:
256,192,88819,1,0,0:0:0:0:
475,192,88819,1,0,0:0:0:0:
109,192,88904,1,0,0:0:0:0:
182,192,88904,1,0,0:0:0:0:
329,192,88904,1,0,0:0:0:0:
402,192,88989,1,0,0:0:0:0:
475,192,88989,1,0,0:0:0:0:
36,192,89074,1,2,0:0:0:0:
109,192,89074,1,0,0:0:0:0:
256,192,89074,1,0,0:0:0:0:
329,192,89159,1,0,0:0:0:0:
402,192,89159,1,0,0:0:0:0:
36,192,89244,1,0,0:0:0:0:
182,192,89244,1,0,0:0:0:0:
475,192,89244,1,0,0:0:0:0:
256,192,89329,1,0,0:0:0:0:
329,192,89329,1,0,0:0:0:0:
36,192,89414,128,2,89754:0:0:0:0:
109,192,89414,128,4,89754:0:0:0:0:
182,192,89414,128,0,89754:0:0:0:0:
402,192,89414,128,0,89754:0:0:0:0:
475,192,89414,128,0,89754:0:0:0:0:
329,192,89754,128,0,89839:0:0:0:0:
256,192,89924,128,0,90009:0:0:0:0:
402,192,90094,128,0,90179:0:0:0:0:
329,192,90264,128,0,90349:0:0:0:0:
36,192,90434,128,2,90689:0:0:0:0:
182,192,90434,128,0,90519:0:0:0:0:
475,192,90434,128,0,90689:0:0:0:0:
256,192,90604,128,0,90689:0:0:0:0:
36,192,90774,1,2,0:0:0:0:
109,192,90774,1,4,0:0:0:0:
329,192,90774,1,0,0:0:0:0:
402,192,90774,1,0,0:0:0:0:
475,192,90774,1,0,0:0:0:0:
182,192,90944,1,0,0:0:0:0:
329,192,91029,1,0,0:0:0:0:
475,192,91114,1,0,0:0:0:0:
182,192,91199,1,0,0:0:0:0:
256,192,91369,1,0,0:0:0:0:
402,192,91454,1,0,0:0:0:0:
36,192,91539,1,0,0:0:0:0:
182,192,91624,1,0,0:0:0:0:
329,192,91709,128,0,91879:0:0:0:0:
109,192,91879,1,0,0:0:0:0:
256,192,91964,1,0,0:0:0:0:
402,192,92049,1,0,0:0:0:0:
36,192,92134,1,0,0:0:0:0:
182,192,92134,1,0,0:0:0:0:
475,192,92134,1,0,0:0:0:0:
329,192,92304,1,0,0:0:0:0:
182,192,92389,1,0,0:0:0:0:
36,192,92473,1,0,0:0:0:0:
329,192,92558,1,0,0:0:0:0:
109,192,92728,1,0,0:0:0:0:
402,192,92813,1,0,0:0:0:0:
182,192,92898,1,0,0:0:0:0:
329,192,92983,1,0,0:0:0:0:
475,192,93068,128,0,93238:0:0:0:0:
36,192,93238,1,0,0:0:0:0:
182,192,93323,1,0,0:0:0:0:
329,192,93408,1,0,0:0:0:0:
36,192,93493,1,2,0:0:0:0:
109,192,93493,1,4,0:0:0:0:
256,192,93493,1,0,0:0:0:0:
402,192,93493,1,0,0:0:0:0:
475,192,93493,1,0,0:0:0:0:
182,192,93680,1,0,0:0:0:0:
329,192,93774,1,0,0:0:0:0:
475,192,93868,1,0,0:0:0:0:
182,192,93961,1,0,0:0:0:0:
36,192,94149,1,0,0:0:0:0:
256,192,94243,1,0,0:0:0:0:
109,192,94336,1,0,0:0:0:0:
256,192,94430,1,0,0:0:0:0:
36,192,94524,1,0,0:0:0:0:
402,192,94524,128,0,94711:0:0:0:0:
109,192,94618,1,0,0:0:0:0:
329,192,94618,1,0,0:0:0:0:
182,192,94711,1,0,0:0:0:0:
329,192,94805,1,0,0:0:0:0:
475,192,94899,1,0,0:0:0:0:
36,192,94993,1,0,0:0:0:0:
256,192,94993,1,0,0:0:0:0:
109,192,95086,1,0,0:0:0:0:
329,192,95086,1,0,0:0:0:0:
256,192,95180,1,0,0:0:0:0:
182,192,95274,1,0,0:0:0:0:
109,192,95368,1,0,0:0:0:0:
329,192,95368,1,0,0:0:0:0:
182,192,95461,1,0,0:0:0:0:
402,192,95461,1,0,0:0:0:0:
329,192,95555,1,0,0:0:0:0:
256,192,95649,1,0,0:0:0:0:
182,192,95743,1,0,0:0:0:0:
402,192,95743,1,0,0:0:0:0:
256,192,95836,1,0,0:0:0:0:
475,192,95836,1,0,0:0:0:0:
402,192,95930,1,0,0:0:0:0:
329,192,96024,1,0,0:0:0:0:
36,192,96118,1,2,0:0:0:0:
256,192,96118,128,0,96399:0:0:0:0:
475,192,96118,1,0,0:0:0:0:
402,192,96211,1,0,0:0:0:0:
182,192,96305,128,0,96399:0:0:0:0:
329,192,96399,1,0,0:0:0:0:
36,192,96493,128,2,96868:0:0:0:0:
109,192,96493,1,4,0:0:0:0:
256,192,96493,1,0,0:0:0:0:
402,192,96493,1,0,0:0:0:0:
475,192,96493,1,0,0:0:0:0:
182,192,96868,128,0,97243:0:0:0:55:LR_Snare Fast.wav
475,192,96868,1,0,0:0:0:0:
256,192,97055,1,2,0:0:0:0:
402,192,97055,1,0,0:0:0:0:
109,192,97243,128,0,97430:0:0:0:55:LR_Snare Fast.wav
475,192,97243,1,0,0:0:0:0:
36,192,97430,128,2,97618:0:0:0:0:
329,192,97430,1,0,0:0:0:0:
402,192,97618,1,0,0:0:0:55:LR_Snare Fast.wav
475,192,97618,1,0,0:0:0:0:
36,192,97805,128,0,98180:0:0:0:0:
256,192,97993,1,2,0:0:0:0:
402,192,97993,1,0,0:0:0:0:
182,192,98180,128,0,98368:0:0:0:0:
109,192,98368,128,0,98555:0:0:0:55:LR_Snare Fast.wav
475,192,98368,1,0,0:0:0:0:
36,192,98555,128,2,99118:0:0:0:0:
256,192,98555,1,0,0:0:0:0:
402,192,98743,1,0,0:0:0:0:
182,192,98930,1,2,0:0:0:0:
329,192,98930,1,0,0:0:0:0:
109,192,99118,1,0,0:0:0:0:
256,192,99118,1,0,0:0:0:0:
475,192,99118,128,0,99211:0:0:0:0:
329,192,99164,128,0,99258:0:0:0:0:
475,192,99305,128,0,99399:0:0:0:0:
329,192,99352,128,0,99446:0:0:0:0:
109,192,99493,1,4,0:0:0:30:soft-hitfinish.wav
182,192,99493,1,0,0:0:0:0:
402,192,99493,1,0,0:0:0:0:
329,192,99680,1,0,0:0:0:0:
182,192,99774,1,0,0:0:0:0:
109,192,99868,1,0,0:0:0:0:
329,192,99868,1,0,0:0:0:0:
402,192,99868,1,0,0:0:0:0:
182,192,100055,1,0,0:0:0:0:
329,192,100149,1,0,0:0:0:0:
109,192,100243,1,0,0:0:0:0:
402,192,100243,1,0,0:0:0:0:
182,192,100430,1,0,0:0:0:0:
109,192,100618,1,0,0:0:0:0:
329,192,100618,1,0,0:0:0:0:
402,192,100618,1,0,0:0:0:0:
182,192,100805,1,0,0:0:0:0:
402,192,100805,1,0,0:0:0:0:
329,192,100899,1,0,0:0:0:0:
109,192,100993,1,0,0:0:0:0:
182,192,100993,1,0,0:0:0:0:
329,192,101180,1,0,0:0:0:0:
182,192,101274,1,0,0:0:0:0:
109,192,101368,1,0,0:0:0:0:
329,192,101368,1,0,0:0:0:0:
402,192,101368,1,0,0:0:0:0:
182,192,101555,1,0,0:0:0:0:
329,192,101649,1,0,0:0:0:0:
109,192,101743,1,0,0:0:0:0:
182,192,101743,1,0,0:0:0:0:
402,192,101930,1,0,0:0:0:0:
182,192,102024,1,0,0:0:0:0:
36,192,102118,1,2,0:0:0:0:
256,192,102118,128,0,102399:0:0:0:0:
475,192,102118,1,0,0:0:0:0:
329,192,102305,128,0,102399:0:0:0:0:
182,192,102399,1,0,0:0:0:0:
36,192,102493,1,2,0:0:0:0:
109,192,102493,1,4,0:0:0:0:
256,192,102493,1,0,0:0:0:0:
402,192,102493,1,0,0:0:0:0:
475,192,102493,128,0,102680:0:0:0:0:
36,192,102868,1,0,0:0:0:55:LR_Snare Fast.wav
329,192,102868,128,0,103055:0:0:0:0:
109,192,103055,1,2,0:0:0:0:
256,192,103055,1,0,0:0:0:0:
36,192,103243,1,0,0:0:0:50:LR_Clap hollow echo.wav
402,192,103243,128,0,103618:0:0:0:0:
182,192,103430,1,2,0:0:0:0:
256,192,103430,1,0,0:0:0:0:
36,192,103618,1,0,0:0:0:55:LR_Snare Fast.wav
109,192,103618,1,0,0:0:0:0:
182,192,103805,1,0,0:0:0:0:
256,192,103993,1,2,0:0:0:0:
329,192,103993,128,0,104368:0:0:0:0:
109,192,104180,1,0,0:0:0:0:
475,192,104243,128,0,104368:0:0:0:0:
182,192,104368,1,0,0:0:0:55:LR_Snare Fast.wav
256,192,104368,1,0,0:0:0:0:
36,192,104555,1,2,0:0:0:0:
109,192,104555,1,0,0:0:0:0:
475,192,104743,128,0,105118:0:0:0:0:
109,192,104930,1,2,0:0:0:0:
182,192,104930,1,0,0:0:0:0:
329,192,104993,128,0,105118:0:0:0:0:
36,192,105118,128,0,105211:0:0:0:0:
256,192,105118,1,0,0:0:0:0:
402,192,105118,1,0,0:0:0:0:
182,192,105164,128,0,105258:0:0:0:0:
36,192,105305,128,0,105399:0:0:0:0:
182,192,105352,128,0,105446:0:0:0:0:
109,192,105493,1,0,0:0:0:0:
329,192,105493,1,0,0:0:0:0:
402,192,105493,1,0,0:0:0:0:
329,192,105618,1,0,0:0:0:0:
329,192,105743,1,0,0:0:0:0:
109,192,105868,1,0,0:0:0:0:
182,192,105868,1,0,0:0:0:0:
402,192,105868,1,0,0:0:0:0:
182,192,105993,1,0,0:0:0:0:
182,192,106118,1,0,0:0:0:0:
109,192,106243,1,0,0:0:0:0:
329,192,106243,1,0,0:0:0:0:
402,192,106243,1,0,0:0:0:0:
329,192,106368,1,0,0:0:0:0:
109,192,106493,1,0,0:0:0:0:
402,192,106493,1,0,0:0:0:0:
109,192,106618,1,0,0:0:0:0:
182,192,106618,1,0,0:0:0:0:
329,192,106618,1,0,0:0:0:0:
182,192,106743,1,0,0:0:0:0:
329,192,106868,1,0,0:0:0:0:
402,192,106868,1,0,0:0:0:0:
109,192,106993,1,4,0:0:0:30:soft-hitfinish.wav
182,192,106993,1,0,0:0:0:0:
402,192,106993,1,0,0:0:0:0:
182,192,107118,1,0,0:0:0:0:
109,192,107243,1,4,0:0:0:30:soft-hitfinish.wav
329,192,107243,1,0,0:0:0:0:
402,192,107243,1,0,0:0:0:0:
329,192,107368,1,0,0:0:0:0:
182,192,107493,1,0,0:0:0:0:
182,192,107618,1,0,0:0:0:0:
109,192,107743,1,4,0:0:0:30:soft-hitfinish.wav
329,192,107743,1,0,0:0:0:0:
402,192,107743,1,0,0:0:0:0:
329,192,107868,1,0,0:0:0:0:
109,192,107993,1,4,0:0:0:30:soft-hitfinish.wav
182,192,107993,1,0,0:0:0:0:
402,192,107993,1,0,0:0:0:0:
36,192,108118,1,2,0:0:0:0:
256,192,108118,128,0,108399:0:0:0:0:
475,192,108118,1,0,0:0:0:0:
402,192,108305,128,0,108399:0:0:0:0:
109,192,108399,1,0,0:0:0:0:
36,192,108493,1,2,0:0:0:0:
182,192,108493,1,4,0:0:0:0:
256,192,108493,1,0,0:0:0:0:
329,192,108493,1,0,0:0:0:0:
475,192,108493,1,0,0:0:0:0:
182,192,108776,1,0,0:0:0:55:LR_Snare Fast.wav
402,192,108776,1,0,0:0:0:0:
109,192,108917,1,2,0:0:0:0:
256,192,108917,1,0,0:0:0:0:
329,192,109059,1,0,0:0:0:50:LR_Clap hollow echo.wav
475,192,109059,1,0,0:0:0:0:
109,192,109200,1,2,0:0:0:0:
256,192,109200,1,0,0:0:0:0:
402,192,109342,1,0,0:0:0:55:LR_Snare Fast.wav
475,192,109342,1,0,0:0:0:0:
36,192,109625,1,2,0:0:0:0:
182,192,109625,1,0,0:0:0:0:
109,192,109908,1,0,0:0:0:55:LR_Snare Fast.wav
329,192,109908,1,0,0:0:0:0:
256,192,110049,1,2,0:0:0:0:
402,192,110049,1,0,0:0:0:0:
36,192,110191,1,0,0:0:0:0:
182,192,110191,1,0,0:0:0:0:
475,192,110191,128,0,110261:0:0:0:0:
329,192,110226,128,0,110297:0:0:0:0:
475,192,110332,128,0,110403:0:0:0:0:
329,192,110368,128,0,110438:0:0:0:0:
109,192,110474,128,0,111606:0:0:0:0:
182,192,110615,128,0,111606:0:0:0:0:
329,192,110615,1,0,0:0:0:0:
402,192,110757,1,0,0:0:0:0:
329,192,111040,1,0,0:0:0:0:
402,192,111323,1,0,0:0:0:0:
402,192,111606,128,0,112455:0:0:0:0:
182,192,111747,1,0,0:0:0:0:
329,192,111747,128,0,112455:0:0:0:0:
109,192,111889,1,0,0:0:0:0:
182,192,112172,1,0,0:0:0:0:
109,192,112455,1,0,0:0:0:0:
36,192,112738,128,0,113587:0:0:0:0:
109,192,112738,128,0,113587:0:0:0:0:
329,192,112879,128,0,113587:0:0:0:0:
475,192,112879,128,0,113587:0:0:0:0:
182,192,113021,1,0,0:0:0:0:
402,192,113304,1,0,0:0:0:0:
182,192,113587,1,0,0:0:0:0:
402,192,113870,128,0,114719:0:0:0:0:
475,192,113870,128,0,114153:0:0:0:0:
36,192,114011,128,0,114153:0:0:0:0:
182,192,114011,128,0,114719:0:0:0:0:
329,192,114153,1,0,0:0:0:0:
109,192,114436,1,0,0:0:0:0:
329,192,114719,1,0,0:0:0:0:
36,192,115002,1,0,0:0:0:0:
256,192,115002,1,0,0:0:0:0:
475,192,115002,1,0,0:0:0:0:
182,192,115073,1,0,0:0:0:0:
329,192,115143,1,0,0:0:0:0:
256,192,115214,1,0,0:0:0:0:
36,192,115285,1,2,0:0:0:0:
109,192,115285,1,4,0:0:0:0:
402,192,115285,1,0,0:0:0:0:
475,192,115285,1,0,0:0:0:0:
329,192,115624,1,0,0:0:0:55:LR_Snare Fast.wav
475,192,115624,1,0,0:0:0:0:
36,192,115794,1,2,0:0:0:0:
182,192,115794,1,0,0:0:0:0:
402,192,115964,1,0,0:0:0:50:LR_Clap hollow echo.wav
256,192,115964,1,0,0:0:0:0:
36,192,116134,1,2,0:0:0:0:
182,192,116134,1,0,0:0:0:0:
329,192,116304,1,0,0:0:0:55:LR_Snare Fast.wav
475,192,116304,1,0,0:0:0:0:
36,192,116644,1,2,0:0:0:0:
402,192,116644,1,0,0:0:0:0:
329,192,116814,1,0,0:0:0:0:
109,192,116984,1,0,0:0:0:55:LR_Snare Fast.wav
256,192,116984,1,0,0:0:0:0:
329,192,117154,1,2,0:0:0:0:
475,192,117154,1,0,0:0:0:0:
36,192,117324,1,0,0:0:0:0:
256,192,117494,1,2,0:0:0:0:
402,192,117494,1,0,0:0:0:0:
36,192,117664,1,0,0:0:0:0:
109,192,117664,1,0,0:0:0:0:
329,192,117664,128,0,117749:0:0:0:0:
182,192,117707,128,0,117792:0:0:0:0:
329,192,117834,128,0,117919:0:0:0:0:
182,192,117877,128,0,117962:0:0:0:0:
256,192,118004,1,2,0:0:0:0:
402,192,118004,1,0,0:0:0:0:
475,192,118004,1,0,0:0:0:0:
36,192,118089,1,0,0:0:0:0:
109,192,118089,1,0,0:0:0:0:
256,192,118174,1,2,0:0:0:0:
329,192,118174,1,0,0:0:0:0:
402,192,118174,1,0,0:0:0:0:
109,192,118259,1,0,0:0:0:0:
182,192,118259,1,0,0:0:0:0:
329,192,118344,1,2,0:0:0:0:
402,192,118344,1,0,0:0:0:0:
475,192,118344,1,0,0:0:0:0:
182,192,118429,1,0,0:0:0:0:
256,192,118429,1,0,0:0:0:0:
36,192,118514,1,2,0:0:0:0:
109,192,118514,1,0,0:0:0:0:
475,192,118514,1,0,0:0:0:0:
256,192,118599,1,0,0:0:0:0:
329,192,118599,1,0,0:0:0:0:
36,192,118684,1,2,0:0:0:0:
109,192,118684,1,0,0:0:0:0:
182,192,118684,1,0,0:0:0:0:
329,192,118769,1,2,0:0:0:0:
402,192,118769,1,0,0:0:0:0:
475,192,118769,1,0,0:0:0:0:
36,192,118854,1,2,0:0:0:0:
109,192,118854,1,0,0:0:0:0:
182,192,118854,1,0,0:0:0:0:
329,192,118939,1,2,0:0:0:0:
402,192,118939,1,0,0:0:0:0:
475,192,118939,1,0,0:0:0:0:
36,192,119024,1,2,0:0:0:0:
109,192,119024,1,0,0:0:0:0:
256,192,119024,1,0,0:0:0:0:
182,192,119109,1,2,0:0:0:0:
402,192,119109,1,0,0:0:0:0:
475,192,119109,1,0,0:0:0:0:
36,192,119194,1,2,0:0:0:0:
109,192,119194,1,0,0:0:0:0:
329,192,119194,1,0,0:0:0:0:
182,192,119279,1,2,0:0:0:0:
256,192,119279,1,0,0:0:0:0:
475,192,119279,1,0,0:0:0:0:
36,192,119364,1,2,0:0:0:0:
109,192,119364,1,0,0:0:0:0:
329,192,119364,1,0,0:0:0:0:
402,192,119364,1,0,0:0:0:0:
256,192,119534,128,0,119619:0:0:0:0:
475,192,119534,1,0,0:0:0:0:
109,192,119704,128,0,119789:0:0:0:0:
329,192,119704,1,0,0:0:0:0:
182,192,119874,128,0,119959:0:0:0:0:
475,192,119874,1,0,0:0:0:0:
36,192,120044,128,0,120129:0:0:0:0:
109,192,120214,128,0,120299:0:0:0:0:
475,192,120214,1,0,0:0:0:0:
402,192,120299,1,0,0:0:0:0:
329,192,120384,128,0,120724:0:0:0:0:
36,192,120724,1,4,0:0:0:0:
182,192,120724,128,0,121064:0:0:0:0:
402,192,120724,1,0,0:0:0:0:
475,192,120724,1,0,0:0:0:0:
329,192,121234,128,0,121573:0:0:0:0:
475,192,121403,128,0,121743:0:0:0:0:
36,192,121913,128,0,122253:0:0:0:0:
329,192,122083,128,0,122423:0:0:0:0:
475,192,122593,128,0,123103:0:0:0:0:
329,192,122933,128,0,123273:0:0:0:0:
182,192,123103,128,0,123443:0:0:0:0:
36,192,123273,128,0,123443:0:0:0:0:
109,192,123613,128,0,123953:0:0:0:0:
256,192,123783,128,0,124123:0:0:0:0:
402,192,123953,128,0,124293:0:0:0:0:
475,192,124123,128,0,124463:0:0:0:0:
329,192,124293,128,0,124633:0:0:0:0:
182,192,124463,128,0,124803:0:0:0:0:
402,192,124633,128,0,125483:0:0:0:0:
36,192,124803,1,0,0:0:0:0:
36,192,125058,1,0,0:0:0:0:
36,192,125313,1,0,0:0:0:0:
256,192,125483,1,0,0:0:0:0:
109,192,125568,1,0,0:0:0:0:
256,192,125653,1,0,0:0:0:0:
109,192,125738,1,0,0:0:0:0:
36,192,125823,128,0,126078:0:0:0:0:
475,192,125823,1,0,0:0:0:0:
329,192,125908,1,0,0:0:0:0:
475,192,125993,1,0,0:0:0:0:
329,192,126078,1,0,0:0:0:0:
36,192,126163,1,2,0:0:0:0:
109,192,126163,1,4,0:0:0:0:
256,192,126163,1,0,0:0:0:0:
402,192,126163,1,0,0:0:0:0:
475,192,126163,1,0,0:0:0:0:
182,192,126503,1,0,0:0:0:0:
256,192,126545,1,0,0:0:0:0:
329,192,126588,1,0,0:0:0:0:
402,192,126630,1,0,0:0:0:0:
109,192,126673,1,0,0:0:0:0:
182,192,126715,1,0,0:0:0:0:
256,192,126758,1,0,0:0:0:0:
329,192,126800,1,0,0:0:0:0:
36,192,126843,1,2,0:0:0:0:
109,192,126843,1,4,0:0:0:0:
402,192,126843,1,0,0:0:0:0:
475,192,126843,1,0,0:0:0:0:
402,192,127183,1,0,0:0:0:0:
329,192,127225,1,0,0:0:0:0:
182,192,127268,1,0,0:0:0:0:
109,192,127310,1,0,0:0:0:0:
475,192,127352,1,0,0:0:0:0:
402,192,127395,1,0,0:0:0:0:
256,192,127437,1,0,0:0:0:0:
182,192,127480,1,0,0:0:0:0:
36,192,127522,1,2,0:0:0:0:
109,192,127522,1,4,0:0:0:0:
329,192,127522,1,0,0:0:0:0:
475,192,127522,1,0,0:0:0:0:
329,192,127862,1,0,0:0:0:0:
475,192,127905,1,0,0:0:0:0:
36,192,127947,1,0,0:0:0:0:
182,192,127990,1,0,0:0:0:0:
256,192,128032,1,2,0:0:0:0:
329,192,128032,1,4,0:0:0:0:
402,192,128032,1,0,0:0:0:0:
475,192,128032,1,0,0:0:0:0:
109,192,128372,1,0,0:0:0:0:
402,192,128372,1,0,0:0:0:0:
36,192,128542,1,2,0:0:0:0:
182,192,128542,1,0,0:0:0:0:
329,192,128542,1,0,0:0:0:0:
475,192,128542,1,0,0:0:0:0:
36,192,128882,1,2,0:0:0:0:
109,192,128882,1,4,0:0:0:0:
256,192,128882,1,0,0:0:0:0:
402,192,128882,1,0,0:0:0:0:
475,192,128882,1,0,0:0:0:0:
329,192,128967,1,0,0:0:0:0:
36,192,129052,1,0,0:0:0:0:
182,192,129052,1,0,0:0:0:0:
475,192,129052,128,0,129137:0:0:0:0:
256,192,129137,1,0,0:0:0:0:
109,192,129222,1,2,0:0:0:0:
329,192,129222,1,8,0:0:0:0:
402,192,129222,128,0,129307:0:0:0:0:
475,192,129222,1,0,0:0:0:0:
182,192,129307,1,0,0:0:0:0:
36,192,129392,1,0,0:0:0:0:
256,192,129392,1,0,0:0:0:0:
329,192,129392,128,0,129477:0:0:0:0:
109,192,129477,1,0,0:0:0:0:
36,192,129562,1,2,0:0:0:0:
182,192,129562,128,0,129647:0:0:0:0:
475,192,129562,1,0,0:0:0:0:
402,192,129647,1,0,0:0:0:0:
109,192,129732,1,0,0:0:0:0:
256,192,129732,128,0,129817:0:0:0:0:
329,192,129732,1,0,0:0:0:0:
182,192,129817,1,0,0:0:0:0:
36,192,129902,128,2,129987:0:0:0:0:
329,192,129902,1,8,0:0:0:0:
402,192,129902,1,0,0:0:0:0:
475,192,129902,1,0,0:0:0:0:
256,192,129987,1,0,0:0:0:0:
109,192,130072,128,2,130157:0:0:0:0:
182,192,130072,1,0,0:0:0:0:
475,192,130072,1,0,0:0:0:0:
402,192,130157,1,0,0:0:0:0:
36,192,130242,1,2,0:0:0:0:
109,192,130242,1,0,0:0:0:0:
182,192,130242,1,0,0:0:0:0:
256,192,130242,1,0,0:0:0:0:
329,192,130327,1,0,0:0:0:0:
402,192,130412,1,0,0:0:0:0:
36,192,130497,1,2,0:0:0:0:
109,192,130497,1,0,0:0:0:0:
329,192,130497,1,0,0:0:0:0:
475,192,130497,1,0,0:0:0:0:
182,192,130582,1,0,0:0:0:0:
256,192,130667,1,0,0:0:0:0:
36,192,130752,1,2,0:0:0:0:
109,192,130752,1,0,0:0:0:0:
329,192,130752,1,0,0:0:0:0:
402,192,130752,1,0,0:0:0:0:
182,192,130837,1,0,0:0:0:0:
109,192,130922,1,0,0:0:0:0:
36,192,131007,1,2,0:0:0:0:
329,192,131007,1,0,0:0:0:0:
402,192,131007,1,0,0:0:0:0:
475,192,131007,1,0,0:0:0:0:
256,192,131092,1,0,0:0:0:0:
182,192,131177,1,0,0:0:0:0:
36,192,131262,1,2,0:0:0:0:
109,192,131262,1,0,0:0:0:0:
475,192,131262,1,0,0:0:0:0:
402,192,131347,1,0,0:0:0:0:
36,192,131432,1,2,0:0:0:0:
256,192,131432,1,0,0:0:0:0:
329,192,131432,1,0,0:0:0:0:
109,192,131517,1,0,0:0:0:0:
182,192,131602,128,0,131857:0:0:0:0:
329,192,131602,128,0,131857:0:0:0:0:
475,192,131602,128,0,131857:0:0:0:0:
36,192,131942,1,2,0:0:0:0:
109,192,131942,1,8,0:0:0:0:
256,192,131942,1,4,0:0:0:0:
402,192,131942,1,0,0:0:0:0:
475,192,131942,1,0,0:0:0:0:
329,192,132027,1,0,0:0:0:0:
109,192,132112,1,0,0:0:0:0:
256,192,132112,128,0,132282:0:0:0:0:
402,192,132112,1,0,0:0:0:0:
182,192,132197,1,0,0:0:0:0:
36,192,132282,128,2,132622:0:0:0:0:
329,192,132282,1,0,0:0:0:0:
475,192,132282,1,0,0:0:0:0:
182,192,132367,1,0,0:0:0:0:
109,192,132452,1,0,0:0:0:0:
402,192,132452,1,0,0:0:0:0:
329,192,132537,1,0,0:0:0:0:
109,192,132622,1,2,0:0:0:0:
256,192,132622,1,8,0:0:0:0:
402,192,132622,1,0,0:0:0:0:
475,192,132622,1,0,0:0:0:0:
182,192,132707,1,0,0:0:0:0:
36,192,132792,1,0,0:0:0:0:
256,192,132792,128,0,132962:0:0:0:0:
475,192,132792,1,0,0:0:0:0:
329,192,132877,1,0,0:0:0:0:
36,192,132962,1,2,0:0:0:0:
182,192,132962,1,0,0:0:0:0:
402,192,132962,128,0,133301:0:0:0:0:
329,192,133047,1,0,0:0:0:0:
109,192,133132,1,0,0:0:0:0:
475,192,133132,1,0,0:0:0:0:
182,192,133217,1,0,0:0:0:0:
36,192,133301,1,2,0:0:0:0:
109,192,133301,128,8,133386:0:0:0:0:
256,192,133301,1,0,0:0:0:0:
329,192,133301,1,0,0:0:0:0:
182,192,133386,1,0,0:0:0:0:
36,192,133471,1,0,0:0:0:0:
329,192,133471,128,0,133641:0:0:0:0:
475,192,133471,1,0,0:0:0:0:
256,192,133556,1,0,0:0:0:0:
109,192,133641,1,2,0:0:0:0:
402,192,133641,1,0,0:0:0:0:
475,192,133641,1,0,0:0:0:0:
329,192,133726,1,0,0:0:0:0:
36,192,133811,128,0,133981:0:0:0:0:
109,192,133811,1,0,0:0:0:0:
256,192,133811,1,0,0:0:0:0:
402,192,133896,1,0,0:0:0:0:
182,192,133981,1,2,0:0:0:0:
256,192,133981,1,8,0:0:0:0:
329,192,133981,1,0,0:0:0:0:
475,192,133981,1,0,0:0:0:0:
109,192,134066,1,0,0:0:0:0:
36,192,134151,1,0,0:0:0:0:
402,192,134151,1,0,0:0:0:0:
475,192,134151,128,0,135171:0:0:0:0:
256,192,134236,1,0,0:0:0:0:
36,192,134321,1,2,0:0:0:0:
182,192,134321,1,0,0:0:0:0:
402,192,134321,1,0,0:0:0:0:
329,192,134406,1,0,0:0:0:0:
109,192,134491,1,0,0:0:0:0:
256,192,134491,1,0,0:0:0:0:
329,192,134576,1,0,0:0:0:0:
36,192,134661,1,2,0:0:0:0:
182,192,134661,1,8,0:0:0:0:
256,192,134661,1,0,0:0:0:0:
402,192,134661,1,0,0:0:0:0:
109,192,134746,1,0,0:0:0:0:
36,192,134831,1,0,0:0:0:0:
329,192,134831,1,0,0:0:0:0:
256,192,134916,1,0,0:0:0:0:
109,192,135001,1,2,0:0:0:0:
182,192,135001,1,0,0:0:0:0:
402,192,135001,1,0,0:0:0:0:
329,192,135086,1,0,0:0:0:0:
36,192,135171,1,0,0:0:0:0:
182,192,135171,1,0,0:0:0:0:
256,192,135256,1,0,0:0:0:0:
36,192,135341,1,2,0:0:0:0:
109,192,135341,1,8,0:0:0:0:
329,192,135341,1,0,0:0:0:0:
475,192,135341,1,0,0:0:0:0:
182,192,135426,1,0,0:0:0:0:
256,192,135511,1,0,0:0:0:0:
402,192,135511,1,0,0:0:0:0:
109,192,135596,1,0,0:0:0:0:
36,192,135681,1,2,0:0:0:0:
329,192,135681,128,0,135851:0:0:0:0:
475,192,135681,1,0,0:0:0:0:
256,192,135766,1,0,0:0:0:0:
109,192,135851,1,0,0:0:0:0:
402,192,135851,1,0,0:0:0:0:
182,192,135936,1,0,0:0:0:0:
36,192,136021,1,2,0:0:0:0:
256,192,136021,128,8,136106:0:0:0:0:
329,192,136021,1,0,0:0:0:0:
475,192,136021,1,0,0:0:0:0:
402,192,136106,1,0,0:0:0:0:
36,192,136191,1,0,0:0:0:0:
182,192,136191,128,0,136361:0:0:0:0:
329,192,136191,1,0,0:0:0:0:
109,192,136276,1,0,0:0:0:0:
256,192,136361,1,2,0:0:0:0:
402,192,136361,1,0,0:0:0:0:
475,192,136361,1,0,0:0:0:0:
329,192,136446,1,0,0:0:0:0:
109,192,136531,128,0,136616:0:0:0:0:
182,192,136531,1,0,0:0:0:0:
475,192,136531,1,0,0:0:0:0:
256,192,136616,1,0,0:0:0:0:
36,192,136701,1,2,0:0:0:0:
109,192,136701,1,8,0:0:0:0:
329,192,136701,1,0,0:0:0:0:
402,192,136701,128,0,136786:0:0:0:0:
182,192,136786,1,0,0:0:0:0:
36,192,136871,1,2,0:0:0:0:
329,192,136871,128,0,136956:0:0:0:0:
475,192,136871,1,0,0:0:0:0:
256,192,136956,1,0,0:0:0:0:
36,192,137041,1,2,0:0:0:0:
109,192,137041,1,8,0:0:0:0:
182,192,137041,1,4,0:0:0:0:
402,192,137041,1,0,0:0:0:0:
475,192,137041,1,0,0:0:0:0:
256,192,137126,1,0,0:0:0:0:
109,192,137211,1,0,0:0:0:0:
182,192,137211,1,0,0:0:0:0:
402,192,137211,128,0,137296:0:0:0:0:
329,192,137296,1,0,0:0:0:0:
36,192,137381,1,2,0:0:0:0:
256,192,137381,1,8,0:0:0:0:
402,192,137381,128,0,137466:0:0:0:0:
475,192,137381,1,0,0:0:0:0:
109,192,137466,1,0,0:0:0:0:
182,192,137551,1,0,0:0:0:0:
329,192,137551,128,0,137636:0:0:0:0:
475,192,137551,1,0,0:0:0:0:
109,192,137636,1,0,0:0:0:0:
36,192,137721,1,2,0:0:0:0:
256,192,137721,128,0,137806:0:0:0:0:
402,192,137721,1,0,0:0:0:0:
182,192,137806,1,0,0:0:0:0:
109,192,137891,1,0,0:0:0:0:
475,192,137891,1,0,0:0:0:0:
402,192,137976,1,0,0:0:0:0:
36,192,138061,1,2,0:0:0:0:
256,192,138061,1,8,0:0:0:0:
329,192,138061,1,0,0:0:0:0:
475,192,138061,1,0,0:0:0:0:
109,192,138146,1,0,0:0:0:0:
36,192,138231,1,0,0:0:0:0:
182,192,138231,128,0,138316:0:0:0:0:
402,192,138231,1,0,0:0:0:0:
329,192,138316,1,0,0:0:0:0:
109,192,138401,1,2,0:0:0:0:
256,192,138401,128,0,138486:0:0:0:0:
475,192,138401,1,0,0:0:0:0:
182,192,138486,1,0,0:0:0:0:
36,192,138571,1,2,0:0:0:0:
329,192,138571,128,0,138656:0:0:0:0:
402,192,138571,1,0,0:0:0:0:
109,192,138656,1,0,0:0:0:0:
36,192,138741,1,2,0:0:0:0:
182,192,138741,128,8,138826:0:0:0:0:
256,192,138741,1,0,0:0:0:0:
475,192,138741,1,0,0:0:0:0:
329,192,138826,1,0,0:0:0:0:
109,192,138911,1,2,0:0:0:0:
402,192,138911,1,0,0:0:0:0:
475,192,138911,128,0,139081:0:0:0:0:
182,192,138996,1,0,0:0:0:0:
36,192,139081,1,2,0:0:0:0:
256,192,139081,1,0,0:0:0:0:
329,192,139081,1,0,0:0:0:0:
109,192,139166,1,0,0:0:0:0:
36,192,139251,1,2,0:0:0:0:
182,192,139251,128,0,139420:0:0:0:0:
402,192,139251,1,0,0:0:0:0:
329,192,139335,1,0,0:0:0:0:
109,192,139420,1,2,0:0:0:0:
256,192,139420,1,8,0:0:0:0:
402,192,139420,1,0,0:0:0:0:
475,192,139420,1,0,0:0:0:0:
36,192,139505,1,0,0:0:0:0:
182,192,139590,1,2,0:0:0:0:
329,192,139590,128,0,139675:0:0:0:0:
475,192,139590,1,0,0:0:0:0:
256,192,139675,1,0,0:0:0:0:
36,192,139760,1,2,0:0:0:0:
109,192,139760,1,0,0:0:0:0:
402,192,139760,1,0,0:0:0:0:
256,192,139845,1,0,0:0:0:0:
329,192,139930,1,0,0:0:0:0:
402,192,139930,1,0,0:0:0:0:
475,192,139930,1,0,0:0:0:0:
36,192,140015,1,0,0:0:0:0:
182,192,140015,1,0,0:0:0:0:
109,192,140100,1,2,0:0:0:0:
329,192,140100,1,0,0:0:0:0:
475,192,140100,1,0,0:0:0:0:
256,192,140185,1,0,0:0:0:0:
36,192,140270,1,0,0:0:0:0:
109,192,140270,1,0,0:0:0:0:
182,192,140270,1,0,0:0:0:0:
329,192,140355,1,0,0:0:0:0:
475,192,140355,1,0,0:0:0:0:
36,192,140440,1,2,0:0:0:0:
182,192,140440,1,0,0:0:0:0:
402,192,140440,1,0,0:0:0:0:
256,192,140525,1,0,0:0:0:0:
329,192,140525,1,0,0:0:0:0:
109,192,140610,1,0,0:0:0:0:
402,192,140610,1,0,0:0:0:0:
475,192,140610,1,0,0:0:0:0:
182,192,140695,1,0,0:0:0:0:
256,192,140695,1,0,0:0:0:0:
36,192,140780,1,2,0:0:0:0:
329,192,140780,1,0,0:0:0:0:
402,192,140780,1,0,0:0:0:0:
109,192,140865,1,0,0:0:0:0:
182,192,140865,1,0,0:0:0:0:
256,192,140950,1,0,0:0:0:0:
329,192,140950,1,0,0:0:0:0:
475,192,140950,1,0,0:0:0:0:
36,192,141035,1,0,0:0:0:0:
109,192,141035,1,0,0:0:0:0:
182,192,141120,1,2,0:0:0:0:
256,192,141120,1,4,0:0:0:0:
329,192,141120,1,0,0:0:0:0:
402,192,141120,1,0,0:0:0:0:
475,192,141120,1,0,0:0:0:0:
256,192,141630,128,0,141800:0:0:0:0:
182,192,141800,1,0,0:0:0:0:
329,192,141843,1,0,0:0:0:0:
402,192,141885,1,0,0:0:0:0:
475,192,141928,1,0,0:0:0:0:
109,192,141970,1,0,0:0:0:0:
256,192,142013,1,0,0:0:0:0:
329,192,142055,1,0,0:0:0:0:
402,192,142098,1,0,0:0:0:0:
36,192,142140,1,0,0:0:0:0:
182,192,142183,1,0,0:0:0:0:
256,192,142225,1,0,0:0:0:0:
329,192,142268,1,0,0:0:0:0:
475,192,142310,1,0,0:0:0:0:
109,192,142352,1,0,0:0:0:0:
182,192,142395,1,0,0:0:0:0:
256,192,142437,1,0,0:0:0:0:
36,192,142480,128,2,142820:0:0:0:0:
109,192,142480,1,4,0:0:0:0:
329,192,142480,1,0,0:0:0:0:
402,192,142480,1,0,0:0:0:0:
475,192,142480,1,0,0:0:0:0:
182,192,142650,128,0,142820:0:0:0:0:
256,192,142650,1,0,0:0:0:0:
402,192,142650,1,0,0:0:0:0:
109,192,142820,1,2,0:0:0:0:
329,192,142820,1,8,0:0:0:0:
475,192,142820,1,0,0:0:0:0:
182,192,142905,1,0,0:0:0:0:
402,192,142905,1,0,0:0:0:0:
109,192,142990,1,0,0:0:0:0:
329,192,142990,1,0,0:0:0:0:
182,192,143075,1,0,0:0:0:0:
402,192,143075,1,0,0:0:0:0:
36,192,143160,1,2,0:0:0:0:
256,192,143160,1,0,0:0:0:0:
475,192,143160,1,0,0:0:0:0:
109,192,143245,1,0,0:0:0:0:
329,192,143245,1,0,0:0:0:0:
182,192,143330,1,0,0:0:0:0:
402,192,143330,1,0,0:0:0:0:
36,192,143415,1,0,0:0:0:0:
475,192,143415,1,0,0:0:0:0:
109,192,143500,1,2,0:0:0:0:
256,192,143500,1,8,0:0:0:0:
402,192,143500,1,0,0:0:0:0:
182,192,143585,1,0,0:0:0:0:
329,192,143585,1,0,0:0:0:0:
36,192,143670,1,0,0:0:0:0:
475,192,143670,1,0,0:0:0:0:
109,192,143755,1,0,0:0:0:0:
402,192,143755,1,0,0:0:0:0:
36,192,143840,1,2,0:0:0:0:
256,192,143840,1,0,0:0:0:0:
475,192,143840,128,0,144180:0:0:0:0:
109,192,144010,1,0,0:0:0:0:
182,192,144010,1,0,0:0:0:0:
256,192,144010,128,0,144180:0:0:0:0:
329,192,144095,1,0,0:0:0:0:
36,192,144180,1,2,0:0:0:0:
182,192,144180,1,8,0:0:0:0:
402,192,144180,1,0,0:0:0:0:
109,192,144265,1,0,0:0:0:0:
329,192,144265,1,0,0:0:0:0:
182,192,144350,1,0,0:0:0:0:
402,192,144350,1,0,0:0:0:0:
109,192,144435,1,0,0:0:0:0:
329,192,144435,1,0,0:0:0:0:
36,192,144520,1,2,0:0:0:0:
256,192,144520,1,0,0:0:0:0:
475,192,144520,1,0,0:0:0:0:
182,192,144605,1,0,0:0:0:0:
402,192,144605,1,0,0:0:0:0:
109,192,144690,1,0,0:0:0:0:
329,192,144690,1,0,0:0:0:0:
256,192,144775,1,0,0:0:0:0:
475,192,144775,1,0,0:0:0:0:
36,192,144860,1,2,0:0:0:0:
182,192,144860,1,8,0:0:0:0:
402,192,144860,1,0,0:0:0:0:
109,192,144945,1,0,0:0:0:0:
329,192,144945,1,0,0:0:0:0:
182,192,145030,1,0,0:0:0:0:
402,192,145030,1,0,0:0:0:0:
256,192,145115,1,0,0:0:0:0:
475,192,145115,1,0,0:0:0:0:
36,192,145200,128,2,145539:0:0:0:0:
109,192,145200,1,0,0:0:0:0:
329,192,145200,1,0,0:0:0:0:
109,192,145369,128,0,145539:0:0:0:0:
182,192,145369,1,0,0:0:0:0:
329,192,145369,1,0,0:0:0:0:
256,192,145539,1,2,0:0:0:0:
402,192,145539,1,8,0:0:0:0:
475,192,145539,1,0,0:0:0:0:
182,192,145624,1,0,0:0:0:0:
329,192,145624,1,0,0:0:0:0:
109,192,145709,1,0,0:0:0:0:
256,192,145709,1,0,0:0:0:0:
36,192,145794,1,0,0:0:0:0:
182,192,145794,1,0,0:0:0:0:
109,192,145879,1,2,0:0:0:0:
329,192,145879,1,0,0:0:0:0:
475,192,145879,1,0,0:0:0:0:
182,192,145964,1,0,0:0:0:0:
402,192,145964,1,0,0:0:0:0:
256,192,146049,1,0,0:0:0:0:
475,192,146049,1,0,0:0:0:0:
36,192,146134,1,0,0:0:0:0:
329,192,146134,1,0,0:0:0:0:
109,192,146219,1,2,0:0:0:0:
182,192,146219,1,8,0:0:0:0:
402,192,146219,1,0,0:0:0:0:
256,192,146304,1,0,0:0:0:0:
475,192,146304,1,0,0:0:0:0:
36,192,146389,1,0,0:0:0:0:
402,192,146389,1,0,0:0:0:0:
109,192,146474,1,0,0:0:0:0:
329,192,146474,1,0,0:0:0:0:
182,192,146559,1,2,0:0:0:0:
256,192,146559,1,0,0:0:0:0:
475,192,146559,128,0,146899:0:0:0:0:
36,192,146729,1,0,0:0:0:0:
182,192,146729,1,0,0:0:0:0:
329,192,146729,128,0,146899:0:0:0:0:
256,192,146814,1,0,0:0:0:0:
36,192,146899,1,2,0:0:0:0:
109,192,146899,1,8,0:0:0:0:
402,192,146899,1,0,0:0:0:0:
182,192,146984,1,0,0:0:0:0:
329,192,146984,1,0,0:0:0:0:
256,192,147069,1,0,0:0:0:0:
402,192,147069,1,0,0:0:0:0:
329,192,147154,1,0,0:0:0:0:
475,192,147154,1,0,0:0:0:0:
36,192,147239,1,2,0:0:0:0:
182,192,147239,1,0,0:0:0:0:
256,192,147239,1,0,0:0:0:0:
402,192,147324,1,0,0:0:0:0:
475,192,147324,1,0,0:0:0:0:
36,192,147409,1,0,0:0:0:0:
109,192,147409,1,0,0:0:0:0:
182,192,147494,1,0,0:0:0:0:
329,192,147494,1,0,0:0:0:0:
256,192,147579,1,2,0:0:0:0:
402,192,147579,1,8,0:0:0:0:
475,192,147579,1,0,0:0:0:0:
36,192,147664,1,0,0:0:0:0:
109,192,147664,1,0,0:0:0:0:
182,192,147749,1,0,0:0:0:0:
256,192,147749,1,0,0:0:0:0:
329,192,147834,1,0,0:0:0:0:
402,192,147834,1,0,0:0:0:0:
36,192,147919,128,2,152178:0:0:0:0:
109,192,147919,128,4,151454:0:0:0:0:
182,192,147919,128,0,150554:0:0:0:0:
256,192,147919,128,0,149654:0:0:0:0:
475,192,147919,128,0,152178:0:0:0:0:
329,192,149654,1,0,0:0:0:0:
402,192,149654,1,0,0:0:0:0:
256,192,150554,1,0,0:0:0:0:
329,192,150554,1,0,0:0:0:0:
182,192,151454,1,0,0:0:0:0:
256,192,151454,1,0,0:0:0:0:
36,192,152323,128,2,152951:0:0:0:0:
109,192,152323,128,4,152999:0:0:0:0:
182,192,152323,128,0,153048:0:0:0:0:
329,192,152323,128,0,153193:0:0:0:0:
402,192,152323,128,0,153144:0:0:0:0:
475,192,152323,128,0,153096:0:0:0:0:
