osu file format v14

[General]
AudioFilename: Nightcore - Indecent.mp3
AudioLeadIn: 500
PreviewTime: 45579
Countdown: 0
SampleSet: Normal
StackLeniency: 0.7
Mode: 1
LetterboxInBreaks: 0
EpilepsyWarning: 1
WidescreenStoryboard: 1

[Editor]
DistanceSpacing: 1
BeatDivisor: 4
GridSize: 4
TimelineZoom: 2.599999

[Metadata]
Title:Indecent (Nightcore Mix)
TitleUnicode:Indecent (Nightcore Mix)
Artist:MAK & SAK feat. XANA
ArtistUnicode:MAK & SAK feat. XANA
Creator:Hanjamon
Version:Kantan
Source:
Tags:Gero Catala Catalan Remix
BeatmapID:1307738
BeatmapSetID:620305

[Difficulty]
HPDrainRate:7
CircleSize:4
OverallDifficulty:3.5
ApproachRate:7
SliderMultiplier:1.4
SliderTickRate:1

[Events]
//Background and Video events
0,0,"indecentBG.jpg",0,35
//Break Periods
//Storyboard Layer 0 (Background)
//Storyboard Layer 1 (Fail)
//Storyboard Layer 2 (Pass)
//Storyboard Layer 3 (Foreground)
//Storyboard Sound Samples

[TimingPoints]
1812,347.362936374689,4,1,0,70,1,0
12927,-100,4,1,0,85,0,1
22653,-100,4,1,0,75,0,0
35158,-100,4,1,0,85,0,0
42106,-100,4,1,0,60,0,0
44885,-100,4,1,0,70,0,0
46274,-100,4,1,0,85,0,1
67116,-100,4,1,0,70,0,0
79621,-100,4,1,0,85,0,1
89347,-100,4,1,0,70,0,0
90736,-100,4,1,0,85,0,1
99073,-100,4,1,0,70,0,0
101852,-100,4,1,0,65,0,0
112968,-100,4,1,0,85,0,1
122694,-100,4,1,0,70,0,0
124083,-100,4,1,0,85,0,1
133809,-100,4,1,0,70,0,0

[Colours]
Combo1 : 255,98,98
Combo2 : 255,206,255
Combo3 : 192,192,192
Combo4 : 255,215,196
Combo5 : 211,160,67

[HitObjects]
272,188,1812,5,12,0:0:0:0:
400,240,3201,1,8,0:0:0:0:
400,240,3896,1,0,0:0:0:0:
400,240,4590,1,8,0:0:0:0:
400,240,5980,1,8,0:0:0:0:
400,240,6675,1,8,0:0:0:0:
400,240,7369,1,12,0:0:0:0:
400,240,8759,1,8,0:0:0:0:
400,240,9453,1,8,0:0:0:0:
400,240,10148,1,0,0:0:0:0:
304,160,10843,1,8,0:0:0:0:
304,160,11538,1,4,0:0:0:0:
236,180,12927,1,4,0:0:0:0:
236,180,13622,1,8,0:0:0:0:
336,232,14317,1,0,0:0:0:0:
336,232,14664,1,8,0:0:0:0:
304,168,15011,1,0,0:0:0:0:
328,176,15706,1,8,0:0:0:0:
328,176,16401,1,0,0:0:0:0:
256,148,17095,1,8,0:0:0:0:
260,160,17443,1,8,0:0:0:0:
260,160,17790,1,8,0:0:0:0:
220,96,18485,1,0,0:0:0:0:
432,288,19180,1,8,0:0:0:0:
432,288,19874,1,0,0:0:0:0:
432,288,20222,1,8,0:0:0:0:
432,288,20569,1,0,0:0:0:0:
292,184,21264,1,0,0:0:0:0:
256,176,21959,1,8,0:0:0:0:
256,176,22653,1,4,0:0:0:0:
288,168,24043,5,4,0:0:0:0:
268,168,25432,1,0,0:0:0:0:
268,168,26127,1,8,0:0:0:0:
264,168,26822,1,0,0:0:0:0:
264,168,28211,1,8,0:0:0:0:
264,168,28906,1,0,0:0:0:0:
268,168,29601,1,0,0:0:0:0:
276,156,30990,1,0,0:0:0:0:
436,316,32379,5,0,0:0:0:0:
436,316,32727,1,0,0:0:0:0:
436,316,33074,1,8,0:0:0:0:
436,316,33422,1,8,0:0:0:0:
200,148,34464,1,4,0:0:0:0:
216,200,35158,1,4,0:0:0:0:
316,196,35853,1,0,0:0:0:0:
240,164,36548,5,12,0:0:0:0:
240,164,36895,1,12,0:0:0:0:
240,164,37243,5,12,0:0:0:0:
304,160,37937,1,0,0:0:0:0:
304,160,38632,1,0,0:0:0:0:
208,100,39327,1,4,0:0:0:0:
232,104,39674,1,4,0:0:0:0:
232,104,40021,1,4,0:0:0:0:
308,212,40716,5,4,0:0:0:0:
288,200,42106,1,0,0:0:0:0:
256,192,43495,12,0,44537,0:0:0:0:
264,144,44885,5,0,0:0:0:0:
160,180,46274,1,4,0:0:0:0:
212,136,46969,1,8,0:0:0:0:
248,140,47663,1,0,0:0:0:0:
248,140,48011,1,8,0:0:0:0:
248,140,48358,1,8,0:0:0:0:
348,224,49053,1,0,0:0:0:0:
348,224,49748,1,8,0:0:0:0:
348,224,50442,1,0,0:0:0:0:
348,224,50790,1,0,0:0:0:0:
348,224,51137,1,8,0:0:0:0:
248,136,51832,1,0,0:0:0:0:
212,136,52526,1,8,0:0:0:0:
248,140,53221,1,0,0:0:0:0:
248,140,53569,1,8,0:0:0:0:
248,140,53916,1,8,0:0:0:0:
208,136,54611,1,0,0:0:0:0:
412,276,55305,1,8,0:0:0:0:
412,276,56000,1,0,0:0:0:0:
444,312,57390,1,4,0:0:0:0:
212,136,58084,1,8,0:0:0:0:
248,140,58779,1,0,0:0:0:0:
248,140,59126,1,8,0:0:0:0:
248,140,59474,1,8,0:0:0:0:
348,224,60168,1,0,0:0:0:0:
348,224,60863,1,8,0:0:0:0:
348,224,61558,1,0,0:0:0:0:
348,224,61905,1,0,0:0:0:0:
348,224,62253,1,8,0:0:0:0:
248,136,62947,1,0,0:0:0:0:
212,136,63642,1,8,0:0:0:0:
248,140,64337,1,0,0:0:0:0:
248,140,64684,1,8,0:0:0:0:
248,140,65032,1,8,0:0:0:0:
208,136,65726,1,0,0:0:0:0:
412,276,66421,1,8,0:0:0:0:
412,276,67116,1,4,0:0:0:0:
248,192,68505,1,4,0:0:0:0:
280,160,69895,1,0,0:0:0:0:
280,160,71284,1,8,0:0:0:0:
280,160,72674,1,0,0:0:0:0:
280,160,74063,1,0,0:0:0:0:
280,160,75452,1,0,0:0:0:0:
280,160,76842,1,0,0:0:0:0:
284,164,77537,1,8,0:0:0:0:
300,192,78231,1,4,0:0:0:0:
228,176,79621,1,4,0:0:0:0:
308,180,80316,1,0,0:0:0:0:
232,120,80663,1,8,0:0:0:0:
232,124,81010,1,0,0:0:0:0:
264,136,81705,1,8,0:0:0:0:
324,172,82052,1,8,0:0:0:0:
316,180,82400,1,0,0:0:0:0:
340,136,83094,1,0,0:0:0:0:
328,140,83442,1,0,0:0:0:0:
240,92,83789,1,0,0:0:0:0:
252,168,84484,1,0,0:0:0:0:
252,168,84831,1,8,0:0:0:0:
252,168,85179,1,0,0:0:0:0:
284,196,85873,1,8,0:0:0:0:
284,196,86221,1,8,0:0:0:0:
284,196,86568,1,0,0:0:0:0:
200,168,87263,1,0,0:0:0:0:
240,124,87610,1,0,0:0:0:0:
240,124,87958,1,0,0:0:0:0:
200,56,88652,1,0,0:0:0:0:
200,60,89347,1,4,0:0:0:0:
280,184,90736,1,4,0:0:0:0:
272,184,91084,1,0,0:0:0:0:
248,88,91779,1,0,0:0:0:0:
248,88,92126,1,0,0:0:0:0:
340,264,92473,1,8,0:0:0:0:
340,264,93168,1,0,0:0:0:0:
340,264,93515,1,8,0:0:0:0:
340,264,94036,1,8,0:0:0:0:
336,248,94557,1,0,0:0:0:0:
300,164,94905,1,0,0:0:0:0:
300,164,96294,1,0,0:0:0:0:
300,164,96642,1,0,0:0:0:0:
280,188,97336,1,0,0:0:0:0:
280,188,97684,1,0,0:0:0:0:
280,188,98031,1,8,0:0:0:0:
280,188,98726,1,0,0:0:0:0:
252,148,99073,5,4,0:0:0:0:
248,160,100115,1,0,0:0:0:0:
252,160,100463,1,4,0:0:0:0:
316,200,101852,1,4,0:0:0:0:
248,196,103241,1,4,0:0:0:0:
248,196,104631,1,12,0:0:0:0:
248,196,106020,1,12,0:0:0:0:
248,196,107410,1,4,0:0:0:0:
248,196,108799,1,4,0:0:0:0:
248,196,110189,1,12,0:0:0:0:
248,196,111578,1,0,0:0:0:0:
252,196,112968,1,4,0:0:0:0:
212,136,113662,1,8,0:0:0:0:
248,140,114357,1,0,0:0:0:0:
248,140,114704,1,8,0:0:0:0:
248,140,115052,1,8,0:0:0:0:
348,224,115747,1,0,0:0:0:0:
348,224,116441,1,8,0:0:0:0:
348,224,117136,1,0,0:0:0:0:
348,224,117483,1,0,0:0:0:0:
348,224,117831,1,8,0:0:0:0:
248,136,118525,1,0,0:0:0:0:
212,136,119220,1,8,0:0:0:0:
248,140,119915,1,0,0:0:0:0:
248,140,120262,1,8,0:0:0:0:
248,140,120610,1,8,0:0:0:0:
208,136,121304,1,0,0:0:0:0:
412,276,121999,1,8,0:0:0:0:
412,276,122694,1,4,0:0:0:0:
276,188,124083,1,4,0:0:0:0:
236,180,124778,1,8,0:0:0:0:
336,232,125473,1,0,0:0:0:0:
336,232,125820,1,8,0:0:0:0:
304,168,126167,1,0,0:0:0:0:
328,176,126862,1,8,0:0:0:0:
328,176,127557,1,0,0:0:0:0:
256,148,128252,1,8,0:0:0:0:
260,160,128599,1,8,0:0:0:0:
260,160,128946,1,8,0:0:0:0:
220,96,129641,1,0,0:0:0:0:
432,288,130336,1,8,0:0:0:0:
432,288,131031,1,0,0:0:0:0:
432,288,131378,1,8,0:0:0:0:
432,288,131725,1,0,0:0:0:0:
292,184,132420,1,0,0:0:0:0:
256,176,133115,1,8,0:0:0:0:
256,176,133809,1,4,0:0:0:0:
224,176,135199,1,4,0:0:0:0:
400,240,136588,1,0,0:0:0:0:
400,240,137283,1,8,0:0:0:0:
400,240,137978,1,0,0:0:0:0:
400,240,139367,1,8,0:0:0:0:
400,240,140062,1,8,0:0:0:0:
400,240,140757,1,0,0:0:0:0:
400,240,142146,1,0,0:0:0:0:
400,240,142841,1,8,0:0:0:0:
400,240,143536,1,0,0:0:0:0:
304,160,144230,1,8,0:0:0:0:
304,160,144925,1,4,0:0:0:0:
256,192,145099,12,0,147009,0:0:0:0:
