osu file format v14

[General]
AudioFilename: Nightcore - Indecent.mp3
AudioLeadIn: 500
PreviewTime: 45579
Countdown: 0
SampleSet: Normal
StackLeniency: 0.7
Mode: 1
LetterboxInBreaks: 0
EpilepsyWarning: 1
WidescreenStoryboard: 1

[Editor]
DistanceSpacing: 1
BeatDivisor: 4
GridSize: 4
TimelineZoom: 2.999999

[Metadata]
Title:Indecent (Nightcore Mix)
TitleUnicode:Indecent (Nightcore Mix)
Artist:MAK & SAK feat. XANA
ArtistUnicode:MAK & SAK feat. XANA
Creator:Hanjamon
Version:Inner Oni
Source:
Tags:Gero Catala Catalan Remix
BeatmapID:1307348
BeatmapSetID:620305

[Difficulty]
HPDrainRate:5.5
CircleSize:4
OverallDifficulty:6
ApproachRate:7
SliderMultiplier:1.4
SliderTickRate:1

[Events]
//Background and Video events
0,0,"indecentBG.jpg",0,35
//Break Periods
//Storyboard Layer 0 (Background)
//Storyboard Layer 1 (Fail)
//Storyboard Layer 2 (Pass)
//Storyboard Layer 3 (Foreground)
//Storyboard Sound Samples

[TimingPoints]
1812,347.362936374689,4,1,0,70,1,0
8932,-99.009900990099,4,1,0,70,0,0
9106,-98.0392156862745,4,1,0,70,0,0
9280,-97.0873786407767,4,1,0,70,0,0
9453,-96.1538461538461,4,1,0,70,0,0
9801,-94.3396226415094,4,1,0,70,0,0
9975,-93.4579439252336,4,1,0,70,0,0
10148,-92.5925925925926,4,1,0,70,0,0
10409,-90.9090909090909,4,1,0,70,0,0
10669,-89.2857142857143,4,1,0,70,0,0
10843,-87.719298245614,4,1,0,70,0,0
11103,-86.2068965517241,4,1,0,70,0,0
11364,-84.7457627118644,4,1,0,70,0,0
11538,-83.3333333333333,4,1,0,70,0,0
11625,-100,4,1,0,70,0,0
12927,-100,4,1,0,85,0,1
22653,-100,4,1,0,75,0,0
35158,-100,4,1,0,85,0,0
42106,-125,4,1,0,60,0,0
43495,-166.666666666667,4,1,0,60,0,0
44885,-100,4,1,0,70,0,0
46274,-100,4,1,0,85,0,1
67116,-100,4,1,0,70,0,0
74758,-98.0392156862745,4,1,0,70,0,0
75105,-96.1538461538461,4,1,0,70,0,0
75452,-94.3396226415094,4,1,0,70,0,0
76147,-92.5925925925926,4,1,0,70,0,0
76495,-90.9090909090909,4,1,0,70,0,0
76842,-89.2857142857143,4,1,0,70,0,0
77016,-88.4955752212389,4,1,0,70,0,0
77189,-87.719298245614,4,1,0,70,0,0
77537,-86.2068965517241,4,1,0,70,0,0
77710,-85.4700854700855,4,1,0,70,0,0
77884,-84.7457627118644,4,1,0,70,0,0
78058,-84.0336134453781,4,1,0,70,0,0
78231,-83.3333333333333,4,1,0,70,0,0
78318,-100,4,1,0,70,0,0
79621,-100,4,1,0,85,0,1
89347,-100,4,1,0,70,0,0
90736,-100,4,1,0,85,0,1
99073,-100,4,1,0,70,0,0
101852,-100,4,1,0,65,0,0
112968,-100,4,1,0,85,0,1
122694,-100,4,1,0,70,0,0
124083,-100,4,1,0,85,0,1
133809,-100,4,1,0,70,0,0

[Colours]
Combo1 : 255,98,98
Combo2 : 255,206,255
Combo3 : 192,192,192
Combo4 : 255,215,196
Combo5 : 211,160,67

[HitObjects]
272,188,1812,5,12,0:0:0:0:
400,240,2159,1,8,0:0:0:0:
312,212,2333,1,0,0:0:0:0:
400,240,2506,1,8,0:0:0:0:
400,240,2854,1,8,0:0:0:0:
400,240,3201,1,8,0:0:0:0:
400,240,3375,1,0,0:0:0:0:
400,240,3548,1,0,0:0:0:0:
400,240,3722,1,0,0:0:0:0:
400,240,3896,1,8,0:0:0:0:
400,240,4243,1,8,0:0:0:0:
400,240,4590,1,8,0:0:0:0:
400,240,4938,1,8,0:0:0:0:
400,240,5111,1,0,0:0:0:0:
400,240,5285,1,8,0:0:0:0:
400,240,5632,1,8,0:0:0:0:
400,240,5980,1,8,0:0:0:0:
400,240,6154,1,8,0:0:0:0:
400,240,6327,1,0,0:0:0:0:
400,240,6501,1,0,0:0:0:0:
400,240,6675,1,8,0:0:0:0:
400,240,7022,1,8,0:0:0:0:
400,240,7369,1,12,0:0:0:0:
400,240,7717,1,8,0:0:0:0:
400,240,7890,1,0,0:0:0:0:
400,240,8064,1,8,0:0:0:0:
400,240,8411,1,8,0:0:0:0:
400,240,8759,1,8,0:0:0:0:
400,240,8932,1,0,0:0:0:0:
400,240,9106,1,0,0:0:0:0:
400,240,9280,1,0,0:0:0:0:
400,240,9453,1,8,0:0:0:0:
400,240,9801,1,0,0:0:0:0:
392,220,9975,1,8,0:0:0:0:
400,240,10148,1,0,0:0:0:0:
392,220,10409,1,8,0:0:0:0:
360,208,10669,1,0,0:0:0:0:
304,160,10843,1,8,0:0:0:0:
304,160,11103,1,8,0:0:0:0:
304,160,11364,1,8,0:0:0:0:
304,160,11538,1,4,0:0:0:0:
236,180,12232,1,0,0:0:0:0:
236,180,12406,1,0,0:0:0:0:
236,180,12580,1,8,0:0:0:0:
184,104,12667,1,8,0:0:0:0:
236,180,12753,1,8,0:0:0:0:
236,180,12927,1,4,0:0:0:0:
352,268,13101,1,8,0:0:0:0:
216,144,13188,1,8,0:0:0:0:
236,180,13274,1,0,0:0:0:0:
236,180,13448,1,8,0:0:0:0:
236,180,13622,1,0,0:0:0:0:
224,136,13709,1,0,0:0:0:0:
224,136,13796,1,8,0:0:0:0:
224,136,13969,1,0,0:0:0:0:
344,148,14056,1,0,0:0:0:0:
336,232,14143,1,8,0:0:0:0:
336,232,14317,1,0,0:0:0:0:
276,160,14403,1,0,0:0:0:0:
336,232,14490,1,8,0:0:0:0:
304,108,14577,1,0,0:0:0:0:
336,232,14664,1,0,0:0:0:0:
316,220,14751,1,0,0:0:0:0:
336,232,14838,1,8,0:0:0:0:
304,108,14924,1,8,0:0:0:0:
304,168,15011,1,0,0:0:0:0:
312,172,15185,1,8,0:0:0:0:
312,172,15359,1,0,0:0:0:0:
200,80,15445,1,0,0:0:0:0:
312,172,15532,1,8,0:0:0:0:
328,176,15706,1,0,0:0:0:0:
328,176,15880,1,8,0:0:0:0:
328,176,15967,1,8,0:0:0:0:
328,176,16053,1,0,0:0:0:0:
328,176,16227,1,8,0:0:0:0:
328,176,16401,1,0,0:0:0:0:
268,104,16488,1,0,0:0:0:0:
328,176,16574,1,8,0:0:0:0:
328,176,16748,1,0,0:0:0:0:
328,176,16835,1,0,0:0:0:0:
328,176,16922,1,8,0:0:0:0:
256,148,17095,1,0,0:0:0:0:
260,160,17182,1,0,0:0:0:0:
260,160,17269,1,8,0:0:0:0:
216,128,17356,1,8,0:0:0:0:
260,160,17443,1,0,0:0:0:0:
260,160,17530,1,0,0:0:0:0:
260,160,17617,1,8,0:0:0:0:
216,128,17703,1,8,0:0:0:0:
260,160,17790,1,0,0:0:0:0:
220,96,17964,1,8,0:0:0:0:
216,88,18138,1,0,0:0:0:0:
284,128,18224,1,0,0:0:0:0:
220,96,18311,1,8,0:0:0:0:
220,96,18485,1,0,0:0:0:0:
392,260,18659,1,8,0:0:0:0:
392,260,18745,1,8,0:0:0:0:
392,260,18832,1,0,0:0:0:0:
432,288,19006,1,8,0:0:0:0:
432,288,19180,1,0,0:0:0:0:
140,148,19266,1,0,0:0:0:0:
432,288,19353,1,8,0:0:0:0:
432,288,19527,1,0,0:0:0:0:
432,288,19614,1,0,0:0:0:0:
432,288,19701,1,8,0:0:0:0:
432,288,19874,1,0,0:0:0:0:
432,288,19961,1,0,0:0:0:0:
432,288,20048,1,8,0:0:0:0:
216,72,20135,1,0,0:0:0:0:
432,288,20222,1,0,0:0:0:0:
432,288,20309,1,0,0:0:0:0:
432,288,20395,1,8,0:0:0:0:
216,72,20482,1,8,0:0:0:0:
432,288,20569,1,0,0:0:0:0:
432,288,20743,1,8,0:0:0:0:
432,288,20916,1,0,0:0:0:0:
292,184,21003,1,0,0:0:0:0:
432,288,21090,1,8,0:0:0:0:
292,184,21264,1,0,0:0:0:0:
280,148,21351,1,0,0:0:0:0:
256,176,21524,1,8,0:0:0:0:
88,152,21611,1,0,0:0:0:0:
256,176,21785,1,8,0:0:0:0:
256,176,21959,1,0,0:0:0:0:
256,176,22045,1,0,0:0:0:0:
256,176,22219,1,8,0:0:0:0:
152,108,22306,1,8,0:0:0:0:
256,176,22480,1,8,0:0:0:0:
256,176,22653,1,4,0:0:0:0:
256,192,23001,12,0,23695,0:0:0:0:
288,168,24043,5,4,0:0:0:0:
288,168,24390,1,0,0:0:0:0:
288,168,24564,1,0,0:0:0:0:
264,168,24737,1,8,0:0:0:0:
264,168,25085,1,0,0:0:0:0:
268,168,25432,1,0,0:0:0:0:
264,168,25606,1,8,0:0:0:0:
264,168,25780,1,0,0:0:0:0:
264,168,25953,1,0,0:0:0:0:
268,168,26127,1,8,0:0:0:0:
268,168,26301,1,8,0:0:0:0:
264,168,26474,1,0,0:0:0:0:
264,168,26822,1,0,0:0:0:0:
268,168,27169,1,8,0:0:0:0:
264,168,27343,1,8,0:0:0:0:
264,168,27516,1,0,0:0:0:0:
268,168,27864,1,0,0:0:0:0:
264,168,28211,1,8,0:0:0:0:
264,168,28385,1,0,0:0:0:0:
268,168,28558,1,8,0:0:0:0:
268,168,28732,1,8,0:0:0:0:
264,168,28906,1,0,0:0:0:0:
264,168,29079,1,0,0:0:0:0:
264,168,29253,1,8,0:0:0:0:
268,168,29601,1,0,0:0:0:0:
264,168,29948,1,8,0:0:0:0:
276,156,30122,1,8,0:0:0:0:
276,156,30295,1,0,0:0:0:0:
276,156,30643,1,8,0:0:0:0:
276,156,30990,1,0,0:0:0:0:
276,156,31164,1,0,0:0:0:0:
276,156,31337,1,8,0:0:0:0:
276,156,31685,1,0,0:0:0:0:
272,164,32032,1,8,0:0:0:0:
436,316,32379,5,0,0:0:0:0:
284,160,32466,1,0,0:0:0:0:
436,316,32553,1,8,0:0:0:0:
436,316,32727,1,0,0:0:0:0:
436,316,32900,1,0,0:0:0:0:
436,316,33074,1,8,0:0:0:0:
192,96,33161,1,8,0:0:0:0:
436,316,33248,1,0,0:0:0:0:
436,316,33422,1,8,0:0:0:0:
436,316,33595,1,8,0:0:0:0:
436,316,33943,1,0,0:0:0:0:
436,316,34116,1,8,0:0:0:0:
200,148,34464,1,4,0:0:0:0:
216,200,35158,1,4,0:0:0:0:
316,196,35332,1,8,0:0:0:0:
184,144,35419,1,8,0:0:0:0:
316,196,35506,1,0,0:0:0:0:
316,196,35679,1,8,0:0:0:0:
316,196,35853,1,0,0:0:0:0:
316,196,36027,1,8,0:0:0:0:
180,108,36114,1,8,0:0:0:0:
316,196,36200,1,0,0:0:0:0:
200,120,36287,1,0,0:0:0:0:
316,196,36374,1,8,0:0:0:0:
240,164,36548,5,12,0:0:0:0:
240,164,36721,1,0,0:0:0:0:
240,164,36895,1,12,0:0:0:0:
240,164,37069,1,0,0:0:0:0:
240,164,37243,5,12,0:0:0:0:
240,164,37416,1,0,0:0:0:0:
324,164,37503,1,0,0:0:0:0:
304,160,37590,1,0,0:0:0:0:
304,160,37764,1,8,0:0:0:0:
304,160,37937,1,0,0:0:0:0:
316,108,38024,1,0,0:0:0:0:
304,160,38111,1,8,0:0:0:0:
304,160,38285,1,0,0:0:0:0:
304,160,38458,1,8,0:0:0:0:
304,160,38632,1,0,0:0:0:0:
232,120,38719,1,0,0:0:0:0:
304,160,38806,1,8,0:0:0:0:
188,132,38892,1,8,0:0:0:0:
304,160,38979,1,0,0:0:0:0:
304,160,39153,1,8,0:0:0:0:
208,100,39327,1,4,0:0:0:0:
304,160,39500,1,8,0:0:0:0:
232,104,39674,1,4,0:0:0:0:
304,160,39848,1,8,0:0:0:0:
232,104,40021,1,4,0:0:0:0:
248,140,40195,1,8,0:0:0:0:
248,140,40542,1,8,0:0:0:0:
308,212,40716,5,4,0:0:0:0:
288,200,42106,1,0,0:0:0:0:
256,192,43495,12,0,44537,0:0:0:0:
264,144,44885,5,0,0:0:0:0:
236,156,45406,1,0,0:0:0:0:
264,144,45579,1,12,0:0:0:0:
160,180,45927,1,8,0:0:0:0:
160,180,46100,1,0,0:0:0:0:
160,180,46274,1,4,0:0:0:0:
168,152,46448,1,8,0:0:0:0:
212,136,46621,1,4,0:0:0:0:
212,136,46795,1,8,0:0:0:0:
212,136,46969,1,0,0:0:0:0:
256,124,47056,1,0,0:0:0:0:
212,136,47142,1,8,0:0:0:0:
212,136,47316,1,0,0:0:0:0:
212,136,47403,1,0,0:0:0:0:
212,136,47490,1,8,0:0:0:0:
248,140,47663,1,0,0:0:0:0:
248,140,47750,1,0,0:0:0:0:
248,140,47837,1,8,0:0:0:0:
248,140,47924,1,0,0:0:0:0:
248,140,48011,1,8,0:0:0:0:
248,140,48098,1,8,0:0:0:0:
248,140,48184,1,0,0:0:0:0:
248,140,48271,1,0,0:0:0:0:
248,140,48358,1,8,0:0:0:0:
264,152,48532,1,8,0:0:0:0:
348,224,48705,1,0,0:0:0:0:
348,224,48792,1,0,0:0:0:0:
348,224,48879,1,8,0:0:0:0:
144,136,48966,1,8,0:0:0:0:
348,224,49053,1,0,0:0:0:0:
348,224,49227,1,8,0:0:0:0:
348,224,49400,1,0,0:0:0:0:
348,224,49574,1,8,0:0:0:0:
348,224,49748,1,0,0:0:0:0:
348,224,49834,1,0,0:0:0:0:
348,224,49921,1,8,0:0:0:0:
348,224,50095,1,0,0:0:0:0:
200,160,50182,1,0,0:0:0:0:
348,224,50269,1,8,0:0:0:0:
348,224,50442,1,0,0:0:0:0:
348,224,50529,1,0,0:0:0:0:
348,224,50616,1,8,0:0:0:0:
348,224,50703,1,8,0:0:0:0:
348,224,50790,1,0,0:0:0:0:
348,224,50877,1,0,0:0:0:0:
348,224,50963,1,8,0:0:0:0:
348,224,51050,1,0,0:0:0:0:
348,224,51137,1,8,0:0:0:0:
248,136,51311,1,8,0:0:0:0:
248,136,51484,1,0,0:0:0:0:
300,144,51571,1,0,0:0:0:0:
248,136,51658,1,8,0:0:0:0:
288,152,51745,1,8,0:0:0:0:
248,136,51832,1,0,0:0:0:0:
248,136,52005,1,8,0:0:0:0:
248,136,52179,1,0,0:0:0:0:
248,136,52353,1,8,0:0:0:0:
212,136,52526,1,0,0:0:0:0:
256,124,52613,1,0,0:0:0:0:
212,136,52700,1,8,0:0:0:0:
212,136,52874,1,0,0:0:0:0:
212,136,52961,1,0,0:0:0:0:
212,136,53048,1,8,0:0:0:0:
248,140,53221,1,0,0:0:0:0:
248,140,53308,1,0,0:0:0:0:
248,140,53395,1,8,0:0:0:0:
248,140,53482,1,0,0:0:0:0:
248,140,53569,1,8,0:0:0:0:
248,140,53655,1,8,0:0:0:0:
248,140,53742,1,0,0:0:0:0:
248,140,53829,1,0,0:0:0:0:
248,140,53916,1,8,0:0:0:0:
224,136,54090,1,8,0:0:0:0:
208,136,54263,1,0,0:0:0:0:
208,136,54350,1,0,0:0:0:0:
208,136,54437,1,8,0:0:0:0:
208,136,54611,1,0,0:0:0:0:
180,160,54698,1,0,0:0:0:0:
412,276,54871,1,8,0:0:0:0:
180,160,54958,1,0,0:0:0:0:
412,276,55132,1,8,0:0:0:0:
412,276,55305,1,0,0:0:0:0:
412,276,55392,1,0,0:0:0:0:
412,276,55566,1,8,0:0:0:0:
176,124,55653,1,8,0:0:0:0:
412,276,55826,1,8,0:0:0:0:
412,276,56000,1,0,0:0:0:0:
436,312,56347,1,4,0:0:0:0:
248,232,56521,1,0,0:0:0:0:
436,312,56695,1,8,0:0:0:0:
436,312,56869,1,0,0:0:0:0:
436,312,57042,1,0,0:0:0:0:
436,312,57216,1,8,0:0:0:0:
444,312,57390,1,4,0:0:0:0:
168,152,57563,1,8,0:0:0:0:
212,136,57737,1,4,0:0:0:0:
212,136,57911,1,8,0:0:0:0:
212,136,58084,1,0,0:0:0:0:
256,124,58171,1,0,0:0:0:0:
212,136,58258,1,8,0:0:0:0:
212,136,58432,1,0,0:0:0:0:
212,136,58518,1,0,0:0:0:0:
212,136,58605,1,8,0:0:0:0:
248,140,58779,1,0,0:0:0:0:
248,140,58866,1,0,0:0:0:0:
248,140,58953,1,8,0:0:0:0:
248,140,59040,1,0,0:0:0:0:
248,140,59126,1,8,0:0:0:0:
248,140,59213,1,8,0:0:0:0:
248,140,59300,1,0,0:0:0:0:
248,140,59387,1,0,0:0:0:0:
248,140,59474,1,8,0:0:0:0:
264,152,59647,1,8,0:0:0:0:
348,224,59821,1,0,0:0:0:0:
348,224,59908,1,0,0:0:0:0:
348,224,59995,1,8,0:0:0:0:
144,136,60082,1,8,0:0:0:0:
348,224,60168,1,0,0:0:0:0:
348,224,60342,1,8,0:0:0:0:
348,224,60516,1,0,0:0:0:0:
348,224,60690,1,8,0:0:0:0:
348,224,60863,1,0,0:0:0:0:
348,224,60950,1,0,0:0:0:0:
348,224,61037,1,8,0:0:0:0:
348,224,61211,1,0,0:0:0:0:
200,160,61297,1,0,0:0:0:0:
348,224,61384,1,8,0:0:0:0:
348,224,61558,1,0,0:0:0:0:
348,224,61645,1,0,0:0:0:0:
348,224,61732,1,8,0:0:0:0:
348,224,61818,1,8,0:0:0:0:
348,224,61905,1,0,0:0:0:0:
348,224,61992,1,0,0:0:0:0:
348,224,62079,1,8,0:0:0:0:
348,224,62166,1,0,0:0:0:0:
348,224,62253,1,8,0:0:0:0:
248,136,62426,1,8,0:0:0:0:
248,136,62600,1,0,0:0:0:0:
300,144,62687,1,0,0:0:0:0:
248,136,62774,1,8,0:0:0:0:
288,152,62861,1,8,0:0:0:0:
248,136,62947,1,0,0:0:0:0:
248,136,63121,1,8,0:0:0:0:
248,136,63295,1,0,0:0:0:0:
248,136,63468,1,8,0:0:0:0:
212,136,63642,1,0,0:0:0:0:
256,124,63729,1,0,0:0:0:0:
212,136,63816,1,8,0:0:0:0:
212,136,63989,1,0,0:0:0:0:
212,136,64076,1,0,0:0:0:0:
212,136,64163,1,8,0:0:0:0:
248,140,64337,1,0,0:0:0:0:
248,140,64424,1,0,0:0:0:0:
248,140,64511,1,8,0:0:0:0:
248,140,64597,1,0,0:0:0:0:
248,140,64684,1,8,0:0:0:0:
248,140,64771,1,8,0:0:0:0:
248,140,64858,1,0,0:0:0:0:
248,140,64945,1,0,0:0:0:0:
248,140,65032,1,8,0:0:0:0:
224,136,65205,1,8,0:0:0:0:
208,136,65379,1,0,0:0:0:0:
208,136,65466,1,0,0:0:0:0:
208,136,65553,1,8,0:0:0:0:
208,136,65726,1,0,0:0:0:0:
224,172,65813,1,0,0:0:0:0:
412,276,65987,1,8,0:0:0:0:
224,172,66074,1,0,0:0:0:0:
412,276,66247,1,8,0:0:0:0:
412,276,66421,1,0,0:0:0:0:
412,276,66508,1,0,0:0:0:0:
412,276,66682,1,8,0:0:0:0:
224,112,66768,1,8,0:0:0:0:
412,276,66942,1,8,0:0:0:0:
412,276,67116,1,4,0:0:0:0:
252,200,67810,1,8,0:0:0:0:
252,200,68158,1,0,0:0:0:0:
248,192,68505,1,4,0:0:0:0:
280,160,69200,1,8,0:0:0:0:
280,160,69547,1,0,0:0:0:0:
280,160,69895,1,0,0:0:0:0:
280,160,70589,1,8,0:0:0:0:
280,160,70937,1,0,0:0:0:0:
280,160,71284,1,8,0:0:0:0:
280,160,71979,1,8,0:0:0:0:
280,160,72326,1,8,0:0:0:0:
280,160,72674,1,0,0:0:0:0:
280,160,73368,1,8,0:0:0:0:
280,160,73716,1,0,0:0:0:0:
280,160,74063,1,0,0:0:0:0:
280,160,74758,1,8,0:0:0:0:
280,160,75105,1,0,0:0:0:0:
280,160,75452,1,0,0:0:0:0:
280,160,76147,1,8,0:0:0:0:
280,160,76495,1,0,0:0:0:0:
280,160,76842,1,0,0:0:0:0:
280,160,77016,1,8,0:0:0:0:
284,164,77189,1,0,0:0:0:0:
284,164,77537,1,8,0:0:0:0:
300,192,77710,1,0,0:0:0:0:
300,192,77884,1,8,0:0:0:0:
300,192,78058,1,8,0:0:0:0:
300,192,78231,1,4,0:0:0:0:
208,176,78926,1,0,0:0:0:0:
208,176,79100,1,0,0:0:0:0:
208,176,79273,1,8,0:0:0:0:
156,152,79360,1,8,0:0:0:0:
208,176,79447,1,8,0:0:0:0:
228,176,79621,1,4,0:0:0:0:
308,180,79794,1,8,0:0:0:0:
308,180,79968,1,0,0:0:0:0:
184,160,80055,1,0,0:0:0:0:
308,180,80142,1,8,0:0:0:0:
308,180,80316,1,0,0:0:0:0:
384,236,80402,1,0,0:0:0:0:
232,120,80489,1,8,0:0:0:0:
384,236,80576,1,0,0:0:0:0:
232,120,80663,1,8,0:0:0:0:
384,236,80750,1,0,0:0:0:0:
232,120,80837,1,8,0:0:0:0:
204,168,80923,1,8,0:0:0:0:
232,124,81010,1,0,0:0:0:0:
232,124,81184,1,8,0:0:0:0:
232,124,81358,1,0,0:0:0:0:
232,124,81444,1,0,0:0:0:0:
232,124,81531,1,8,0:0:0:0:
264,136,81705,1,0,0:0:0:0:
184,160,81879,1,8,0:0:0:0:
184,160,81965,1,8,0:0:0:0:
324,172,82052,1,0,0:0:0:0:
216,112,82139,1,0,0:0:0:0:
324,172,82226,1,8,0:0:0:0:
316,180,82400,1,0,0:0:0:0:
196,60,82573,1,8,0:0:0:0:
196,60,82660,1,8,0:0:0:0:
196,60,82747,1,0,0:0:0:0:
196,60,82921,1,8,0:0:0:0:
340,136,83094,1,0,0:0:0:0:
240,84,83181,1,0,0:0:0:0:
240,84,83268,1,8,0:0:0:0:
328,140,83442,1,0,0:0:0:0:
240,92,83529,1,0,0:0:0:0:
240,92,83615,1,8,0:0:0:0:
240,92,83702,1,8,0:0:0:0:
240,92,83789,1,0,0:0:0:0:
240,92,83963,1,8,0:0:0:0:
316,200,84137,1,0,0:0:0:0:
316,200,84223,1,0,0:0:0:0:
316,200,84310,1,8,0:0:0:0:
252,168,84484,1,0,0:0:0:0:
252,168,84571,1,0,0:0:0:0:
252,168,84658,1,8,0:0:0:0:
252,168,84744,1,0,0:0:0:0:
252,168,84831,1,8,0:0:0:0:
252,168,84918,1,0,0:0:0:0:
252,168,85005,1,8,0:0:0:0:
252,168,85092,1,8,0:0:0:0:
252,168,85179,1,0,0:0:0:0:
308,200,85352,1,8,0:0:0:0:
292,200,85526,1,0,0:0:0:0:
292,200,85613,1,0,0:0:0:0:
292,208,85700,1,8,0:0:0:0:
284,196,85873,1,0,0:0:0:0:
284,196,85960,1,0,0:0:0:0:
284,196,86047,1,8,0:0:0:0:
284,196,86134,1,0,0:0:0:0:
284,196,86221,1,8,0:0:0:0:
284,196,86308,1,0,0:0:0:0:
284,196,86394,1,8,0:0:0:0:
284,196,86481,1,8,0:0:0:0:
284,196,86568,1,0,0:0:0:0:
200,168,86742,1,8,0:0:0:0:
200,168,86915,1,0,0:0:0:0:
200,168,87002,1,0,0:0:0:0:
200,168,87089,1,8,0:0:0:0:
200,168,87263,1,0,0:0:0:0:
240,124,87436,1,8,0:0:0:0:
240,124,87523,1,8,0:0:0:0:
240,124,87610,1,0,0:0:0:0:
240,124,87697,1,0,0:0:0:0:
240,124,87784,1,8,0:0:0:0:
240,124,87958,1,0,0:0:0:0:
180,124,88131,1,8,0:0:0:0:
180,124,88218,1,8,0:0:0:0:
180,124,88305,1,0,0:0:0:0:
176,132,88479,1,8,0:0:0:0:
200,56,88652,1,0,0:0:0:0:
200,56,88739,1,0,0:0:0:0:
200,64,88826,1,8,0:0:0:0:
200,56,89000,1,0,0:0:0:0:
200,56,89086,1,0,0:0:0:0:
200,56,89173,1,8,0:0:0:0:
200,60,89347,1,4,0:0:0:0:
280,184,90042,1,8,0:0:0:0:
280,184,90215,1,8,0:0:0:0:
280,184,90389,1,8,0:0:0:0:
280,184,90563,1,8,0:0:0:0:
280,184,90736,1,4,0:0:0:0:
272,184,90910,1,8,0:0:0:0:
272,184,90997,1,8,0:0:0:0:
272,184,91084,1,0,0:0:0:0:
272,184,91257,1,8,0:0:0:0:
272,184,91431,1,0,0:0:0:0:
272,184,91605,1,8,0:0:0:0:
248,88,91692,1,8,0:0:0:0:
248,88,91779,1,0,0:0:0:0:
248,88,91865,1,0,0:0:0:0:
248,88,91952,1,8,0:0:0:0:
248,88,92126,1,0,0:0:0:0:
340,264,92300,1,8,0:0:0:0:
340,264,92386,1,8,0:0:0:0:
340,264,92473,1,0,0:0:0:0:
340,264,92647,1,8,0:0:0:0:
340,264,92821,1,0,0:0:0:0:
340,264,92994,1,8,0:0:0:0:
340,264,93081,1,0,0:0:0:0:
340,264,93168,1,0,0:0:0:0:
340,264,93255,1,0,0:0:0:0:
340,264,93342,1,8,0:0:0:0:
340,264,93515,1,0,0:0:0:0:
340,264,93689,1,8,0:0:0:0:
340,264,93776,1,8,0:0:0:0:
340,264,93863,1,0,0:0:0:0:
340,264,94036,1,8,0:0:0:0:
340,264,94210,1,0,0:0:0:0:
340,264,94384,1,8,0:0:0:0:
340,264,94471,1,8,0:0:0:0:
336,248,94557,1,0,0:0:0:0:
340,264,94644,1,0,0:0:0:0:
340,264,94731,1,8,0:0:0:0:
300,164,94905,1,0,0:0:0:0:
300,164,95078,1,8,0:0:0:0:
300,164,95165,1,8,0:0:0:0:
300,164,95252,1,0,0:0:0:0:
300,164,95426,1,8,0:0:0:0:
300,164,95599,1,0,0:0:0:0:
300,164,95773,1,8,0:0:0:0:
300,164,95860,1,8,0:0:0:0:
300,164,95947,1,0,0:0:0:0:
300,164,96034,1,0,0:0:0:0:
300,164,96121,1,8,0:0:0:0:
300,164,96294,1,0,0:0:0:0:
300,164,96468,1,8,0:0:0:0:
300,164,96555,1,8,0:0:0:0:
300,164,96642,1,0,0:0:0:0:
300,164,96815,1,8,0:0:0:0:
280,188,96989,1,0,0:0:0:0:
280,188,97163,1,8,0:0:0:0:
280,188,97249,1,8,0:0:0:0:
280,188,97336,1,0,0:0:0:0:
280,188,97423,1,0,0:0:0:0:
280,188,97510,1,8,0:0:0:0:
280,188,97684,1,0,0:0:0:0:
280,188,97857,1,8,0:0:0:0:
280,188,97944,1,8,0:0:0:0:
280,188,98031,1,0,0:0:0:0:
280,188,98205,1,8,0:0:0:0:
280,188,98378,1,0,0:0:0:0:
280,188,98552,1,8,0:0:0:0:
280,188,98639,1,0,0:0:0:0:
280,188,98726,1,0,0:0:0:0:
280,188,98813,1,0,0:0:0:0:
280,188,98899,1,8,0:0:0:0:
252,148,99073,5,4,0:0:0:0:
240,164,99594,1,8,0:0:0:0:
248,160,100115,1,0,0:0:0:0:
252,160,100463,1,4,0:0:0:0:
316,200,101852,1,12,0:0:0:0:
248,196,102199,1,4,0:0:0:0:
248,196,102547,1,12,0:0:0:0:
248,196,103241,1,4,0:0:0:0:
248,196,103589,1,4,0:0:0:0:
248,196,103936,1,12,0:0:0:0:
248,196,104631,1,12,0:0:0:0:
248,196,104978,1,4,0:0:0:0:
248,196,105326,1,12,0:0:0:0:
248,196,106020,1,4,0:0:0:0:
248,196,106368,1,4,0:0:0:0:
248,196,106715,1,12,0:0:0:0:
248,196,107410,1,12,0:0:0:0:
248,196,107757,1,4,0:0:0:0:
248,196,108105,1,12,0:0:0:0:
248,196,108799,1,4,0:0:0:0:
248,196,109147,1,4,0:0:0:0:
248,196,109494,1,12,0:0:0:0:
248,196,110189,1,12,0:0:0:0:
248,196,110536,1,4,0:0:0:0:
248,196,110883,1,12,0:0:0:0:
248,196,111578,1,0,0:0:0:0:
252,196,112099,1,0,0:0:0:0:
252,196,112273,1,12,0:0:0:0:
252,196,112620,1,8,0:0:0:0:
252,196,112794,1,8,0:0:0:0:
252,196,112968,1,4,0:0:0:0:
168,152,113141,1,8,0:0:0:0:
212,136,113315,1,4,0:0:0:0:
212,136,113489,1,8,0:0:0:0:
212,136,113662,1,0,0:0:0:0:
256,124,113749,1,0,0:0:0:0:
212,136,113836,1,8,0:0:0:0:
212,136,114010,1,0,0:0:0:0:
212,136,114097,1,0,0:0:0:0:
212,136,114183,1,8,0:0:0:0:
248,140,114357,1,0,0:0:0:0:
248,140,114444,1,0,0:0:0:0:
248,140,114531,1,8,0:0:0:0:
248,140,114618,1,0,0:0:0:0:
248,140,114704,1,8,0:0:0:0:
248,140,114791,1,8,0:0:0:0:
248,140,114878,1,0,0:0:0:0:
248,140,114965,1,0,0:0:0:0:
248,140,115052,1,8,0:0:0:0:
264,152,115225,1,8,0:0:0:0:
348,224,115399,1,0,0:0:0:0:
348,224,115486,1,0,0:0:0:0:
348,224,115573,1,8,0:0:0:0:
144,136,115660,1,8,0:0:0:0:
348,224,115747,1,0,0:0:0:0:
348,224,115920,1,8,0:0:0:0:
348,224,116094,1,0,0:0:0:0:
348,224,116268,1,8,0:0:0:0:
348,224,116441,1,0,0:0:0:0:
348,224,116528,1,0,0:0:0:0:
348,224,116615,1,8,0:0:0:0:
348,224,116789,1,0,0:0:0:0:
200,160,116875,1,0,0:0:0:0:
348,224,116962,1,8,0:0:0:0:
348,224,117136,1,0,0:0:0:0:
348,224,117223,1,0,0:0:0:0:
348,224,117310,1,8,0:0:0:0:
348,224,117397,1,8,0:0:0:0:
348,224,117483,1,0,0:0:0:0:
348,224,117570,1,0,0:0:0:0:
348,224,117657,1,8,0:0:0:0:
348,224,117744,1,0,0:0:0:0:
348,224,117831,1,8,0:0:0:0:
248,136,118004,1,8,0:0:0:0:
248,136,118178,1,0,0:0:0:0:
300,144,118265,1,0,0:0:0:0:
248,136,118352,1,8,0:0:0:0:
288,152,118439,1,8,0:0:0:0:
248,136,118525,1,0,0:0:0:0:
248,136,118699,1,8,0:0:0:0:
248,136,118873,1,0,0:0:0:0:
248,136,119046,1,8,0:0:0:0:
212,136,119220,1,0,0:0:0:0:
256,124,119307,1,0,0:0:0:0:
212,136,119394,1,8,0:0:0:0:
212,136,119568,1,0,0:0:0:0:
212,136,119654,1,0,0:0:0:0:
212,136,119741,1,8,0:0:0:0:
248,140,119915,1,0,0:0:0:0:
248,140,120002,1,0,0:0:0:0:
248,140,120089,1,8,0:0:0:0:
248,140,120175,1,0,0:0:0:0:
248,140,120262,1,8,0:0:0:0:
248,140,120349,1,8,0:0:0:0:
248,140,120436,1,0,0:0:0:0:
248,140,120523,1,0,0:0:0:0:
248,140,120610,1,8,0:0:0:0:
224,136,120783,1,8,0:0:0:0:
208,136,120957,1,0,0:0:0:0:
208,136,121044,1,0,0:0:0:0:
208,136,121131,1,8,0:0:0:0:
208,136,121304,1,0,0:0:0:0:
244,160,121391,1,0,0:0:0:0:
412,276,121565,1,8,0:0:0:0:
232,76,121652,1,0,0:0:0:0:
412,276,121825,1,8,0:0:0:0:
412,276,121999,1,0,0:0:0:0:
412,276,122086,1,0,0:0:0:0:
412,276,122260,1,8,0:0:0:0:
264,136,122346,1,8,0:0:0:0:
412,276,122520,1,8,0:0:0:0:
412,276,122694,1,4,0:0:0:0:
264,184,123389,1,8,0:0:0:0:
264,184,123562,1,0,0:0:0:0:
264,184,123736,1,8,0:0:0:0:
264,184,123910,1,8,0:0:0:0:
276,188,124083,1,4,0:0:0:0:
352,268,124257,1,8,0:0:0:0:
216,144,124344,1,8,0:0:0:0:
236,180,124431,1,0,0:0:0:0:
236,180,124604,1,8,0:0:0:0:
236,180,124778,1,0,0:0:0:0:
224,136,124865,1,0,0:0:0:0:
224,136,124952,1,8,0:0:0:0:
224,136,125125,1,0,0:0:0:0:
344,148,125212,1,0,0:0:0:0:
336,232,125299,1,8,0:0:0:0:
336,232,125473,1,0,0:0:0:0:
276,160,125560,1,0,0:0:0:0:
336,232,125646,1,8,0:0:0:0:
304,108,125733,1,0,0:0:0:0:
336,232,125820,1,0,0:0:0:0:
316,220,125907,1,0,0:0:0:0:
336,232,125994,1,8,0:0:0:0:
304,108,126081,1,8,0:0:0:0:
304,168,126167,1,0,0:0:0:0:
312,172,126341,1,8,0:0:0:0:
312,172,126515,1,0,0:0:0:0:
200,80,126602,1,0,0:0:0:0:
312,172,126688,1,8,0:0:0:0:
328,176,126862,1,0,0:0:0:0:
328,176,127036,1,8,0:0:0:0:
328,176,127123,1,8,0:0:0:0:
328,176,127210,1,0,0:0:0:0:
328,176,127383,1,8,0:0:0:0:
328,176,127557,1,0,0:0:0:0:
268,104,127644,1,0,0:0:0:0:
328,176,127731,1,8,0:0:0:0:
328,176,127904,1,0,0:0:0:0:
328,176,127991,1,0,0:0:0:0:
328,176,128078,1,8,0:0:0:0:
256,148,128252,1,0,0:0:0:0:
260,160,128338,1,0,0:0:0:0:
260,160,128425,1,8,0:0:0:0:
216,128,128512,1,8,0:0:0:0:
260,160,128599,1,0,0:0:0:0:
260,160,128686,1,0,0:0:0:0:
260,160,128773,1,8,0:0:0:0:
216,128,128859,1,8,0:0:0:0:
260,160,128946,1,0,0:0:0:0:
220,96,129120,1,8,0:0:0:0:
216,88,129294,1,0,0:0:0:0:
284,128,129381,1,0,0:0:0:0:
220,96,129467,1,8,0:0:0:0:
220,96,129641,1,0,0:0:0:0:
392,260,129815,1,8,0:0:0:0:
392,260,129902,1,8,0:0:0:0:
392,260,129988,1,0,0:0:0:0:
432,288,130162,1,8,0:0:0:0:
432,288,130336,1,0,0:0:0:0:
140,148,130423,1,0,0:0:0:0:
432,288,130509,1,8,0:0:0:0:
432,288,130683,1,0,0:0:0:0:
432,288,130770,1,0,0:0:0:0:
432,288,130857,1,8,0:0:0:0:
432,288,131031,1,0,0:0:0:0:
432,288,131117,1,0,0:0:0:0:
432,288,131204,1,8,0:0:0:0:
216,72,131291,1,0,0:0:0:0:
432,288,131378,1,0,0:0:0:0:
432,288,131465,1,0,0:0:0:0:
432,288,131552,1,8,0:0:0:0:
216,72,131638,1,8,0:0:0:0:
432,288,131725,1,0,0:0:0:0:
432,288,131899,1,8,0:0:0:0:
432,288,132073,1,0,0:0:0:0:
292,184,132159,1,0,0:0:0:0:
432,288,132246,1,8,0:0:0:0:
248,144,132420,1,0,0:0:0:0:
248,144,132507,1,0,0:0:0:0:
256,176,132680,1,8,0:0:0:0:
236,144,132767,1,0,0:0:0:0:
256,176,132941,1,8,0:0:0:0:
256,176,133115,1,0,0:0:0:0:
256,176,133202,1,0,0:0:0:0:
256,176,133375,1,8,0:0:0:0:
176,152,133462,1,8,0:0:0:0:
256,176,133636,1,8,0:0:0:0:
256,176,133809,1,4,0:0:0:0:
196,176,134330,1,0,0:0:0:0:
224,176,134504,1,8,0:0:0:0:
224,176,134678,1,0,0:0:0:0:
224,176,134852,1,8,0:0:0:0:
224,176,135025,1,8,0:0:0:0:
224,176,135199,1,4,0:0:0:0:
400,240,135546,1,0,0:0:0:0:
312,212,135720,1,0,0:0:0:0:
400,240,135894,1,8,0:0:0:0:
400,240,136241,1,0,0:0:0:0:
400,240,136588,1,0,0:0:0:0:
400,240,136762,1,0,0:0:0:0:
400,240,136936,1,8,0:0:0:0:
400,240,137109,1,0,0:0:0:0:
400,240,137283,1,8,0:0:0:0:
400,240,137630,1,8,0:0:0:0:
400,240,137978,1,0,0:0:0:0:
400,240,138325,1,0,0:0:0:0:
400,240,138499,1,0,0:0:0:0:
400,240,138672,1,8,0:0:0:0:
400,240,139020,1,0,0:0:0:0:
400,240,139367,1,8,0:0:0:0:
400,240,139541,1,8,0:0:0:0:
400,240,139715,1,0,0:0:0:0:
400,240,139888,1,0,0:0:0:0:
400,240,140062,1,8,0:0:0:0:
400,240,140409,1,8,0:0:0:0:
400,240,140757,1,0,0:0:0:0:
400,240,141104,1,0,0:0:0:0:
400,240,141278,1,0,0:0:0:0:
400,240,141451,1,8,0:0:0:0:
400,240,141799,1,0,0:0:0:0:
400,240,142146,1,0,0:0:0:0:
400,240,142320,1,0,0:0:0:0:
400,240,142493,1,8,0:0:0:0:
400,240,142667,1,0,0:0:0:0:
400,240,142841,1,8,0:0:0:0:
400,240,143188,1,0,0:0:0:0:
392,220,143362,1,8,0:0:0:0:
400,240,143536,1,0,0:0:0:0:
392,220,143796,1,8,0:0:0:0:
360,208,144057,1,0,0:0:0:0:
304,160,144230,1,8,0:0:0:0:
304,160,144491,1,8,0:0:0:0:
304,160,144751,1,8,0:0:0:0:
304,160,144925,1,4,0:0:0:0:
256,192,145099,12,0,147009,0:0:0:0:
