osu file format v14

[General]
AudioFilename: Nightcore - Indecent.mp3
AudioLeadIn: 500
PreviewTime: 45579
Countdown: 0
SampleSet: Normal
StackLeniency: 0.7
Mode: 1
LetterboxInBreaks: 0
EpilepsyWarning: 1
WidescreenStoryboard: 1

[Editor]
Bookmarks: 1822,144910
DistanceSpacing: 1
BeatDivisor: 4
GridSize: 32
TimelineZoom: 2.599999

[Metadata]
Title:Indecent (Nightcore Mix)
TitleUnicode:Indecent (Nightcore Mix)
Artist:MAK & SAK feat. XANA
ArtistUnicode:MAK & SAK feat. XANA
Creator:Hanjamon
Version:Gero's Inner Oni
Source:
Tags:Gero Catala Catalan Remix
BeatmapID:1310411
BeatmapSetID:620305

[Difficulty]
HPDrainRate:6
CircleSize:4
OverallDifficulty:5.5
ApproachRate:10
SliderMultiplier:1.4
SliderTickRate:1

[Events]
//Background and Video events
0,0,"indecentBG.jpg",0,35
//Break Periods
//Storyboard Layer 0 (Background)
//Storyboard Layer 1 (Fail)
//Storyboard Layer 2 (Pass)
//Storyboard Layer 3 (Foreground)
//Storyboard Sound Samples

[TimingPoints]
1812,347.362936374689,4,1,0,100,1,0
12927,-100,4,1,0,100,0,1
22653,-100,4,1,0,100,0,0
46274,-100,4,1,0,100,0,1
67116,-100,4,1,0,100,0,0
79621,-100,4,1,0,100,0,1
89347,-100,4,1,0,100,0,0
90736,-100,4,1,0,100,0,1
99073,-100,4,1,0,100,0,0
112968,-100,4,1,0,100,0,1
122694,-100,4,1,0,100,0,0
124083,-100,4,1,0,100,0,1
133809,-100,4,1,0,100,0,0

[Colours]
Combo1 : 255,98,98
Combo2 : 255,206,255
Combo3 : 192,192,192
Combo4 : 255,215,196
Combo5 : 211,160,67

[HitObjects]
256,192,1812,5,12,0:0:0:0:
256,192,2159,1,8,0:0:0:0:
256,192,2333,1,8,0:0:0:0:
256,192,2506,1,0,0:0:0:0:
256,192,2854,1,8,0:0:0:0:
256,192,3201,1,8,0:0:0:0:
256,192,3375,1,0,0:0:0:0:
256,192,3548,1,8,0:0:0:0:
256,192,3722,1,8,0:0:0:0:
256,192,3896,1,0,0:0:0:0:
256,192,4243,1,8,0:0:0:0:
256,192,4417,1,0,0:0:0:0:
256,192,4590,1,8,0:0:0:0:
256,192,4938,1,8,0:0:0:0:
256,192,5111,1,8,0:0:0:0:
256,192,5285,1,0,0:0:0:0:
256,192,5632,1,8,0:0:0:0:
256,192,5980,1,8,0:0:0:0:
256,192,6154,1,0,0:0:0:0:
256,192,6327,1,8,0:0:0:0:
256,192,6501,1,8,0:0:0:0:
256,192,6675,1,0,0:0:0:0:
256,192,7022,1,8,0:0:0:0:
256,192,7196,1,0,0:0:0:0:
256,192,7369,1,12,0:0:0:0:
256,192,7717,1,8,0:0:0:0:
256,192,7890,1,8,0:0:0:0:
256,192,8064,1,0,0:0:0:0:
256,192,8411,1,8,0:0:0:0:
256,192,8759,1,8,0:0:0:0:
256,192,8932,1,0,0:0:0:0:
256,192,9106,1,8,0:0:0:0:
256,192,9280,1,8,0:0:0:0:
256,192,9453,1,0,0:0:0:0:
256,192,9801,1,8,0:0:0:0:
256,192,9975,1,0,0:0:0:0:
256,192,10148,1,8,0:0:0:0:
256,192,10409,1,8,0:0:0:0:
256,192,10669,1,0,0:0:0:0:
256,192,10843,1,8,0:0:0:0:
256,192,11103,1,8,0:0:0:0:
256,192,11364,1,8,0:0:0:0:
256,192,11538,1,4,0:0:0:0:
256,192,12232,1,0,0:0:0:0:
256,192,12406,1,0,0:0:0:0:
256,192,12580,1,8,0:0:0:0:
256,192,12753,1,8,0:0:0:0:
256,192,12927,1,4,0:0:0:0:
256,192,13101,1,8,0:0:0:0:
256,192,13188,1,8,0:0:0:0:
256,192,13274,1,0,0:0:0:0:
256,192,13448,1,8,0:0:0:0:
256,192,13622,1,0,0:0:0:0:
256,192,13709,1,0,0:0:0:0:
256,192,13796,1,8,0:0:0:0:
256,192,13882,1,8,0:0:0:0:
256,192,13969,1,0,0:0:0:0:
256,192,14143,1,8,0:0:0:0:
256,192,14317,1,0,0:0:0:0:
256,192,14403,1,0,0:0:0:0:
256,192,14490,1,8,0:0:0:0:
256,192,14664,1,0,0:0:0:0:
256,192,14751,1,0,0:0:0:0:
256,192,14838,1,8,0:0:0:0:
256,192,15011,1,0,0:0:0:0:
256,192,15185,1,8,0:0:0:0:
256,192,15272,1,8,0:0:0:0:
256,192,15359,1,0,0:0:0:0:
256,192,15445,1,0,0:0:0:0:
256,192,15532,1,8,0:0:0:0:
256,192,15706,1,4,0:0:0:0:
256,192,15880,1,8,0:0:0:0:
256,192,15967,1,8,0:0:0:0:
256,192,16053,1,0,0:0:0:0:
256,192,16227,1,8,0:0:0:0:
256,192,16401,1,0,0:0:0:0:
256,192,16488,1,0,0:0:0:0:
256,192,16574,1,8,0:0:0:0:
256,192,16661,1,8,0:0:0:0:
256,192,16748,1,0,0:0:0:0:
256,192,16922,1,8,0:0:0:0:
256,192,17095,1,0,0:0:0:0:
256,192,17182,1,0,0:0:0:0:
256,192,17269,1,8,0:0:0:0:
256,192,17443,1,0,0:0:0:0:
256,192,17530,1,0,0:0:0:0:
256,192,17617,1,8,0:0:0:0:
256,192,17790,1,0,0:0:0:0:
256,192,17964,1,8,0:0:0:0:
256,192,18051,1,8,0:0:0:0:
256,192,18138,1,0,0:0:0:0:
256,192,18224,1,0,0:0:0:0:
256,192,18311,1,8,0:0:0:0:
256,192,18485,1,4,0:0:0:0:
256,192,18659,1,8,0:0:0:0:
256,192,18745,1,8,0:0:0:0:
256,192,18832,1,0,0:0:0:0:
256,192,19006,1,8,0:0:0:0:
256,192,19180,1,0,0:0:0:0:
256,192,19266,1,0,0:0:0:0:
256,192,19353,1,8,0:0:0:0:
256,192,19440,1,8,0:0:0:0:
256,192,19527,1,0,0:0:0:0:
256,192,19701,1,8,0:0:0:0:
256,192,19874,1,0,0:0:0:0:
256,192,19961,1,0,0:0:0:0:
256,192,20048,1,8,0:0:0:0:
256,192,20222,1,0,0:0:0:0:
256,192,20309,1,0,0:0:0:0:
256,192,20395,1,8,0:0:0:0:
256,192,20569,1,0,0:0:0:0:
256,192,20743,1,8,0:0:0:0:
256,192,20830,1,8,0:0:0:0:
256,192,20916,1,0,0:0:0:0:
256,192,21003,1,0,0:0:0:0:
256,192,21090,1,8,0:0:0:0:
256,192,21264,1,0,0:0:0:0:
256,192,21351,1,0,0:0:0:0:
256,192,21438,1,0,0:0:0:0:
256,192,21524,1,8,0:0:0:0:
256,192,21611,1,0,0:0:0:0:
256,192,21785,1,8,0:0:0:0:
256,192,21959,1,0,0:0:0:0:
256,192,22045,1,0,0:0:0:0:
256,192,22132,1,0,0:0:0:0:
256,192,22219,1,8,0:0:0:0:
256,192,22306,1,0,0:0:0:0:
256,192,22480,1,8,0:0:0:0:
256,192,22653,1,4,0:0:0:0:
256,192,24043,1,4,0:0:0:0:
256,192,24390,1,8,0:0:0:0:
256,192,24564,1,0,0:0:0:0:
256,192,24737,1,0,0:0:0:0:
256,192,24911,1,8,0:0:0:0:
256,192,25258,1,8,0:0:0:0:
256,192,25432,1,0,0:0:0:0:
256,192,25780,1,8,0:0:0:0:
256,192,26127,1,0,0:0:0:0:
256,192,26301,1,0,0:0:0:0:
256,192,26474,1,8,0:0:0:0:
256,192,26648,1,8,0:0:0:0:
256,192,26822,1,0,0:0:0:0:
256,192,27169,1,8,0:0:0:0:
256,192,27343,1,0,0:0:0:0:
256,192,27516,1,0,0:0:0:0:
256,192,27690,1,8,0:0:0:0:
256,192,28037,1,8,0:0:0:0:
256,192,28211,1,0,0:0:0:0:
256,192,28558,1,8,0:0:0:0:
256,192,28906,1,0,0:0:0:0:
256,192,29079,1,0,0:0:0:0:
256,192,29253,1,8,0:0:0:0:
256,192,29427,1,8,0:0:0:0:
256,192,29601,1,0,0:0:0:0:
256,192,29948,1,8,0:0:0:0:
256,192,30122,1,0,0:0:0:0:
256,192,30295,1,0,0:0:0:0:
256,192,30469,1,8,0:0:0:0:
256,192,30816,1,8,0:0:0:0:
256,192,30990,1,0,0:0:0:0:
256,192,31337,1,8,0:0:0:0:
256,192,31685,1,0,0:0:0:0:
256,192,31858,1,0,0:0:0:0:
256,192,32032,1,8,0:0:0:0:
256,192,32206,1,0,0:0:0:0:
256,192,32379,1,8,0:0:0:0:
256,192,32466,1,8,0:0:0:0:
256,192,32553,1,0,0:0:0:0:
256,192,32727,1,8,0:0:0:0:
256,192,32900,1,0,0:0:0:0:
256,192,32987,1,0,0:0:0:0:
256,192,33074,1,8,0:0:0:0:
256,192,33161,1,8,0:0:0:0:
256,192,33248,1,0,0:0:0:0:
256,192,33422,1,8,0:0:0:0:
256,192,33595,1,0,0:0:0:0:
256,192,33943,1,0,0:0:0:0:
256,192,34116,1,8,0:0:0:0:
256,192,34464,1,4,0:0:0:0:
256,192,35158,1,4,0:0:0:0:
256,192,35332,1,8,0:0:0:0:
256,192,35419,1,8,0:0:0:0:
256,192,35506,1,0,0:0:0:0:
256,192,35679,1,8,0:0:0:0:
256,192,35853,1,0,0:0:0:0:
256,192,36027,1,8,0:0:0:0:
256,192,36114,1,8,0:0:0:0:
256,192,36200,1,0,0:0:0:0:
256,192,36287,1,0,0:0:0:0:
256,192,36374,1,8,0:0:0:0:
256,192,36548,1,12,0:0:0:0:
256,192,36721,1,0,0:0:0:0:
256,192,36895,1,12,0:0:0:0:
256,192,37069,1,0,0:0:0:0:
256,192,37243,1,12,0:0:0:0:
256,192,37416,1,0,0:0:0:0:
256,192,37503,1,0,0:0:0:0:
256,192,37590,1,8,0:0:0:0:
256,192,37764,1,8,0:0:0:0:
256,192,37937,1,0,0:0:0:0:
256,192,38111,1,8,0:0:0:0:
256,192,38198,1,8,0:0:0:0:
256,192,38285,1,0,0:0:0:0:
256,192,38458,1,8,0:0:0:0:
256,192,38632,1,0,0:0:0:0:
256,192,38719,1,0,0:0:0:0:
256,192,38806,1,8,0:0:0:0:
256,192,38892,1,8,0:0:0:0:
256,192,38979,1,0,0:0:0:0:
256,192,39153,1,8,0:0:0:0:
256,192,39327,1,4,0:0:0:0:
256,192,39500,1,8,0:0:0:0:
256,192,39674,1,4,0:0:0:0:
256,192,39848,1,8,0:0:0:0:
256,192,40021,1,4,0:0:0:0:
256,192,40195,1,8,0:0:0:0:
256,192,40282,1,8,0:0:0:0:
256,192,40369,1,0,0:0:0:0:
256,192,40456,1,0,0:0:0:0:
256,192,40542,1,8,0:0:0:0:
256,192,40716,1,4,0:0:0:0:
256,192,42106,1,0,0:0:0:0:
256,192,43495,1,0,0:0:0:0:
256,192,44885,1,4,0:0:0:0:
256,192,45406,1,8,0:0:0:0:
256,192,45579,1,4,0:0:0:0:
256,192,45927,1,0,0:0:0:0:
256,192,46100,1,0,0:0:0:0:
256,192,46274,1,12,0:0:0:0:
256,192,46448,1,0,0:0:0:0:
256,192,46621,1,12,0:0:0:0:
256,192,46795,1,0,0:0:0:0:
256,192,46969,1,8,0:0:0:0:
256,192,47142,1,8,0:0:0:0:
256,192,47229,1,8,0:0:0:0:
256,192,47316,1,0,0:0:0:0:
256,192,47403,1,0,0:0:0:0:
256,192,47490,1,8,0:0:0:0:
256,192,47663,1,0,0:0:0:0:
256,192,47750,1,0,0:0:0:0:
256,192,47837,1,8,0:0:0:0:
256,192,48011,1,0,0:0:0:0:
256,192,48098,1,0,0:0:0:0:
256,192,48184,1,8,0:0:0:0:
256,192,48271,1,8,0:0:0:0:
256,192,48358,1,0,0:0:0:0:
256,192,48532,1,8,0:0:0:0:
256,192,48705,1,0,0:0:0:0:
256,192,48792,1,0,0:0:0:0:
256,192,48879,1,8,0:0:0:0:
256,192,49053,1,8,0:0:0:0:
256,192,49227,1,0,0:0:0:0:
256,192,49400,1,8,0:0:0:0:
256,192,49574,1,0,0:0:0:0:
256,192,49748,1,8,0:0:0:0:
256,192,49921,1,8,0:0:0:0:
256,192,50008,1,8,0:0:0:0:
256,192,50095,1,0,0:0:0:0:
256,192,50182,1,0,0:0:0:0:
256,192,50269,1,8,0:0:0:0:
256,192,50442,1,0,0:0:0:0:
256,192,50529,1,0,0:0:0:0:
256,192,50616,1,8,0:0:0:0:
256,192,50790,1,0,0:0:0:0:
256,192,50877,1,0,0:0:0:0:
256,192,50963,1,8,0:0:0:0:
256,192,51050,1,8,0:0:0:0:
256,192,51137,1,0,0:0:0:0:
256,192,51311,1,8,0:0:0:0:
256,192,51484,1,0,0:0:0:0:
256,192,51571,1,0,0:0:0:0:
256,192,51658,1,8,0:0:0:0:
256,192,51832,1,12,0:0:0:0:
256,192,52005,1,0,0:0:0:0:
256,192,52179,1,12,0:0:0:0:
256,192,52353,1,0,0:0:0:0:
256,192,52526,1,8,0:0:0:0:
256,192,52700,1,0,0:0:0:0:
256,192,52787,1,8,0:0:0:0:
256,192,52874,1,0,0:0:0:0:
256,192,52961,1,0,0:0:0:0:
256,192,53048,1,8,0:0:0:0:
256,192,53221,1,0,0:0:0:0:
256,192,53308,1,0,0:0:0:0:
256,192,53395,1,8,0:0:0:0:
256,192,53569,1,0,0:0:0:0:
256,192,53655,1,0,0:0:0:0:
256,192,53742,1,8,0:0:0:0:
256,192,53829,1,8,0:0:0:0:
256,192,53916,1,0,0:0:0:0:
256,192,54090,1,8,0:0:0:0:
256,192,54263,1,0,0:0:0:0:
256,192,54350,1,0,0:0:0:0:
256,192,54437,1,8,0:0:0:0:
256,192,54611,1,0,0:0:0:0:
256,192,54784,1,0,0:0:0:0:
256,192,54871,1,8,0:0:0:0:
256,192,54958,1,0,0:0:0:0:
256,192,55132,1,8,0:0:0:0:
256,192,55305,1,0,0:0:0:0:
256,192,55479,1,0,0:0:0:0:
256,192,55566,1,8,0:0:0:0:
256,192,55653,1,0,0:0:0:0:
256,192,55826,1,8,0:0:0:0:
256,192,56000,1,0,0:0:0:0:
256,192,56347,1,12,0:0:0:0:
256,192,56695,1,12,0:0:0:0:
256,192,56869,1,12,0:0:0:0:
256,192,57042,1,4,0:0:0:0:
256,192,57216,1,4,0:0:0:0:
256,192,57390,1,12,0:0:0:0:
256,192,57563,1,0,0:0:0:0:
256,192,57737,1,12,0:0:0:0:
256,192,57911,1,0,0:0:0:0:
256,192,58084,1,8,0:0:0:0:
256,192,58258,1,0,0:0:0:0:
256,192,58345,1,8,0:0:0:0:
256,192,58432,1,0,0:0:0:0:
256,192,58518,1,0,0:0:0:0:
256,192,58605,1,8,0:0:0:0:
256,192,58779,1,0,0:0:0:0:
256,192,58866,1,0,0:0:0:0:
256,192,58953,1,8,0:0:0:0:
256,192,59126,1,0,0:0:0:0:
256,192,59213,1,0,0:0:0:0:
256,192,59300,1,8,0:0:0:0:
256,192,59387,1,8,0:0:0:0:
256,192,59474,1,0,0:0:0:0:
256,192,59647,1,8,0:0:0:0:
256,192,59821,1,0,0:0:0:0:
256,192,59908,1,0,0:0:0:0:
256,192,59995,1,8,0:0:0:0:
256,192,60168,1,8,0:0:0:0:
256,192,60342,1,0,0:0:0:0:
256,192,60516,1,8,0:0:0:0:
256,192,60690,1,0,0:0:0:0:
256,192,60863,1,8,0:0:0:0:
256,192,61037,1,0,0:0:0:0:
256,192,61124,1,8,0:0:0:0:
256,192,61211,1,0,0:0:0:0:
256,192,61297,1,0,0:0:0:0:
256,192,61384,1,8,0:0:0:0:
256,192,61558,1,0,0:0:0:0:
256,192,61645,1,0,0:0:0:0:
256,192,61732,1,8,0:0:0:0:
256,192,61905,1,0,0:0:0:0:
256,192,61992,1,0,0:0:0:0:
256,192,62079,1,8,0:0:0:0:
256,192,62166,1,8,0:0:0:0:
256,192,62253,1,0,0:0:0:0:
256,192,62426,1,8,0:0:0:0:
256,192,62600,1,0,0:0:0:0:
256,192,62687,1,0,0:0:0:0:
256,192,62774,1,8,0:0:0:0:
256,192,62947,1,12,0:0:0:0:
256,192,63121,1,0,0:0:0:0:
256,192,63295,1,12,0:0:0:0:
256,192,63468,1,0,0:0:0:0:
256,192,63642,1,8,0:0:0:0:
256,192,63816,1,8,0:0:0:0:
256,192,63903,1,8,0:0:0:0:
256,192,63989,1,0,0:0:0:0:
256,192,64076,1,0,0:0:0:0:
256,192,64163,1,8,0:0:0:0:
256,192,64337,1,0,0:0:0:0:
256,192,64424,1,0,0:0:0:0:
256,192,64511,1,8,0:0:0:0:
256,192,64684,1,0,0:0:0:0:
256,192,64771,1,0,0:0:0:0:
256,192,64858,1,8,0:0:0:0:
256,192,64945,1,8,0:0:0:0:
256,192,65032,1,0,0:0:0:0:
256,192,65205,1,8,0:0:0:0:
256,192,65379,1,0,0:0:0:0:
256,192,65466,1,0,0:0:0:0:
256,192,65553,1,8,0:0:0:0:
256,192,65726,1,0,0:0:0:0:
256,192,65900,1,0,0:0:0:0:
256,192,65987,1,8,0:0:0:0:
256,192,66074,1,0,0:0:0:0:
256,192,66247,1,8,0:0:0:0:
256,192,66421,1,0,0:0:0:0:
256,192,66595,1,0,0:0:0:0:
256,192,66682,1,8,0:0:0:0:
256,192,66768,1,0,0:0:0:0:
256,192,66942,1,8,0:0:0:0:
256,192,67116,1,4,0:0:0:0:
256,192,67810,1,0,0:0:0:0:
256,192,68158,1,8,0:0:0:0:
256,192,68505,1,4,0:0:0:0:
256,192,69200,1,8,0:0:0:0:
256,192,69547,1,8,0:0:0:0:
256,192,69895,1,0,0:0:0:0:
256,192,70589,1,8,0:0:0:0:
256,192,70937,1,0,0:0:0:0:
256,192,71284,1,8,0:0:0:0:
256,192,71979,1,8,0:0:0:0:
256,192,72326,1,8,0:0:0:0:
256,192,72674,1,0,0:0:0:0:
256,192,73368,1,8,0:0:0:0:
256,192,73716,1,0,0:0:0:0:
256,192,74063,1,8,0:0:0:0:
256,192,74758,1,8,0:0:0:0:
256,192,75105,1,8,0:0:0:0:
256,192,75452,1,0,0:0:0:0:
256,192,76147,1,8,0:0:0:0:
256,192,76495,1,0,0:0:0:0:
256,192,76842,1,0,0:0:0:0:
256,192,77016,1,8,0:0:0:0:
256,192,77363,1,0,0:0:0:0:
256,192,77537,1,8,0:0:0:0:
256,192,77710,1,8,0:0:0:0:
256,192,77884,1,0,0:0:0:0:
256,192,78058,1,8,0:0:0:0:
256,192,78231,1,4,0:0:0:0:
256,192,78926,1,8,0:0:0:0:
256,192,79100,1,8,0:0:0:0:
256,192,79273,1,0,0:0:0:0:
256,192,79447,1,8,0:0:0:0:
256,192,79621,1,4,0:0:0:0:
256,192,79794,1,8,0:0:0:0:
256,192,79881,1,8,0:0:0:0:
256,192,79968,1,0,0:0:0:0:
256,192,80142,1,8,0:0:0:0:
256,192,80316,1,0,0:0:0:0:
256,192,80402,1,0,0:0:0:0:
256,192,80489,1,8,0:0:0:0:
256,192,80576,1,8,0:0:0:0:
256,192,80663,1,0,0:0:0:0:
256,192,80837,1,8,0:0:0:0:
256,192,81010,1,0,0:0:0:0:
256,192,81184,1,8,0:0:0:0:
256,192,81271,1,8,0:0:0:0:
256,192,81358,1,0,0:0:0:0:
256,192,81531,1,8,0:0:0:0:
256,192,81705,1,0,0:0:0:0:
256,192,81879,1,8,0:0:0:0:
256,192,81965,1,8,0:0:0:0:
256,192,82052,1,0,0:0:0:0:
256,192,82139,1,0,0:0:0:0:
256,192,82226,1,8,0:0:0:0:
256,192,82400,1,0,0:0:0:0:
256,192,82573,1,8,0:0:0:0:
256,192,82660,1,8,0:0:0:0:
256,192,82747,1,0,0:0:0:0:
256,192,82921,1,8,0:0:0:0:
256,192,83094,1,0,0:0:0:0:
256,192,83181,1,0,0:0:0:0:
256,192,83268,1,8,0:0:0:0:
256,192,83442,1,0,0:0:0:0:
256,192,83529,1,0,0:0:0:0:
256,192,83615,1,8,0:0:0:0:
256,192,83789,1,0,0:0:0:0:
256,192,83963,1,8,0:0:0:0:
256,192,84050,1,8,0:0:0:0:
256,192,84137,1,0,0:0:0:0:
256,192,84310,1,8,0:0:0:0:
256,192,84484,1,0,0:0:0:0:
256,192,84571,1,0,0:0:0:0:
256,192,84658,1,8,0:0:0:0:
256,192,84744,1,0,0:0:0:0:
256,192,84831,1,8,0:0:0:0:
256,192,84918,1,8,0:0:0:0:
256,192,85005,1,0,0:0:0:0:
256,192,85179,1,4,0:0:0:0:
256,192,85352,1,8,0:0:0:0:
256,192,85439,1,8,0:0:0:0:
256,192,85526,1,0,0:0:0:0:
256,192,85700,1,8,0:0:0:0:
256,192,85873,1,0,0:0:0:0:
256,192,85960,1,0,0:0:0:0:
256,192,86047,1,8,0:0:0:0:
256,192,86134,1,8,0:0:0:0:
256,192,86221,1,0,0:0:0:0:
256,192,86394,1,8,0:0:0:0:
256,192,86568,1,0,0:0:0:0:
256,192,86742,1,8,0:0:0:0:
256,192,86829,1,8,0:0:0:0:
256,192,86915,1,0,0:0:0:0:
256,192,87089,1,8,0:0:0:0:
256,192,87263,1,0,0:0:0:0:
256,192,87436,1,8,0:0:0:0:
256,192,87523,1,8,0:0:0:0:
256,192,87610,1,0,0:0:0:0:
256,192,87784,1,8,0:0:0:0:
256,192,87958,1,0,0:0:0:0:
256,192,88044,1,0,0:0:0:0:
256,192,88131,1,8,0:0:0:0:
256,192,88305,1,0,0:0:0:0:
256,192,88392,1,0,0:0:0:0:
256,192,88479,1,8,0:0:0:0:
256,192,88652,1,0,0:0:0:0:
256,192,88739,1,0,0:0:0:0:
256,192,88826,1,8,0:0:0:0:
256,192,88913,1,8,0:0:0:0:
256,192,89000,1,0,0:0:0:0:
256,192,89173,1,8,0:0:0:0:
256,192,89347,1,4,0:0:0:0:
256,192,90042,1,8,0:0:0:0:
256,192,90215,1,8,0:0:0:0:
256,192,90389,1,8,0:0:0:0:
256,192,90563,1,8,0:0:0:0:
256,192,90736,1,4,0:0:0:0:
256,192,90910,1,0,0:0:0:0:
256,192,90997,1,0,0:0:0:0:
256,192,91084,1,8,0:0:0:0:
256,192,91257,1,0,0:0:0:0:
256,192,91431,1,8,0:0:0:0:
256,192,91605,1,8,0:0:0:0:
256,192,91692,1,8,0:0:0:0:
256,192,91779,1,0,0:0:0:0:
256,192,91952,1,8,0:0:0:0:
256,192,92126,1,0,0:0:0:0:
256,192,92300,1,0,0:0:0:0:
256,192,92386,1,0,0:0:0:0:
256,192,92473,1,8,0:0:0:0:
256,192,92647,1,0,0:0:0:0:
256,192,92821,1,8,0:0:0:0:
256,192,92994,1,8,0:0:0:0:
256,192,93081,1,8,0:0:0:0:
256,192,93168,1,0,0:0:0:0:
256,192,93342,1,8,0:0:0:0:
256,192,93515,1,0,0:0:0:0:
256,192,93689,1,0,0:0:0:0:
256,192,93776,1,0,0:0:0:0:
256,192,93863,1,8,0:0:0:0:
256,192,94036,1,0,0:0:0:0:
256,192,94123,1,0,0:0:0:0:
256,192,94210,1,8,0:0:0:0:
256,192,94297,1,8,0:0:0:0:
256,192,94384,1,0,0:0:0:0:
256,192,94557,1,8,0:0:0:0:
256,192,94731,1,8,0:0:0:0:
256,192,94905,1,0,0:0:0:0:
256,192,95078,1,8,0:0:0:0:
256,192,95165,1,8,0:0:0:0:
256,192,95252,1,0,0:0:0:0:
256,192,95426,1,8,0:0:0:0:
256,192,95599,1,0,0:0:0:0:
256,192,95686,1,0,0:0:0:0:
256,192,95773,1,8,0:0:0:0:
256,192,95860,1,8,0:0:0:0:
256,192,95947,1,0,0:0:0:0:
256,192,96121,1,8,0:0:0:0:
256,192,96294,1,0,0:0:0:0:
256,192,96468,1,0,0:0:0:0:
256,192,96555,1,0,0:0:0:0:
256,192,96642,1,8,0:0:0:0:
256,192,96815,1,0,0:0:0:0:
256,192,96989,1,8,0:0:0:0:
256,192,97163,1,8,0:0:0:0:
256,192,97249,1,8,0:0:0:0:
256,192,97336,1,0,0:0:0:0:
256,192,97510,1,8,0:0:0:0:
256,192,97684,1,0,0:0:0:0:
256,192,97857,1,0,0:0:0:0:
256,192,97944,1,0,0:0:0:0:
256,192,98031,1,8,0:0:0:0:
256,192,98205,1,0,0:0:0:0:
256,192,98378,1,8,0:0:0:0:
256,192,98552,1,8,0:0:0:0:
256,192,98639,1,8,0:0:0:0:
256,192,98726,1,0,0:0:0:0:
256,192,98899,1,8,0:0:0:0:
256,192,99073,1,4,0:0:0:0:
192,128,99594,1,8,0:0:0:0:
256,192,100115,1,4,0:0:0:0:
256,192,100463,1,4,0:0:0:0:
256,192,101852,1,12,0:0:0:0:
256,192,102199,1,4,0:0:0:0:
256,192,102547,1,12,0:0:0:0:
256,192,103241,1,4,0:0:0:0:
256,192,103589,1,4,0:0:0:0:
256,192,103936,1,12,0:0:0:0:
256,192,104631,1,12,0:0:0:0:
256,192,104978,1,4,0:0:0:0:
256,192,105326,1,12,0:0:0:0:
256,192,106020,1,4,0:0:0:0:
256,192,106368,1,4,0:0:0:0:
256,192,106715,1,12,0:0:0:0:
256,192,107410,1,12,0:0:0:0:
256,192,107757,1,4,0:0:0:0:
256,192,108105,1,12,0:0:0:0:
256,192,108799,1,4,0:0:0:0:
256,192,109147,1,4,0:0:0:0:
256,192,109494,1,12,0:0:0:0:
256,192,110189,1,12,0:0:0:0:
256,192,110536,1,4,0:0:0:0:
256,192,110883,1,12,0:0:0:0:
256,192,111578,1,4,0:0:0:0:
256,192,112099,1,4,0:0:0:0:
256,192,112273,1,4,0:0:0:0:
256,192,112620,1,0,0:0:0:0:
256,192,112794,1,0,0:0:0:0:
256,192,112968,1,12,0:0:0:0:
256,192,113141,1,0,0:0:0:0:
256,192,113315,1,12,0:0:0:0:
256,192,113489,1,0,0:0:0:0:
256,192,113662,1,8,0:0:0:0:
256,192,113836,1,8,0:0:0:0:
256,192,113923,1,8,0:0:0:0:
256,192,114010,1,0,0:0:0:0:
256,192,114097,1,0,0:0:0:0:
256,192,114183,1,8,0:0:0:0:
256,192,114357,1,0,0:0:0:0:
256,192,114444,1,0,0:0:0:0:
256,192,114531,1,8,0:0:0:0:
256,192,114704,1,0,0:0:0:0:
256,192,114791,1,0,0:0:0:0:
256,192,114878,1,8,0:0:0:0:
256,192,114965,1,8,0:0:0:0:
256,192,115052,1,0,0:0:0:0:
256,192,115225,1,8,0:0:0:0:
256,192,115399,1,0,0:0:0:0:
256,192,115486,1,0,0:0:0:0:
256,192,115573,1,8,0:0:0:0:
256,192,115747,1,8,0:0:0:0:
256,192,115920,1,0,0:0:0:0:
256,192,116094,1,8,0:0:0:0:
256,192,116268,1,0,0:0:0:0:
256,192,116441,1,8,0:0:0:0:
256,192,116615,1,8,0:0:0:0:
256,192,116702,1,8,0:0:0:0:
256,192,116789,1,0,0:0:0:0:
256,192,116875,1,0,0:0:0:0:
256,192,116962,1,8,0:0:0:0:
256,192,117136,1,0,0:0:0:0:
256,192,117223,1,0,0:0:0:0:
256,192,117310,1,8,0:0:0:0:
256,192,117483,1,0,0:0:0:0:
256,192,117570,1,0,0:0:0:0:
256,192,117657,1,8,0:0:0:0:
256,192,117744,1,8,0:0:0:0:
256,192,117831,1,0,0:0:0:0:
256,192,118004,1,8,0:0:0:0:
256,192,118178,1,0,0:0:0:0:
256,192,118265,1,0,0:0:0:0:
256,192,118352,1,8,0:0:0:0:
256,192,118525,1,12,0:0:0:0:
256,192,118699,1,0,0:0:0:0:
256,192,118873,1,12,0:0:0:0:
256,192,119046,1,0,0:0:0:0:
256,192,119220,1,8,0:0:0:0:
256,192,119394,1,0,0:0:0:0:
256,192,119481,1,8,0:0:0:0:
256,192,119568,1,0,0:0:0:0:
256,192,119654,1,0,0:0:0:0:
256,192,119741,1,8,0:0:0:0:
256,192,119915,1,0,0:0:0:0:
256,192,120002,1,0,0:0:0:0:
256,192,120089,1,8,0:0:0:0:
256,192,120262,1,0,0:0:0:0:
256,192,120349,1,0,0:0:0:0:
256,192,120436,1,8,0:0:0:0:
256,192,120523,1,8,0:0:0:0:
256,192,120610,1,0,0:0:0:0:
256,192,120783,1,8,0:0:0:0:
256,192,120957,1,0,0:0:0:0:
256,192,121044,1,0,0:0:0:0:
256,192,121131,1,8,0:0:0:0:
256,192,121304,1,0,0:0:0:0:
256,192,121478,1,0,0:0:0:0:
256,192,121565,1,8,0:0:0:0:
256,192,121652,1,0,0:0:0:0:
256,192,121825,1,8,0:0:0:0:
256,192,121999,1,0,0:0:0:0:
256,192,122173,1,0,0:0:0:0:
256,192,122260,1,8,0:0:0:0:
256,192,122346,1,0,0:0:0:0:
256,192,122520,1,8,0:0:0:0:
256,192,122694,1,4,0:0:0:0:
256,192,123389,1,8,0:0:0:0:
256,192,123562,1,0,0:0:0:0:
256,192,123736,1,8,0:0:0:0:
256,192,123910,1,8,0:0:0:0:
256,192,124083,1,4,0:0:0:0:
256,192,124257,1,8,0:0:0:0:
256,192,124344,1,8,0:0:0:0:
256,192,124431,1,0,0:0:0:0:
256,192,124604,1,8,0:0:0:0:
256,192,124778,1,0,0:0:0:0:
256,192,124865,1,0,0:0:0:0:
256,192,124952,1,8,0:0:0:0:
256,192,125039,1,8,0:0:0:0:
256,192,125125,1,0,0:0:0:0:
256,192,125299,1,8,0:0:0:0:
256,192,125473,1,0,0:0:0:0:
256,192,125560,1,0,0:0:0:0:
256,192,125646,1,8,0:0:0:0:
256,192,125820,1,0,0:0:0:0:
256,192,125907,1,0,0:0:0:0:
256,192,125994,1,8,0:0:0:0:
256,192,126167,1,0,0:0:0:0:
256,192,126341,1,8,0:0:0:0:
256,192,126428,1,8,0:0:0:0:
256,192,126515,1,0,0:0:0:0:
256,192,126602,1,0,0:0:0:0:
256,192,126688,1,8,0:0:0:0:
256,192,126862,1,4,0:0:0:0:
256,192,127036,1,8,0:0:0:0:
256,192,127123,1,8,0:0:0:0:
256,192,127210,1,0,0:0:0:0:
256,192,127383,1,8,0:0:0:0:
256,192,127557,1,0,0:0:0:0:
256,192,127644,1,0,0:0:0:0:
256,192,127731,1,8,0:0:0:0:
256,192,127817,1,8,0:0:0:0:
256,192,127904,1,0,0:0:0:0:
256,192,128078,1,8,0:0:0:0:
256,192,128252,1,0,0:0:0:0:
256,192,128338,1,0,0:0:0:0:
256,192,128425,1,8,0:0:0:0:
256,192,128599,1,0,0:0:0:0:
256,192,128686,1,0,0:0:0:0:
256,192,128773,1,8,0:0:0:0:
256,192,128946,1,0,0:0:0:0:
256,192,129120,1,8,0:0:0:0:
256,192,129207,1,8,0:0:0:0:
256,192,129294,1,0,0:0:0:0:
256,192,129381,1,0,0:0:0:0:
256,192,129467,1,8,0:0:0:0:
256,192,129641,1,4,0:0:0:0:
256,192,129815,1,8,0:0:0:0:
256,192,129902,1,8,0:0:0:0:
256,192,129988,1,0,0:0:0:0:
256,192,130162,1,8,0:0:0:0:
256,192,130336,1,0,0:0:0:0:
256,192,130423,1,0,0:0:0:0:
256,192,130509,1,8,0:0:0:0:
256,192,130596,1,8,0:0:0:0:
256,192,130683,1,0,0:0:0:0:
256,192,130857,1,8,0:0:0:0:
256,192,131031,1,0,0:0:0:0:
256,192,131117,1,0,0:0:0:0:
256,192,131204,1,8,0:0:0:0:
256,192,131378,1,0,0:0:0:0:
256,192,131465,1,0,0:0:0:0:
256,192,131552,1,8,0:0:0:0:
256,192,131725,1,0,0:0:0:0:
256,192,131899,1,8,0:0:0:0:
256,192,131986,1,8,0:0:0:0:
256,192,132073,1,0,0:0:0:0:
256,192,132159,1,0,0:0:0:0:
256,192,132246,1,8,0:0:0:0:
256,192,132420,1,0,0:0:0:0:
256,192,132507,1,0,0:0:0:0:
256,192,132594,1,0,0:0:0:0:
256,192,132680,1,8,0:0:0:0:
256,192,132767,1,0,0:0:0:0:
256,192,132941,1,8,0:0:0:0:
256,192,133115,1,0,0:0:0:0:
256,192,133202,1,0,0:0:0:0:
256,192,133288,1,0,0:0:0:0:
256,192,133375,1,8,0:0:0:0:
256,192,133462,1,0,0:0:0:0:
256,192,133636,1,8,0:0:0:0:
256,192,133809,1,4,0:0:0:0:
256,192,134504,1,0,0:0:0:0:
256,192,134852,1,8,0:0:0:0:
256,192,135025,1,8,0:0:0:0:
256,192,135199,1,4,0:0:0:0:
256,192,135546,1,8,0:0:0:0:
256,192,135720,1,8,0:0:0:0:
256,192,135894,1,0,0:0:0:0:
256,192,136241,1,0,0:0:0:0:
256,192,136588,1,0,0:0:0:0:
256,192,136762,1,0,0:0:0:0:
256,192,136936,1,8,0:0:0:0:
256,192,137109,1,8,0:0:0:0:
256,192,137283,1,0,0:0:0:0:
256,192,137630,1,8,0:0:0:0:
256,192,137804,1,8,0:0:0:0:
256,192,137978,1,0,0:0:0:0:
256,192,138325,1,8,0:0:0:0:
256,192,138499,1,8,0:0:0:0:
256,192,138672,1,0,0:0:0:0:
256,192,139020,1,0,0:0:0:0:
256,192,139367,1,0,0:0:0:0:
256,192,139541,1,0,0:0:0:0:
256,192,139715,1,8,0:0:0:0:
256,192,139888,1,8,0:0:0:0:
256,192,140062,1,0,0:0:0:0:
256,192,140409,1,8,0:0:0:0:
256,192,140583,1,8,0:0:0:0:
256,192,140757,1,0,0:0:0:0:
256,192,141104,1,8,0:0:0:0:
256,192,141278,1,8,0:0:0:0:
256,192,141451,1,0,0:0:0:0:
256,192,141799,1,0,0:0:0:0:
256,192,142146,1,0,0:0:0:0:
256,192,142320,1,0,0:0:0:0:
256,192,142493,1,8,0:0:0:0:
256,192,142667,1,8,0:0:0:0:
256,192,142841,1,0,0:0:0:0:
256,192,143188,1,8,0:0:0:0:
256,192,143362,1,8,0:0:0:0:
256,192,143536,1,0,0:0:0:0:
256,192,143796,1,8,0:0:0:0:
256,192,144057,1,0,0:0:0:0:
256,192,144230,1,8,0:0:0:0:
256,192,144491,1,8,0:0:0:0:
256,192,144751,1,8,0:0:0:0:
256,192,144925,1,4,0:0:0:0:
