osu file format v14

[General]
AudioFilename: Aiue.mp3
AudioLeadIn: 0
PreviewTime: 34038
Countdown: 0
SampleSet: Normal
StackLeniency: 0.7
Mode: 1
LetterboxInBreaks: 0
WidescreenStoryboard: 0

[Editor]
DistanceSpacing: 1
BeatDivisor: 2
GridSize: 32
TimelineZoom: 1.3

[Metadata]
Title:Aiue feat. Minami, SAKURAmoti (TV Size)
TitleUnicode:アイウエ feat. 美波, SAKURAmoti (TV Size)
Artist:MAISONdes
ArtistUnicode:MAISONdes
Creator:uranosu1030
Version:Kantan
Source:うる星やつら
Tags:urusei yatsura anime opening OP pop jpop j-pop Japanese メゾン・デ 柏倉隆史 Takashi Kashikura 難部一真 Kazuma Nanbu 大塚巧 Takumi Otsuka 真船勝博 Katsuhiro Mafune featuring ft
BeatmapID:3854051
BeatmapSetID:1873003

[Difficulty]
HPDrainRate:8
CircleSize:5
OverallDifficulty:3
ApproachRate:5
SliderMultiplier:1.4
SliderTickRate:1

[Events]
//Background and Video events
0,0,"1280618.png",0,0
//Break Periods
//Storyboard Layer 0 (Background)
//Storyboard Layer 1 (Fail)
//Storyboard Layer 2 (Pass)
//Storyboard Layer 3 (Foreground)
//Storyboard Layer 4 (Overlay)
//Storyboard Sound Samples

[TimingPoints]
889,359.281437125748,4,1,0,75,1,0
35380,-100,4,1,0,85,0,1
46517,-100,4,1,0,75,0,0
46877,-100,4,1,0,85,0,1
62685,-100,4,1,0,75,0,0

[HitObjects]
207,194,889,5,4,0:0:0:0:
86,138,1607,1,8,0:0:0:0:
178,156,2326,1,0,0:0:0:0:
259,193,3763,1,0,0:0:0:0:
144,116,4481,1,8,0:0:0:0:
206,120,5200,1,8,0:0:0:0:
261,170,6637,1,4,0:0:0:0:
130,159,7356,1,8,0:0:0:0:
146,126,8074,1,0,0:0:0:0:
16,179,8433,1,8,0:0:0:0:
146,126,8793,1,0,0:0:0:0:
267,158,9511,1,0,0:0:0:0:
200,34,9871,1,8,0:0:0:0:
192,193,10230,1,0,0:0:0:0:
137,174,10589,1,0,0:0:0:0:
215,144,10948,1,8,0:0:0:0:
183,138,12386,1,0,0:0:0:0:
136,170,13104,1,8,0:0:0:0:
123,133,13823,1,0,0:0:0:0:
136,146,14541,1,8,0:0:0:0:
114,103,14900,1,0,0:0:0:0:
217,147,15260,1,0,0:0:0:0:
113,179,15978,1,8,0:0:0:0:
237,142,16697,1,0,0:0:0:0:
152,112,17775,1,8,0:0:0:0:
161,140,18134,1,0,0:0:0:0:
188,145,18853,1,8,0:0:0:0:
169,168,19571,1,0,0:0:0:0:
177,133,19930,1,0,0:0:0:0:
186,155,20290,1,8,0:0:0:0:
260,153,21008,1,0,0:0:0:0:
157,93,22086,1,8,0:0:0:0:
215,138,22445,1,0,0:0:0:0:
212,87,23164,1,8,0:0:0:0:
186,102,23883,1,4,0:0:0:0:
162,117,24601,1,0,0:0:0:0:
146,165,25320,1,8,0:0:0:0:
285,165,25679,1,0,0:0:0:0:
145,165,26038,1,8,0:0:0:0:
167,224,26757,1,8,0:0:0:0:
200,84,27475,1,8,0:0:0:0:
175,193,28194,1,0,0:0:0:0:
175,193,29631,1,4,0:0:0:0:
168,116,30350,1,0,0:0:0:0:
210,156,30709,1,0,0:0:0:0:
178,148,31068,1,8,0:0:0:0:
178,148,31787,1,8,0:0:0:0:
256,192,32505,12,0,33942,0:0:0:0:
235,138,35380,5,4,0:0:0:0:
186,129,35739,1,0,0:0:0:0:
204,131,36098,1,8,0:0:0:0:
215,170,36817,1,0,0:0:0:0:
81,127,37176,1,0,0:0:0:0:
153,131,37535,1,8,0:0:0:0:
146,169,38254,1,0,0:0:0:0:
180,102,38613,1,8,0:0:0:0:
180,102,38972,1,0,0:0:0:0:
183,95,39691,1,8,0:0:0:0:
242,126,41128,1,12,0:0:0:0:
181,116,41487,1,8,0:0:0:0:
181,116,41847,1,0,0:0:0:0:
201,152,42565,1,0,0:0:0:0:
201,152,42924,1,8,0:0:0:0:
196,130,43284,1,8,0:0:0:0:
188,161,44002,1,0,0:0:0:0:
98,52,44362,1,8,0:0:0:0:
141,178,44721,1,0,0:0:0:0:
190,143,45439,1,8,0:0:0:0:
235,138,46877,1,4,0:0:0:0:
235,138,47236,1,0,0:0:0:0:
170,150,47595,1,8,0:0:0:0:
215,170,48314,1,0,0:0:0:0:
173,102,48673,1,8,0:0:0:0:
160,153,49032,1,0,0:0:0:0:
146,169,49751,1,0,0:0:0:0:
39,78,50110,1,0,0:0:0:0:
173,102,50469,1,8,0:0:0:0:
239,152,51188,1,0,0:0:0:0:
161,95,51547,1,8,0:0:0:0:
161,95,51906,1,0,0:0:0:0:
242,126,52625,1,0,0:0:0:0:
161,97,53703,1,8,0:0:0:0:
201,152,54062,1,0,0:0:0:0:
192,74,54781,1,8,0:0:0:0:
188,161,55499,1,0,0:0:0:0:
186,77,56936,1,8,0:0:0:0:
112,101,57655,1,0,0:0:0:0:
155,121,58014,1,0,0:0:0:0:
226,138,58374,1,12,0:0:0:0:
180,117,59092,1,8,0:0:0:0:
204,169,59811,1,4,0:0:0:0:
180,106,60888,1,8,0:0:0:0:
209,156,61248,1,0,0:0:0:0:
207,194,62685,5,4,0:0:0:0:
152,121,63403,1,8,0:0:0:0:
178,156,64122,1,0,0:0:0:0:
118,214,64481,1,8,0:0:0:0:
118,214,64841,1,0,0:0:0:0:
259,193,65559,1,0,0:0:0:0:
264,157,66278,1,8,0:0:0:0:
206,120,66996,1,8,0:0:0:0:
167,158,67356,1,0,0:0:0:0:
167,158,67715,1,8,0:0:0:0:
219,168,68433,1,4,0:0:0:0:
222,114,69152,1,8,0:0:0:0:
146,126,69871,1,0,0:0:0:0:
160,174,70230,1,8,0:0:0:0:
160,174,70589,1,0,0:0:0:0:
267,158,71308,1,0,0:0:0:0:
175,133,72026,1,0,0:0:0:0:
175,133,72745,1,8,0:0:0:0:
172,159,73104,1,0,0:0:0:0:
168,180,73463,1,8,0:0:0:0:
207,194,74182,5,4,0:0:0:0:
152,121,74900,1,8,0:0:0:0:
178,156,75619,1,0,0:0:0:0:
160,174,76338,1,0,0:0:0:0:
169,140,76697,1,8,0:0:0:0:
169,140,77056,1,0,0:0:0:0:
264,157,77775,1,8,0:0:0:0:
156,127,78493,1,0,0:0:0:0:
186,115,79212,1,8,0:0:0:0:
186,115,79930,1,12,0:0:0:0:
157,180,80649,1,0,0:0:0:0:
162,178,81008,1,8,0:0:0:0:
146,126,81368,1,0,0:0:0:0:
101,190,82086,1,8,0:0:0:0:
267,158,82805,1,0,0:0:0:0:
175,133,83523,1,0,0:0:0:0:
184,175,83883,1,8,0:0:0:0:
96,203,84242,1,0,0:0:0:0:
175,133,84960,1,8,0:0:0:0:
256,192,85679,12,0,87475,0:0:0:0:
