osu file format v14

[General]
AudioFilename: Aiue.mp3
AudioLeadIn: 0
PreviewTime: 34038
Countdown: 0
SampleSet: Normal
StackLeniency: 0.7
Mode: 1
LetterboxInBreaks: 0
WidescreenStoryboard: 1

[Editor]
DistanceSpacing: 1
BeatDivisor: 4
GridSize: 32
TimelineZoom: 1.7

[Metadata]
Title:Aiue feat. Minami, SAKURAmoti (TV Size)
TitleUnicode:アイウエ feat. 美波, SAKURAmoti (TV Size)
Artist:MAISONdes
ArtistUnicode:MAISONdes
Creator:uranosu1030
Version:Inner Oni
Source:うる星やつら
Tags:urusei yatsura anime opening OP pop jpop j-pop Japanese メゾン・デ 柏倉隆史 Takashi Kashikura 難部一真 Kazuma Nanbu 大塚巧 Takumi Otsuka 真船勝博 Katsuhiro Mafune featuring ft
BeatmapID:3882804
BeatmapSetID:1873003

[Difficulty]
HPDrainRate:5
CircleSize:5
OverallDifficulty:6
ApproachRate:5
SliderMultiplier:1.4
SliderTickRate:1

[Events]
//Background and Video events
0,0,"1280618.png",0,0
//Break Periods
//Storyboard Layer 0 (Background)
//Storyboard Layer 1 (Fail)
//Storyboard Layer 2 (Pass)
//Storyboard Layer 3 (Foreground)
//Storyboard Layer 4 (Overlay)
//Storyboard Sound Samples

[TimingPoints]
889,359.281437125748,4,1,0,75,1,0
12386,-111.111111111111,4,1,0,70,0,0
23164,-111.111111111111,4,1,0,70,0,0
23523,-105.270863836018,4,1,0,72,0,0
23703,-102.567760342368,4,1,0,74,0,0
23883,-100,4,1,0,75,0,0
29631,-100,4,1,0,75,0,0
29811,-99.336527828972,4,1,0,75,0,0
29900,-99.011719754583,4,1,0,75,0,0
29990,-98.685415064631,4,1,0,75,0,0
30170,-98.039215686275,4,1,0,75,0,0
30350,-97.401423976291,4,1,0,75,0,0
30439,-97.089127458751,4,1,0,75,0,0
30529,-96.775351910371,4,1,0,75,0,0
30619,-96.463597966927,4,1,0,75,0,0
30709,-96.153846153846,4,1,0,75,0,0
30888,-95.543659375332,4,1,0,75,0,0
30978,-95.239778068346,4,1,0,75,0,0
31068,-94.937823651672,4,1,0,75,0,0
31158,-94.637777855813,4,1,0,75,0,0
31248,-94.339622641509,4,1,0,75,0,0
31338,-94.043340196113,4,1,0,75,0,0
31427,-93.752174215543,4,1,0,75,0,0
31607,-93.168775496093,4,1,0,75,0,0
31787,-92.592592592593,4,1,0,75,0,0
31877,-92.307165365118,4,1,0,75,0,0
31966,-92.026634795971,4,1,0,75,0,0
32056,-91.744680851064,4,1,0,75,0,0
32146,-91.464449346682,4,1,0,75,0,0
32326,-90.909090909091,4,1,0,75,0,0
35380,-90.909090909091,4,1,0,85,0,1
46517,-90.909090909091,4,1,0,75,0,0
46877,-90.909090909091,4,1,0,85,0,1
61944,-86.95652173913,4,1,0,85,0,1
62034,-88.39982787238,4,1,0,84,0,1
62124,-89.891854722761,4,1,0,82,0,1
62213,-91.435111591531,4,1,0,81,0,1
62303,-93.032283107977,4,1,0,80,0,1
62393,-94.66754443713,4,1,0,79,0,1
62483,-96.380697050938,4,1,0,78,0,1
62573,-98.156996587031,4,1,0,76,0,1
62662,-100,4,1,0,75,0,1
62685,-100,4,1,0,75,0,0

[HitObjects]
206,194,889,5,4,0:0:0:0:
203,37,1068,1,8,0:0:0:0:
256,143,1158,1,8,0:0:0:0:
146,220,1248,1,0,0:0:0:0:
171,45,1338,1,8,0:0:0:0:
230,99,1427,1,8,0:0:0:0:
122,148,1607,1,0,0:0:0:0:
186,82,1697,1,0,0:0:0:0:
171,78,1877,1,8,0:0:0:0:
174,84,1966,1,0,0:0:0:0:
170,82,2146,1,8,0:0:0:0:
171,125,2326,1,0,0:0:0:0:
115,139,2505,1,8,0:0:0:0:
244,73,2595,1,8,0:0:0:0:
151,157,2685,1,0,0:0:0:0:
185,125,2865,1,8,0:0:0:0:
162,121,3044,1,0,0:0:0:0:
181,92,3224,1,0,0:0:0:0:
202,53,3314,1,8,0:0:0:0:
229,37,3403,1,0,0:0:0:0:
192,160,3583,1,8,0:0:0:0:
259,193,3763,1,0,0:0:0:0:
230,67,3942,1,8,0:0:0:0:
230,67,4032,1,8,0:0:0:0:
187,37,4122,1,0,0:0:0:0:
170,22,4212,1,8,0:0:0:0:
222,96,4302,1,8,0:0:0:0:
186,141,4481,1,0,0:0:0:0:
125,78,4571,1,0,0:0:0:0:
171,150,4751,1,8,0:0:0:0:
174,175,4841,1,0,0:0:0:0:
166,98,5020,1,8,0:0:0:0:
113,87,5200,1,0,0:0:0:0:
113,87,5380,1,8,0:0:0:0:
176,38,5439,1,8,0:0:0:0:
240,72,5499,1,8,0:0:0:0:
166,54,5559,1,0,0:0:0:0:
187,76,5739,1,8,0:0:0:0:
207,114,5918,1,0,0:0:0:0:
217,133,6098,1,0,0:0:0:0:
203,67,6188,1,0,0:0:0:0:
158,125,6278,1,8,0:0:0:0:
206,194,6637,5,4,0:0:0:0:
241,133,6817,1,0,0:0:0:0:
256,143,6906,1,8,0:0:0:0:
146,220,6996,1,0,0:0:0:0:
33,128,7086,1,0,0:0:0:0:
230,99,7175,1,8,0:0:0:0:
122,148,7355,1,0,0:0:0:0:
171,78,7445,1,0,0:0:0:0:
146,180,7625,1,8,0:0:0:0:
174,84,7714,1,0,0:0:0:0:
170,82,7894,1,8,0:0:0:0:
171,125,8074,1,0,0:0:0:0:
115,139,8253,1,8,0:0:0:0:
358,74,8344,1,8,0:0:0:0:
151,157,8433,1,0,0:0:0:0:
185,125,8613,1,8,0:0:0:0:
162,120,8792,1,0,0:0:0:0:
217,122,8972,1,0,0:0:0:0:
183,102,9062,1,8,0:0:0:0:
196,72,9151,1,0,0:0:0:0:
130,70,9332,1,8,0:0:0:0:
54,140,9421,1,8,0:0:0:0:
259,193,9511,1,0,0:0:0:0:
230,67,9690,1,8,0:0:0:0:
230,67,9780,1,8,0:0:0:0:
187,37,9870,1,0,0:0:0:0:
170,22,9960,1,8,0:0:0:0:
222,96,10050,1,8,0:0:0:0:
157,92,10140,1,8,0:0:0:0:
186,141,10229,1,0,0:0:0:0:
176,102,10319,1,0,0:0:0:0:
182,85,10409,1,0,0:0:0:0:
171,150,10499,1,8,0:0:0:0:
174,175,10589,1,0,0:0:0:0:
221,52,10679,1,0,0:0:0:0:
166,98,10768,1,8,0:0:0:0:
221,52,10859,1,8,0:0:0:0:
113,87,10948,1,0,0:0:0:0:
113,87,11128,1,8,0:0:0:0:
251,54,11188,1,8,0:0:0:0:
240,72,11248,5,8,0:0:0:0:
166,54,11308,1,0,0:0:0:0:
161,88,11397,1,0,0:0:0:0:
187,76,11487,1,8,0:0:0:0:
169,106,11577,1,8,0:0:0:0:
207,114,11666,1,0,0:0:0:0:
187,76,11727,1,0,0:0:0:0:
157,129,11787,1,0,0:0:0:0:
217,133,11846,1,8,0:0:0:0:
187,115,11936,1,0,0:0:0:0:
157,129,12026,1,8,0:0:0:0:
183,138,12386,5,0,0:0:0:0:
149,151,12924,1,0,0:0:0:0:
136,170,13104,1,8,0:0:0:0:
127,110,13643,1,0,0:0:0:0:
231,106,13733,1,0,0:0:0:0:
90,103,13823,1,0,0:0:0:0:
150,130,14092,1,0,0:0:0:0:
216,179,14182,1,8,0:0:0:0:
211,121,14362,1,0,0:0:0:0:
136,146,14541,1,8,0:0:0:0:
219,86,14721,1,8,0:0:0:0:
114,103,14900,1,0,0:0:0:0:
225,79,15080,1,8,0:0:0:0:
217,147,15260,1,0,0:0:0:0:
202,95,15799,1,0,0:0:0:0:
113,179,15978,1,8,0:0:0:0:
174,103,16158,1,0,0:0:0:0:
207,53,16517,1,8,0:0:0:0:
265,86,16607,1,8,0:0:0:0:
237,142,16697,1,0,0:0:0:0:
171,97,16966,1,0,0:0:0:0:
211,138,17056,1,8,0:0:0:0:
201,80,17236,1,0,0:0:0:0:
161,90,17415,1,8,0:0:0:0:
152,112,17775,1,8,0:0:0:0:
161,140,18134,1,0,0:0:0:0:
176,151,18673,1,0,0:0:0:0:
188,145,18853,1,8,0:0:0:0:
176,151,19391,1,0,0:0:0:0:
223,62,19481,1,0,0:0:0:0:
169,168,19571,1,0,0:0:0:0:
177,154,19841,1,0,0:0:0:0:
153,143,20110,1,0,0:0:0:0:
186,155,20290,1,8,0:0:0:0:
178,94,20469,1,0,0:0:0:0:
211,166,20559,1,0,0:0:0:0:
221,71,20649,1,8,0:0:0:0:
213,72,20829,1,8,0:0:0:0:
260,153,21008,1,0,0:0:0:0:
40,178,21278,1,0,0:0:0:0:
185,113,21547,1,0,0:0:0:0:
185,113,21727,1,8,0:0:0:0:
227,131,21906,1,0,0:0:0:0:
223,74,22086,1,8,0:0:0:0:
175,100,22266,1,0,0:0:0:0:
251,91,22356,1,8,0:0:0:0:
215,138,22445,1,0,0:0:0:0:
123,112,22715,1,0,0:0:0:0:
115,101,22984,1,0,0:0:0:0:
212,87,23164,1,8,0:0:0:0:
186,117,23523,1,8,0:0:0:0:
171,107,23703,1,8,0:0:0:0:
186,102,23883,1,4,0:0:0:0:
135,127,24242,1,0,0:0:0:0:
187,81,24421,1,8,0:0:0:0:
176,148,24601,1,0,0:0:0:0:
185,75,24781,1,8,0:0:0:0:
185,74,24871,1,8,0:0:0:0:
185,74,24960,1,0,0:0:0:0:
182,62,25140,1,8,0:0:0:0:
146,165,25320,1,0,0:0:0:0:
185,128,25589,1,0,0:0:0:0:
163,67,25679,1,8,0:0:0:0:
225,111,25859,1,8,0:0:0:0:
135,127,26038,1,0,0:0:0:0:
280,156,26218,1,0,0:0:0:0:
216,125,26308,1,8,0:0:0:0:
135,127,26397,1,8,0:0:0:0:
228,141,26577,1,8,0:0:0:0:
167,224,26757,1,0,0:0:0:0:
216,93,27026,1,8,0:0:0:0:
170,117,27116,1,0,0:0:0:0:
219,52,27296,1,0,0:0:0:0:
191,105,27475,1,8,0:0:0:0:
161,148,27655,1,0,0:0:0:0:
238,82,27745,1,0,0:0:0:0:
160,112,27835,1,8,0:0:0:0:
191,105,28014,1,8,0:0:0:0:
175,193,28194,1,0,0:0:0:0:
186,85,28463,1,0,0:0:0:0:
169,139,28553,1,8,0:0:0:0:
199,78,28733,1,8,0:0:0:0:
205,124,28823,1,0,0:0:0:0:
201,87,28912,1,0,0:0:0:0:
205,124,29092,1,0,0:0:0:0:
191,89,29272,1,8,0:0:0:0:
175,193,29631,1,4,0:0:0:0:
243,135,29811,1,0,0:0:0:0:
100,111,29900,1,0,0:0:0:0:
207,96,29990,1,8,0:0:0:0:
174,99,30170,1,0,0:0:0:0:
100,111,30350,1,8,0:0:0:0:
201,87,30439,1,8,0:0:0:0:
182,57,30529,1,0,0:0:0:0:
207,96,30619,1,8,0:0:0:0:
166,116,30709,1,0,0:0:0:0:
183,92,30888,1,0,0:0:0:0:
162,54,30978,1,0,0:0:0:0:
178,148,31068,1,8,0:0:0:0:
186,27,31158,1,8,0:0:0:0:
186,27,31248,1,0,0:0:0:0:
209,82,31338,1,8,0:0:0:0:
180,48,31427,1,0,0:0:0:0:
133,100,31607,1,0,0:0:0:0:
178,148,31787,1,8,0:0:0:0:
223,78,31877,1,8,0:0:0:0:
223,77,31966,1,0,0:0:0:0:
126,73,32056,1,0,0:0:0:0:
115,98,32146,1,8,0:0:0:0:
164,73,32326,1,0,0:0:0:0:
227,120,32505,1,12,0:0:0:0:
227,120,32685,1,0,0:0:0:0:
270,56,32865,1,8,0:0:0:0:
226,119,33044,1,8,0:0:0:0:
302,112,33224,1,0,0:0:0:0:
263,115,33314,1,8,0:0:0:0:
263,115,33403,1,0,0:0:0:0:
263,115,33493,1,0,0:0:0:0:
263,115,33583,1,8,0:0:0:0:
263,115,33673,1,8,0:0:0:0:
263,115,33763,1,8,0:0:0:0:
263,115,33853,1,8,0:0:0:0:
263,115,33942,1,0,0:0:0:0:
235,138,35380,1,4,0:0:0:0:
182,111,35649,1,8,0:0:0:0:
186,129,35739,1,0,0:0:0:0:
185,49,35918,1,8,0:0:0:0:
181,58,36098,1,0,0:0:0:0:
181,81,36188,1,8,0:0:0:0:
154,78,36278,1,8,0:0:0:0:
154,78,36368,1,0,0:0:0:0:
161,97,36457,1,8,0:0:0:0:
77,107,36637,1,8,0:0:0:0:
184,82,36727,1,8,0:0:0:0:
215,170,36817,1,0,0:0:0:0:
247,121,36906,1,8,0:0:0:0:
239,81,36996,1,0,0:0:0:0:
246,127,37086,1,0,0:0:0:0:
164,124,37176,1,8,0:0:0:0:
151,122,37356,1,8,0:0:0:0:
178,95,37445,1,0,0:0:0:0:
153,131,37535,1,0,0:0:0:0:
156,57,37625,1,8,0:0:0:0:
156,57,37715,1,0,0:0:0:0:
146,57,37894,1,8,0:0:0:0:
205,102,38074,1,0,0:0:0:0:
205,102,38164,1,8,0:0:0:0:
146,169,38254,1,0,0:0:0:0:
205,43,38433,1,0,0:0:0:0:
180,102,38613,1,8,0:0:0:0:
188,149,38703,1,8,0:0:0:0:
196,142,38793,1,0,0:0:0:0:
180,102,38883,1,0,0:0:0:0:
224,97,39062,1,0,0:0:0:0:
157,117,39152,1,8,0:0:0:0:
170,43,39242,1,0,0:0:0:0:
202,105,39332,1,8,0:0:0:0:
182,34,39421,1,8,0:0:0:0:
202,105,39511,1,0,0:0:0:0:
202,105,39691,1,0,0:0:0:0:
197,95,39781,1,0,0:0:0:0:
182,52,39871,1,8,0:0:0:0:
205,73,39960,1,8,0:0:0:0:
211,88,40050,1,0,0:0:0:0:
213,74,40230,1,8,0:0:0:0:
242,126,40409,1,0,0:0:0:0:
156,84,40589,1,0,0:0:0:0:
156,84,40679,1,0,0:0:0:0:
214,107,40769,1,8,0:0:0:0:
178,68,40948,1,8,0:0:0:0:
167,224,41128,1,4,0:0:0:0:
201,104,41397,1,8,0:0:0:0:
190,74,41487,1,0,0:0:0:0:
219,52,41667,1,8,0:0:0:0:
200,84,41847,1,0,0:0:0:0:
236,72,41936,1,0,0:0:0:0:
181,37,42026,1,8,0:0:0:0:
161,79,42116,1,0,0:0:0:0:
133,119,42206,1,8,0:0:0:0:
90,158,42386,1,0,0:0:0:0:
173,62,42475,1,0,0:0:0:0:
203,57,42565,1,8,0:0:0:0:
233,68,42655,1,8,0:0:0:0:
203,57,42745,1,0,0:0:0:0:
123,135,42835,1,8,0:0:0:0:
185,74,42924,1,0,0:0:0:0:
176,71,43104,1,8,0:0:0:0:
164,133,43284,1,0,0:0:0:0:
196,162,43463,1,0,0:0:0:0:
141,118,43553,1,8,0:0:0:0:
171,37,43643,1,0,0:0:0:0:
177,32,43733,1,0,0:0:0:0:
189,119,43823,5,8,0:0:0:0:
176,42,43912,1,8,0:0:0:0:
188,161,44002,1,0,0:0:0:0:
172,31,44182,1,8,0:0:0:0:
195,64,44272,1,8,0:0:0:0:
182,109,44362,1,0,0:0:0:0:
250,148,44451,1,0,0:0:0:0:
162,125,44541,1,8,0:0:0:0:
173,103,44721,1,0,0:0:0:0:
192,86,45080,1,8,0:0:0:0:
157,102,45260,1,0,0:0:0:0:
211,45,45350,1,0,0:0:0:0:
171,55,45439,1,8,0:0:0:0:
188,67,45709,1,0,0:0:0:0:
220,102,45799,1,8,0:0:0:0:
110,131,45978,1,0,0:0:0:0:
173,64,46068,1,8,0:0:0:0:
190,143,46158,1,8,0:0:0:0:
101,112,46338,1,0,0:0:0:0:
187,67,46427,1,0,0:0:0:0:
194,55,46517,1,8,0:0:0:0:
219,136,46697,1,8,0:0:0:0:
235,138,46877,1,4,0:0:0:0:
182,111,47146,1,8,0:0:0:0:
186,129,47236,1,0,0:0:0:0:
185,49,47415,1,8,0:0:0:0:
181,58,47595,1,0,0:0:0:0:
217,79,47685,1,0,0:0:0:0:
154,78,47775,1,8,0:0:0:0:
185,101,47865,1,0,0:0:0:0:
161,97,47954,1,8,0:0:0:0:
206,62,48134,1,8,0:0:0:0:
215,170,48314,1,0,0:0:0:0:
179,83,48403,1,0,0:0:0:0:
154,78,48583,1,0,0:0:0:0:
164,124,48673,1,8,0:0:0:0:
151,122,48853,1,8,0:0:0:0:
208,89,48942,1,8,0:0:0:0:
153,131,49032,1,0,0:0:0:0:
190,52,49122,1,8,0:0:0:0:
156,57,49212,1,0,0:0:0:0:
146,57,49391,1,8,0:0:0:0:
256,42,49571,1,0,0:0:0:0:
256,42,49661,1,8,0:0:0:0:
146,169,49751,1,0,0:0:0:0:
205,43,49930,1,0,0:0:0:0:
180,102,50110,1,8,0:0:0:0:
194,39,50200,1,8,0:0:0:0:
196,142,50290,1,0,0:0:0:0:
180,102,50380,1,0,0:0:0:0:
183,49,50559,1,8,0:0:0:0:
183,53,50649,1,0,0:0:0:0:
176,50,50739,1,0,0:0:0:0:
202,105,50829,1,8,0:0:0:0:
119,147,50918,1,0,0:0:0:0:
126,78,51008,1,8,0:0:0:0:
250,148,51098,1,8,0:0:0:0:
202,105,51188,1,0,0:0:0:0:
180,102,51368,1,8,0:0:0:0:
197,95,51457,1,8,0:0:0:0:
176,71,51547,1,0,0:0:0:0:
153,49,51637,1,0,0:0:0:0:
213,74,51727,1,8,0:0:0:0:
242,126,51906,1,0,0:0:0:0:
136,67,51996,1,8,0:0:0:0:
162,67,52086,1,0,0:0:0:0:
162,67,52176,1,0,0:0:0:0:
214,107,52266,1,8,0:0:0:0:
197,106,52356,1,8,0:0:0:0:
194,66,52445,1,0,0:0:0:0:
226,110,52535,1,0,0:0:0:0:
167,224,52625,1,12,0:0:0:0:
211,83,52805,1,0,0:0:0:0:
211,83,52894,1,0,0:0:0:0:
211,83,52984,1,0,0:0:0:0:
219,52,53164,1,8,0:0:0:0:
200,84,53344,1,0,0:0:0:0:
219,81,53433,1,0,0:0:0:0:
181,37,53523,1,8,0:0:0:0:
186,7,53613,1,0,0:0:0:0:
133,119,53703,1,8,0:0:0:0:
90,158,53883,1,8,0:0:0:0:
90,158,54062,1,0,0:0:0:0:
205,68,54152,1,0,0:0:0:0:
215,73,54242,1,8,0:0:0:0:
140,104,54332,1,8,0:0:0:0:
185,74,54421,1,0,0:0:0:0:
176,71,54601,1,8,0:0:0:0:
231,114,54781,1,0,0:0:0:0:
196,162,54960,1,0,0:0:0:0:
196,117,55050,1,0,0:0:0:0:
196,117,55140,1,8,0:0:0:0:
269,93,55320,1,8,0:0:0:0:
188,161,55499,1,0,0:0:0:0:
158,145,55769,1,0,0:0:0:0:
182,109,55859,1,8,0:0:0:0:
162,125,56038,1,0,0:0:0:0:
156,87,56218,1,0,0:0:0:0:
166,104,56308,1,8,0:0:0:0:
173,103,56397,1,0,0:0:0:0:
176,116,56487,1,0,0:0:0:0:
192,86,56577,1,8,0:0:0:0:
157,102,56757,1,8,0:0:0:0:
226,62,56847,1,8,0:0:0:0:
167,103,56936,1,0,0:0:0:0:
168,37,57026,1,8,0:0:0:0:
177,107,57116,1,0,0:0:0:0:
180,114,57206,1,0,0:0:0:0:
218,88,57296,1,8,0:0:0:0:
156,84,57475,1,8,0:0:0:0:
211,110,57565,1,8,0:0:0:0:
190,117,57655,1,0,0:0:0:0:
141,25,57745,1,8,0:0:0:0:
101,112,57835,1,0,0:0:0:0:
181,97,57924,1,0,0:0:0:0:
206,114,58014,1,8,0:0:0:0:
174,53,58104,1,8,0:0:0:0:
219,136,58194,1,0,0:0:0:0:
174,53,58284,1,0,0:0:0:0:
171,169,58374,1,12,0:0:0:0:
183,85,58553,1,0,0:0:0:0:
176,62,58643,1,0,0:0:0:0:
178,174,58733,5,8,0:0:0:0:
138,66,58823,1,0,0:0:0:0:
178,174,58912,1,0,0:0:0:0:
203,99,59002,1,0,0:0:0:0:
168,91,59092,1,8,0:0:0:0:
201,84,59272,1,0,0:0:0:0:
149,47,59362,1,8,0:0:0:0:
181,91,59451,1,8,0:0:0:0:
181,91,59631,1,8,0:0:0:0:
189,65,59811,1,4,0:0:0:0:
211,55,59990,1,8,0:0:0:0:
186,148,60170,1,0,0:0:0:0:
181,109,60350,1,8,0:0:0:0:
204,87,60529,1,0,0:0:0:0:
189,116,60888,1,8,0:0:0:0:
165,133,61248,1,0,0:0:0:0:
457,168,61966,1,8,0:0:0:0:
418,163,62056,1,8,0:0:0:0:
379,157,62146,1,8,0:0:0:0:
340,152,62236,1,8,0:0:0:0:
301,147,62326,1,8,0:0:0:0:
263,142,62415,1,8,0:0:0:0:
224,137,62505,1,8,0:0:0:0:
224,137,62595,1,8,0:0:0:0:
207,194,62685,5,0,0:0:0:0:
236,109,63044,1,8,0:0:0:0:
122,148,63403,1,0,0:0:0:0:
225,92,63673,1,0,0:0:0:0:
225,91,63763,1,8,0:0:0:0:
181,117,63942,1,0,0:0:0:0:
171,125,64122,1,0,0:0:0:0:
115,139,64302,1,8,0:0:0:0:
254,78,64391,1,8,0:0:0:0:
151,157,64481,1,0,0:0:0:0:
185,125,64661,1,8,0:0:0:0:
162,121,64841,1,0,0:0:0:0:
215,80,65020,1,0,0:0:0:0:
192,160,65200,1,8,0:0:0:0:
192,160,65380,1,8,0:0:0:0:
188,78,65469,1,8,0:0:0:0:
259,193,65559,1,0,0:0:0:0:
188,78,65739,1,0,0:0:0:0:
186,148,65918,1,8,0:0:0:0:
196,90,66098,1,0,0:0:0:0:
138,45,66188,1,8,0:0:0:0:
186,141,66278,1,0,0:0:0:0:
96,98,66457,1,0,0:0:0:0:
171,150,66547,1,8,0:0:0:0:
176,25,66727,1,8,0:0:0:0:
166,98,66817,1,0,0:0:0:0:
113,87,66996,1,0,0:0:0:0:
113,87,67176,1,8,0:0:0:0:
206,61,67266,1,0,0:0:0:0:
172,90,67356,1,8,0:0:0:0:
187,76,67535,1,8,0:0:0:0:
207,114,67715,1,0,0:0:0:0:
172,119,67805,1,0,0:0:0:0:
159,72,67894,1,0,0:0:0:0:
186,86,68074,1,8,0:0:0:0:
151,93,68164,1,8,0:0:0:0:
116,100,68254,1,8,0:0:0:0:
207,194,68433,5,4,0:0:0:0:
146,220,68793,1,8,0:0:0:0:
122,148,69152,1,0,0:0:0:0:
146,180,69421,1,8,0:0:0:0:
170,42,69511,1,0,0:0:0:0:
176,42,69691,1,8,0:0:0:0:
171,125,69871,1,0,0:0:0:0:
115,139,70050,1,8,0:0:0:0:
195,57,70140,1,8,0:0:0:0:
151,157,70230,1,0,0:0:0:0:
185,125,70409,1,8,0:0:0:0:
162,121,70589,1,0,0:0:0:0:
252,172,70769,1,0,0:0:0:0:
229,117,70859,1,0,0:0:0:0:
192,160,70948,1,8,0:0:0:0:
192,160,71128,1,8,0:0:0:0:
259,193,71308,1,0,0:0:0:0:
162,78,71487,1,0,0:0:0:0:
186,148,71667,1,8,0:0:0:0:
213,68,71757,1,0,0:0:0:0:
210,72,71847,1,8,0:0:0:0:
201,68,71936,1,8,0:0:0:0:
186,141,72026,1,0,0:0:0:0:
280,147,72206,1,0,0:0:0:0:
171,150,72296,1,8,0:0:0:0:
151,88,72386,1,0,0:0:0:0:
166,98,72565,1,8,0:0:0:0:
113,87,72745,1,0,0:0:0:0:
113,87,72924,1,8,0:0:0:0:
194,61,73014,1,0,0:0:0:0:
172,90,73104,1,8,0:0:0:0:
187,76,73284,1,0,0:0:0:0:
165,84,73344,1,0,0:0:0:0:
144,95,73403,1,0,0:0:0:0:
204,113,73463,1,8,0:0:0:0:
157,111,73583,1,0,0:0:0:0:
110,111,73703,1,8,0:0:0:0:
110,111,73823,1,0,0:0:0:0:
110,111,73942,1,0,0:0:0:0:
110,111,74062,1,8,0:0:0:0:
207,194,74182,5,4,0:0:0:0:
247,99,74541,1,8,0:0:0:0:
122,148,74900,1,0,0:0:0:0:
146,180,75170,1,8,0:0:0:0:
200,81,75260,1,0,0:0:0:0:
241,83,75439,1,8,0:0:0:0:
171,125,75619,1,0,0:0:0:0:
115,139,75799,1,8,0:0:0:0:
237,87,75888,1,8,0:0:0:0:
151,157,75978,1,0,0:0:0:0:
185,125,76158,1,8,0:0:0:0:
241,67,76338,1,0,0:0:0:0:
188,58,76517,1,8,0:0:0:0:
117,52,76697,1,0,0:0:0:0:
117,52,76787,1,0,0:0:0:0:
159,117,76877,1,8,0:0:0:0:
187,96,76966,1,8,0:0:0:0:
259,193,77056,1,0,0:0:0:0:
212,82,77236,1,8,0:0:0:0:
214,68,77326,1,0,0:0:0:0:
186,148,77415,1,0,0:0:0:0:
196,90,77595,1,8,0:0:0:0:
165,45,77775,1,0,0:0:0:0:
188,55,77865,1,0,0:0:0:0:
188,55,77954,1,8,0:0:0:0:
198,57,78044,1,8,0:0:0:0:
131,172,78134,1,0,0:0:0:0:
114,141,78224,1,0,0:0:0:0:
166,98,78314,1,8,0:0:0:0:
113,87,78493,1,0,0:0:0:0:
113,87,78673,1,8,0:0:0:0:
232,87,78763,1,0,0:0:0:0:
172,90,78853,1,8,0:0:0:0:
240,72,78942,1,8,0:0:0:0:
187,76,79032,1,0,0:0:0:0:
207,114,79212,1,0,0:0:0:0:
149,121,79391,1,0,0:0:0:0:
154,110,79571,1,8,0:0:0:0:
155,110,79661,1,8,0:0:0:0:
157,109,79751,1,8,0:0:0:0:
136,80,79841,1,8,0:0:0:0:
207,194,79930,5,4,0:0:0:0:
230,81,80200,1,0,0:0:0:0:
146,220,80290,1,8,0:0:0:0:
215,75,80469,1,0,0:0:0:0:
122,148,80649,1,0,0:0:0:0:
235,92,80829,1,8,0:0:0:0:
146,180,80918,1,8,0:0:0:0:
207,102,81008,1,0,0:0:0:0:
222,74,81188,1,8,0:0:0:0:
171,125,81368,1,0,0:0:0:0:
115,139,81547,1,8,0:0:0:0:
136,111,81637,1,8,0:0:0:0:
201,29,81727,1,0,0:0:0:0:
161,37,81817,1,0,0:0:0:0:
185,125,81906,1,8,0:0:0:0:
162,121,82086,1,0,0:0:0:0:
189,97,82266,1,8,0:0:0:0:
220,117,82356,1,0,0:0:0:0:
185,122,82445,1,8,0:0:0:0:
150,125,82535,1,8,0:0:0:0:
192,160,82625,1,8,0:0:0:0:
158,149,82715,1,8,0:0:0:0:
259,193,82805,1,0,0:0:0:0:
162,78,82984,1,0,0:0:0:0:
186,148,83164,1,8,0:0:0:0:
261,57,83433,1,8,0:0:0:0:
186,141,83523,1,0,0:0:0:0:
188,128,83703,1,0,0:0:0:0:
171,150,83793,1,0,0:0:0:0:
151,88,83883,1,8,0:0:0:0:
166,98,84062,1,8,0:0:0:0:
113,87,84242,1,0,0:0:0:0:
113,87,84421,1,8,0:0:0:0:
155,124,84601,1,0,0:0:0:0:
124,141,84691,1,8,0:0:0:0:
187,76,84871,1,0,0:0:0:0:
204,113,84960,1,8,0:0:0:0:
189,87,85050,1,8,0:0:0:0:
147,104,85140,1,0,0:0:0:0:
211,166,85230,1,8,0:0:0:0:
201,85,85320,1,0,0:0:0:0:
177,85,85409,1,0,0:0:0:0:
211,166,85499,1,8,0:0:0:0:
256,192,85679,12,0,87475,0:0:0:0:
