osu file format v14

[General]
AudioFilename: audio.mp3
AudioLeadIn: 0
PreviewTime: 47962
Countdown: 0
SampleSet: Soft
StackLeniency: 0.7
Mode: 0
LetterboxInBreaks: 0
WidescreenStoryboard: 1

[Editor]
Bookmarks: 12407,21296,39073,47962,65740,74629,83518,92407,110185,119073,130185,139073,147962,155740,165740
DistanceSpacing: 1.2
BeatDivisor: 6
GridSize: 8
TimelineZoom: 3.000639

[Metadata]
Title:Yowanehaki feat. Wanuka, asmi
TitleUnicode:ヨワネハキ feat. 和ぬか, asmi
Artist:MAISONdes
ArtistUnicode:MAISONdes
Creator:Mixagji
Version:Normal
Source:
Tags:jpop j-pop japanese pop
BeatmapID:3283460
BeatmapSetID:1599643

[Difficulty]
HPDrainRate:4
CircleSize:3.4
OverallDifficulty:4.5
ApproachRate:6.5
SliderMultiplier:1.8
SliderTickRate:1

[Events]
//Background and Video events
0,0,"20210816-ys-155901-1408x793.jpg",0,0
Video,0,"videoplayback (1)_x264.mp4"
//Break Periods
2,130477,138191
//Storyboard Layer 0 (Background)
//Storyboard Layer 1 (Fail)
//Storyboard Layer 2 (Pass)
//Storyboard Layer 3 (Foreground)
//Storyboard Layer 4 (Overlay)
//Storyboard Sound Samples

[TimingPoints]
3611,555.555555555556,4,2,1,40,1,0
11944,-100,4,2,1,50,0,0
12499,-100,4,2,1,60,0,0
48055,-100,4,2,1,70,0,1
55833,-100,4,2,1,70,0,0
56944,-100,4,2,1,70,0,1
64722,-100,4,2,1,50,0,0
65833,-100,4,2,1,50,0,0
73611,-100,4,2,1,60,0,0
92499,-100,4,2,1,70,0,1
100277,-100,4,2,1,70,0,0
101388,-100,4,2,1,70,0,1
109166,-100,4,2,1,70,0,0
119166,-100,4,2,1,60,0,0
125833,-100,4,2,1,70,0,0
128055,-100,4,2,1,40,0,0
133333,-100,4,2,1,50,0,0
134722,-100,4,2,1,50,0,0
138888,-100,4,2,1,60,0,0
139166,-100,4,2,1,70,0,1
146944,-100,4,2,1,70,0,0
148055,-100,4,2,1,50,0,0
155833,-100,4,2,1,70,0,0
156944,-100,4,2,1,60,0,0
165833,-100,4,2,1,20,0,0
166111,-100,4,2,1,10,0,0

[Colours]
Combo1 : 255,255,128
Combo2 : 128,255,128
Combo3 : 128,255,255
Combo4 : 255,128,192
Combo5 : 255,128,64
Combo6 : 128,0,255

[HitObjects]
98,139,3610,6,0,L|80:243,1,90,0|0,0:0|0:0,0:0:0:0:
187,198,4166,1,8,0:0:0:0:
210,92,4444,1,0,0:0:0:0:
124,25,4722,2,0,L|30:28,2,90,2|2|8,0:0|0:0|0:0,0:0:0:0:
231,18,5555,1,0,0:0:0:0:
337,38,5833,6,0,L|431:35,1,90,2|0,0:0|0:0,0:0:0:0:
482,127,6388,1,8,0:0:0:0:
373,125,6666,1,2,0:0:0:0:
345,229,6944,2,0,L|442:222,1,90,2|2,0:0|0:0,0:0:0:0:
478,321,7499,1,8,0:0:0:0:
369,321,7777,1,2,0:0:0:0:
266,354,8055,6,0,P|244:314|250:266,1,90,2|2,0:0|0:0,0:0:0:0:
286,169,8611,2,0,P|297:121|283:75,1,90,8|2,0:0|0:0,0:0:0:0:
191,32,9166,2,0,L|96:23,2,90,2|2|8,0:0|0:0|0:0,0:0:0:0:
135,124,9999,2,0,L|69:116,1,60
65,152,10277,6,0,B|93:192|93:192|92:241,1,90,2|0,0:0|0:0,0:0:0:0:
192,275,10833,2,0,B|167:319|167:319|122:342,1,90,2|0,0:0|0:0,0:0:0:0:
26,311,11388,1,2,0:0:0:0:
207,194,11944,6,0,P|235:203|263:242,1,60,2|0,0:0|0:0,0:0:0:0:
272,256,12222,1,8,0:1:0:0:
325,349,12499,6,0,P|374:271|346:189,1,180,12|8,0:1|0:0,0:0:0:0:
266,122,13333,1,2,0:0:0:0:
305,21,13611,2,0,P|346:8|394:12,1,90,8|2,0:1|0:0,0:0:0:0:
490,57,14166,1,8,0:0:0:0:
490,165,14444,2,0,P|490:192|477:232,1,60,2|0,0:0|0:0,0:0:0:0:
474,259,14722,6,0,L|470:350,1,90,8|2,0:1|0:0,0:0:0:0:
363,365,15277,2,0,L|367:274,1,90,8|2,0:0|0:0,0:0:0:0:
287,201,15833,1,8,0:1:0:0:
179,187,16111,1,2,0:0:0:0:
166,293,16388,1,8,0:0:0:0:
274,307,16666,1,8,0:1:0:0:
366,275,16944,6,0,L|370:184,1,90,8|2,0:1|0:0,0:0:0:0:
377,77,17499,1,8,0:0:0:0:
484,83,17777,1,2,0:0:0:0:
417,168,18055,2,0,P|369:176|327:161,1,90,8|2,0:1|0:0,0:0:0:0:
271,72,18611,1,8,0:0:0:0:
163,68,18888,2,0,P|128:70|100:87,1,60,2|0,0:0|0:0,0:0:0:0:
89,113,19166,6,0,P|118:141|168:156,1,90,8|2,0:1|0:0,0:0:0:0:
232,240,19722,2,0,P|222:283|188:318,1,90,8|2,0:0|0:0,0:0:0:0:
93,359,20277,1,8,0:1:0:0:
26,274,20555,1,2,0:0:0:0:
132,258,20833,1,8,0:0:0:0:
93,359,21111,1,8,0:1:0:0:
26,274,21388,6,0,L|42:93,1,180,4|8,0:0|0:0,0:0:0:0:
124,24,22222,1,2,0:0:0:0:
214,81,22499,2,0,P|185:116|138:130,2,90,8|2|8,0:1|0:0|0:0,0:0:0:0:
311,33,23333,1,8,0:1:0:0:
340,137,23611,6,0,P|341:184|322:226,1,90,8|2,0:1|0:0,0:0:0:0:
253,304,24166,1,8,0:0:0:0:
344,360,24444,1,2,0:0:0:0:
451,353,24722,2,0,P|491:274|476:187,1,180,8|8,0:1|0:0,0:0:0:0:
413,98,25555,1,8,0:1:0:0:
330,167,25833,6,0,P|286:162|267:121,1,90,2|2,0:0|0:0,0:0:0:0:
293,19,26388,2,0,P|337:7|383:18,1,90,8|2,0:0|0:0,0:0:0:0:
485,41,26944,1,8,0:1:0:0:
490,148,27222,1,2,0:0:0:0:
497,255,27499,1,8,0:0:0:0:
401,305,27777,2,0,P|371:316|340:308,1,60,2|0,0:0|0:0,0:0:0:0:
314,290,28055,6,0,P|228:263|132:274,1,180,8|8,0:1|0:0,0:0:0:0:
56,340,28888,1,2,0:0:0:0:
159,369,29166,2,0,P|212:287|193:200,1,180,8|8,0:1|0:0,0:0:0:0:
124,131,29999,1,8,0:1:0:0:
194,48,30277,6,0,P|265:98|296:205,1,180,4|8,0:0|0:0,0:0:0:0:
288,290,31111,1,2,0:0:0:0:
369,360,31388,2,0,L|471:350,2,90,8|2|8,0:1|0:0|0:0,0:0:0:0:
396,255,32222,1,8,0:1:0:0:
313,185,32499,6,0,L|127:191,1,180,8|8,0:1|0:0,0:0:0:0:
24,192,33333,1,2,0:0:0:0:
26,83,33611,2,0,P|51:45|94:29,1,90,8|2,0:1|0:0,0:0:0:0:
198,43,34166,1,8,0:0:0:0:
300,76,34444,1,8,0:1:0:0:
397,122,34722,6,0,P|441:130|481:98,1,90,2|2,0:0|0:0,0:0:0:0:
407,22,35277,2,0,P|363:14|323:46,1,90,8|2,0:0|0:0,0:0:0:0:
235,96,35833,1,8,0:1:0:0:
218,202,36111,1,2,0:0:0:0:
203,308,36388,1,8,0:0:0:0:
413,357,36944,6,0,P|470:288|473:185,1,180,8|8,0:1|0:0,0:0:0:0:
425,105,37777,1,2,0:0:0:0:
321,72,38055,2,0,L|304:167,1,90,8|2,0:1|0:1,0:0:0:0:
204,202,38611,2,0,L|187:297,1,90,8|10,0:0|0:1,0:0:0:0:
272,357,39166,6,0,B|358:323|358:323|293:264,1,180,4|8,0:3|1:2,0:0:0:0:
204,202,39999,1,0,0:0:0:0:
113,143,40277,2,0,L|35:87,2,90,2|8|8,1:3|0:1|1:2,0:0:0:0:
293,262,41388,6,0,P|348:211|339:110,1,180,4|8,0:3|0:1,0:0:0:0:
280,24,42222,1,2,0:0:0:0:
172,18,42499,2,0,P|144:47|171:99,1,90,8|8,0:1|0:1,0:0:0:0:
258,130,43055,2,0,L|360:118,1,90,2|2,0:3|0:1,0:0:0:0:
418,37,43611,6,0,P|451:124|476:222,1,180,4|0,0:3|1:0,0:0:0:0:
458,315,44444,1,8,0:1:0:0:
351,299,44722,2,0,P|339:253|374:229,1,90,8|8,1:2|0:1,0:0:0:0:
473,207,45277,2,0,P|469:301|429:380,1,180,8|4,1:2|0:3,0:0:0:0:
322,375,46111,5,2,0:3:0:0:
225,327,46388,2,0,P|205:285|206:243,1,90,8|2,0:1|0:3,0:0:0:0:
149,149,46944,1,0,1:0:0:0:
241,93,47222,1,0,1:0:0:0:
333,38,47499,1,2,0:1:0:0:
119,6,48055,6,0,B|73:9|73:9|23:72|57:134,2,180,4|8|8,1:0|0:0|0:1,0:0:0:0:
201,76,49444,1,2,0:3:0:0:
171,179,49722,1,8,0:0:0:0:
32,340,50277,6,0,L|109:331,1,60,8|0,0:1|0:0,0:0:0:0:
127,330,50555,1,2,0:3:0:0:
232,354,50833,2,0,L|341:345,1,90,8|8,0:0|0:1,0:0:0:0:
429,338,51388,1,8,0:1:0:0:
479,242,51666,1,2,0:3:0:0:
410,158,51944,1,8,0:0:0:0:
224,267,52499,5,4,0:0:0:0:
201,161,52777,1,2,0:3:0:0:
254,66,53055,2,0,P|294:42|340:42,1,90,8|2,0:0|0:3,0:0:0:0:
442,17,53611,2,0,P|465:36|476:70,1,60,8|0,0:1|0:0,0:0:0:0:
483,98,53888,1,2,0:3:0:0:
383,139,54166,1,0,0:0:0:0:
278,167,54444,1,2,0:1:0:0:
230,264,54722,6,0,P|273:278|322:265,1,90,8|0,0:0|0:0,0:0:0:0:
414,224,55277,2,0,P|436:262|451:320,1,90,8|0,0:0|0:0,0:0:0:0:
361,367,55833,1,8,1:0:0:0:
254,347,56111,1,8,1:0:0:0:
148,327,56388,1,8,0:0:0:0:
44,359,56666,1,8,0:0:0:0:
27,252,56944,6,0,P|26:161|67:81,2,180,4|8|8,0:0|0:0|0:1,0:0:0:0:
131,280,58333,1,2,0:3:0:0:
233,246,58611,1,8,0:0:0:0:
273,35,59166,6,0,L|369:30,1,90,8|2,0:1|0:3,0:0:0:0:
471,26,59722,1,8,0:0:0:0:
461,133,59999,1,2,0:3:0:0:
447,240,60277,2,0,L|441:308,1,60,0|0,1:0|0:0,0:0:0:0:
438,335,60555,1,8,0:1:0:0:
339,291,60833,2,2,P|338:217|331:163,1,120,2|2,0:1|0:1,0:1:0:0:
288,114,61388,6,0,B|240:108|240:108|211:140,1,90,4|2,0:0|0:3,0:0:0:0:
226,246,61944,2,0,L|238:348,1,90,8|2,0:0|0:3,0:0:0:0:
339,369,62499,1,8,0:1:0:0:
446,360,62777,1,2,0:3:0:0:
435,252,63055,1,8,0:0:0:0:
328,261,63333,1,2,0:1:0:0:
220,268,63611,6,0,L|146:275,1,60,8|0,0:1|0:0,0:0:0:0:
124,275,63888,1,2,0:3:0:0:
31,331,64166,2,0,P|16:289|23:241,1,90,8|2,0:0|0:3,0:0:0:0:
64,141,64722,2,0,P|55:97|31:60,2,90,8|8|8,1:0|1:0|0:0,0:0:0:0:
169,166,65555,2,0,P|203:157|221:136,1,60,8|0,0:0|0:0,0:0:0:0:
238,109,65833,6,0,B|266:72|237:21|189:8|126:21,1,180,8|8,1:0|0:0,0:0:0:0:
30,59,66666,1,2,0:0:0:0:
26,167,66944,2,0,B|37:222|91:216|90:205|150:213|155:278,1,180,8|8,0:1|0:0,0:0:0:0:
107,367,67777,1,8,0:1:0:0:
215,368,68055,6,0,P|306:355|374:298,1,180,8|8,0:1|0:0,0:0:0:0:
428,208,68888,1,2,0:0:0:0:
473,305,69166,2,0,B|474:349|474:349|422:362,1,90,8|0,1:0|1:0,0:0:0:0:
327,323,69722,1,8,0:0:0:0:
284,223,69999,1,8,1:0:0:0:
324,122,70277,6,0,B|352:74|395:54|458:57|452:134,1,180,8|8,0:1|0:0,0:0:0:0:
393,211,71111,1,2,0:0:0:0:
284,223,71388,2,0,P|195:204|146:129,1,180,8|8,0:1|0:0,0:0:0:0:
141,25,72222,1,8,0:1:0:0:
234,79,72499,6,0,B|276:183|129:224|177:327,1,270,8|0,0:1|0:0,0:0:0:0:
282,354,73611,1,8,1:0:0:0:
382,314,73888,1,8,1:0:0:0:
296,247,74166,1,8,0:0:0:0:
282,354,74444,1,8,0:0:0:0:
382,314,74722,6,0,P|403:273|401:223,1,90,8|2,0:1|0:0,0:0:0:0:
442,129,75277,2,0,P|428:84|390:75,1,90,8|2,0:0|0:0,0:0:0:0:
294,24,75833,1,8,0:1:0:0:
227,109,76111,1,2,0:0:0:0:
304,183,76388,1,8,0:0:0:0:
273,286,76666,2,0,P|259:319|238:337,1,60,2|0,0:0|0:0,0:0:0:0:
205,341,76944,6,0,P|160:338|119:317,1,90,8|2,0:1|0:0,0:0:0:0:
48,237,77499,2,0,P|38:189|54:140,1,90,8|2,0:0|0:0,0:0:0:0:
113,60,78055,1,8,1:0:0:0:
219,41,78333,1,8,0:1:0:0:
262,139,78611,1,8,0:0:0:0:
368,120,78889,1,8,1:0:0:0:
394,15,79166,6,0,P|348:18|304:48,1,90,8|2,0:1|0:0,0:0:0:0:
262,139,79722,2,0,L|269:232,1,90,8|2,0:0|0:0,0:0:0:0:
269,336,80277,1,8,0:1:0:0:
376,341,80555,1,2,0:0:0:0:
484,344,80833,1,8,0:0:0:0:
452,240,81111,2,0,P|420:236|396:212,1,60,2|0,0:0|0:0,0:0:0:0:
373,194,81388,6,0,P|323:191|281:207,1,90,8|2,0:1|0:0,0:0:0:0:
192,149,81944,2,0,P|105:182|59:264,1,180,8|8,0:0|1:0,0:0:0:0:
40,359,82777,1,2,0:1:0:0:
146,343,83055,2,0,P|187:321|214:282,1,90,8|2,1:0|0:1,0:0:0:0:
317,259,83611,6,0,B|410:254|410:254|379:342,1,180,4|8,0:3|1:2,0:0:0:0:
278,371,84444,1,8,0:1:0:0:
212,286,84722,2,0,P|189:197|225:117,1,180,8|8,1:2|1:2,0:0:0:0:
420,33,85833,6,0,P|470:90|395:121,1,180,4|8,0:3|0:0,0:0:0:0:
313,55,86666,1,2,0:0:0:0:
209,24,86944,2,0,P|165:27|130:57,1,90,8|8,0:0|0:1,0:0:0:0:
85,153,87499,2,0,L|120:244,1,90,0|2,0:0|0:0,0:0:0:0:
181,325,88055,6,0,B|165:274|165:274|54:341,1,180,4|8,0:3|1:2,0:0:0:0:
12,234,88888,1,0,0:0:0:0:
67,142,89166,2,0,L|155:158,2,90,8|8|8,1:2|0:1|1:2,0:0:0:0:
69,33,89999,1,0,0:0:0:0:
176,21,90277,6,0,B|214:17|214:17|255:75|242:154,1,180,4|8,0:3|0:0,0:0:0:0:
215,257,91111,1,2,0:0:0:0:
187,361,91388,1,8,0:0:0:0:
294,349,91666,1,8,0:0:0:0:
400,330,91944,1,8,0:3:0:0:
474,127,92499,6,0,B|459:225|459:225|383:182,2,180,4|8|2,0:0|0:0|0:0,0:0:0:0:
396,52,93888,1,2,0:3:0:0:
307,114,94166,1,8,0:0:0:0:
325,329,94722,6,0,L|259:326,1,60,8|0,0:1|0:0,0:0:0:0:
229,323,94999,1,2,0:3:0:0:
132,370,95277,2,0,P|109:338|110:282,1,90,8|2,0:0|0:3,0:0:0:0:
28,214,95833,1,8,0:1:0:0:
118,155,96111,1,8,0:1:0:0:
224,173,96388,1,4,0:0:0:0:
32,71,96944,6,0,L|127:52,1,90,0|8,0:0|0:0,0:0:0:0:
220,94,97499,1,8,0:0:0:0:
244,199,97777,1,0,0:0:0:0:
270,303,98055,2,0,P|304:311|341:307,1,60,8|0,0:1|0:0,0:0:0:0:
364,305,98333,1,2,0:3:0:0:
468,275,98611,1,0,0:0:0:0:
486,169,98888,1,2,0:1:0:0:
397,107,99166,6,0,P|369:71|358:23,1,90,8|2,0:1|0:3,0:0:0:0:
258,72,99722,2,0,P|216:90|171:76,1,90,8|2,0:0|0:3,0:0:0:0:
80,25,100277,1,8,1:0:0:0:
23,117,100555,1,8,1:0:0:0:
94,198,100833,1,8,0:0:0:0:
37,290,101111,1,8,0:0:0:0:
104,373,101388,6,0,P|190:341|221:258,2,180,4|8|8,0:0|0:0|0:1,0:0:0:0:
114,265,102777,1,0,0:0:0:0:
191,189,103055,2,0,P|237:183|278:205,1,90,8|2,0:0|0:1,0:0:0:0:
343,286,103611,6,0,L|326:378,1,90,8|8,0:1|0:0,0:0:0:0:
431,349,104166,1,8,0:0:0:0:
487,256,104444,1,0,0:0:0:0:
436,160,104722,2,0,L|364:149,1,60,8|0,0:1|0:0,0:0:0:0:
341,145,104999,1,8,0:0:0:0:
233,156,105277,2,0,P|161:147|122:113,1,120
118,46,105833,6,0,P|68:41|30:65,1,90,4|2,0:0|0:3,0:0:0:0:
13,165,106388,2,0,P|34:198|40:265,1,90,8|2,0:0|0:3,0:0:0:0:
142,289,106944,2,0,P|129:329|131:383,2,90,8|8|8,0:1|0:1|0:0,0:0:0:0:
118,183,107777,1,2,0:1:0:0:
222,211,108055,6,0,P|255:211|289:199,1,60,8|2,0:1|0:3,0:0:0:0:
314,189,108333,1,2,0:3:0:0:
405,131,108611,2,0,P|433:94|417:55,1,90,8|2,0:0|0:3,0:0:0:0:
314,28,109166,2,0,B|268:22|268:22|243:57,2,90,8|8|8,1:0|1:0|0:0,0:0:0:0:
314,136,109999,1,8,0:0:0:0:
238,213,110277,6,0,P|147:225|65:189,1,180,2|8,0:1|0:0,0:0:0:0:
45,297,111111,2,0,P|133:310|206:371,1,180,2|8,0:1|0:0,0:0:0:0:
310,360,111944,2,0,P|371:338|360:275,1,120
390,221,112499,6,0,P|316:159|229:131,1,180,8|8,0:3|0:0,0:0:0:0:
130,122,113333,1,2,0:1:0:0:
61,38,113611,2,0,L|158:27,2,90,8|4|8,0:3|0:3|0:0,0:0:0:0:
24,139,114444,2,0,L|22:202,1,60,8|0,0:1|0:0,0:0:0:0:
16,234,114722,6,0,L|109:221,1,90,10|2,0:1|0:3,0:0:0:0:
212,204,115277,1,10,0:1:0:0:
413,282,115833,2,0,L|319:304,1,90,10|2,0:1|0:3,0:0:0:0:
221,328,116388,1,10,0:1:0:0:
296,125,116944,6,0,B|330:154|329:214|329:214|431:187|382:69,1,270,8|8,0:1|0:3,0:0:0:0:
291,26,118055,1,8,1:0:0:0:
182,26,118333,1,8,1:0:0:0:
160,131,118611,1,4,1:3:0:0:
51,131,118889,1,4,1:3:0:0:
57,238,119166,6,0,P|149:247|244:229,1,180,4|8,0:3|0:0,0:0:0:0:
450,250,120277,2,0,P|390:318|301:353,1,180,8|8,0:1|0:0,0:0:0:0:
200,350,121111,1,0,0:0:0:0:
104,301,121388,6,0,P|125:213|283:219,1,270,10|0,0:1|0:0,0:0:0:0:
376,167,122499,2,0,P|397:69|257:57,1,270,10|2,0:1|0:1,0:0:0:0:
168,107,123611,6,0,P|133:129|93:103,1,90,10|2,0:1|0:3,0:0:0:0:
46,9,124166,1,8,0:0:0:0:
10,111,124444,1,2,0:1:0:0:
61,205,124722,2,0,P|147:249|244:233,1,180,8|8,0:1|0:0,0:0:0:0:
331,211,125555,1,2,0:1:0:0:
399,127,125833,6,0,P|400:83|384:40,2,90,4|8|8,0:0|0:0|0:0,0:0:0:0:
415,233,126666,2,0,P|402:267|378:292,1,60,2|0,0:1|0:0,0:0:0:0:
381,320,126944,2,0,P|422:333|467:319,2,90,0|8|8,0:0|0:0|0:0,0:0:0:0:
279,294,127777,1,2,0:1:0:0:
256,192,128055,12,0,130277,0:0:0:0:
485,252,139166,6,0,P|486:161|445:81,2,180,4|8|2,1:0|0:0|0:0,0:0:0:0:
396,313,140555,1,0,0:0:0:0:
320,235,140833,1,8,0:0:0:0:
239,35,141388,6,0,L|143:30,1,90,8|2,0:1|0:3,0:0:0:0:
41,26,141944,1,8,0:0:0:0:
51,133,142221,1,2,0:3:0:0:
62,240,142499,2,0,L|69:304,1,60,0|0,1:0|0:0,0:0:0:0:
73,335,142777,1,8,0:1:0:0:
180,321,143055,2,0,L|192:221,1,90,8|8,0:0|0:1,0:0:0:0:
212,126,143610,6,0,B|258:106|258:106|286:144,1,90,4|2,0:0|0:3,0:0:0:0:
286,246,144166,2,0,L|274:348,1,90,8|2,0:0|0:3,0:0:0:0:
173,369,144721,1,8,0:0:0:0:
66,360,144999,1,2,0:3:0:0:
77,252,145277,1,8,0:0:0:0:
184,261,145555,1,2,0:3:0:0:
292,268,145833,6,0,L|381:275,1,90,0|8,0:0|0:0,0:0:0:0:
475,330,146388,2,0,P|484:298|484:270,1,60,8|0,0:1|0:0,0:0:0:0:
474,236,146666,1,2,0:3:0:0:
443,132,146944,2,0,P|452:88|476:51,2,90,8|8|8,1:0|1:0|0:0,0:0:0:0:
350,185,147777,1,8,0:0:0:0:
274,109,148055,6,0,B|246:72|275:21|323:8|386:21,1,180,4|8,0:3|0:0,0:0:0:0:
482,59,148888,1,2,0:0:0:0:
486,167,149166,2,0,B|475:222|421:216|422:205|362:213|357:278,1,180,8|8,0:1|0:0,0:0:0:0:
405,367,149999,1,8,0:1:0:0:
297,368,150277,6,0,P|206:355|138:298,1,180,8|8,0:1|0:0,0:0:0:0:
84,208,151110,1,2,0:0:0:0:
39,305,151388,2,0,B|38:349|38:349|90:362,1,90,8|8,0:1|0:1,0:0:0:0:
185,323,151944,1,8,0:0:0:0:
228,223,152221,1,8,0:1:0:0:
188,122,152499,6,0,B|160:74|117:54|54:57|60:134,1,180,8|8,0:1|0:0,0:0:0:0:
119,211,153333,1,2,0:0:0:0:
228,223,153610,2,0,P|317:204|366:129,1,180,8|8,0:1|0:0,0:0:0:0:
371,25,154444,1,8,0:1:0:0:
278,79,154721,6,0,B|236:183|383:224|335:327,1,270,8|0,0:1|0:0,0:0:0:0:
230,354,155833,1,8,1:0:0:0:
130,314,156110,1,8,1:0:0:0:
216,247,156388,1,8,0:0:0:0:
230,354,156666,1,8,0:0:0:0:
130,314,156944,6,0,B|62:274|73:207|103:171|149:178,1,180,8|8,0:1|0:0,0:0:0:0:
216,247,157777,1,2,0:3:0:0:
286,165,158055,2,0,B|345:156|375:202|361:206|384:256|448:240,1,180,8|8,0:1|0:0,0:0:0:0:
493,150,158888,1,2,0:3:0:0:
459,47,159166,6,0,P|368:28|289:69,1,180,8|8,0:1|0:0,0:0:0:0:
185,76,159999,1,2,0:3:0:0:
80,46,160277,2,0,P|19:80|91:130,1,180,8|8,0:1|0:0,0:0:0:0:
184,168,161111,1,2,0:3:0:0:
268,234,161388,6,0,B|237:283|164:305|127:288|131:238,1,180,4|8,0:0|0:0,0:0:0:0:
26,213,162222,1,2,0:3:0:0:
53,317,162499,2,0,P|126:372|220:373,1,180,8|8,0:1|0:0,0:0:0:0:
318,357,163333,1,2,0:3:0:0:
377,266,163611,6,0,B|344:222|369:141|369:141|298:192|298:192|274:119|274:119|263:149|216:154,1,360,10|2,0:0|0:1,0:0:0:0:
114,161,164999,1,2,0:1:0:0:
79,58,165277,2,0,B|105:63|105:63|64:68|30:88,1,90,2|2,1:0|1:0,0:0:0:0:
33,188,165833,6,0,P|16:223|57:220,1,90,2|2,0:3|0:3,0:0:0:0:
