osu file format v14

[General]
AudioFilename: audio.mp3
AudioLeadIn: 0
PreviewTime: 47962
Countdown: 0
SampleSet: Soft
StackLeniency: 0.7
Mode: 0
LetterboxInBreaks: 0
WidescreenStoryboard: 1

[Editor]
Bookmarks: 12407,21296,39073,47962,65740,74629,83518,92407,110185,119073,130185,139073,147962,155740,165740
DistanceSpacing: 0.9
BeatDivisor: 6
GridSize: 8
TimelineZoom: 3.000639

[Metadata]
Title:Yowanehaki feat. Wanuka, asmi
TitleUnicode:ヨワネハキ feat. 和ぬか, asmi
Artist:MAISONdes
ArtistUnicode:MAISONdes
Creator:Mixagji
Version:Insane
Source:
Tags:jpop j-pop japanese pop
BeatmapID:3267068
BeatmapSetID:1599643

[Difficulty]
HPDrainRate:5
CircleSize:4
OverallDifficulty:8.2
ApproachRate:9.2
SliderMultiplier:2.5
SliderTickRate:1

[Events]
//Background and Video events
0,0,"20210816-ys-155901-1408x793.jpg",0,0
Video,0,"videoplayback (1)_x264.mp4"
//Break Periods
//Storyboard Layer 0 (Background)
//Storyboard Layer 1 (Fail)
//Storyboard Layer 2 (Pass)
//Storyboard Layer 3 (Foreground)
//Storyboard Layer 4 (Overlay)
//Storyboard Sound Samples

[TimingPoints]
3611,555.555555555556,4,2,1,40,1,0
11944,-100,4,2,1,50,0,0
12499,-100,4,2,1,60,0,0
38055,-80,4,2,1,60,0,0
38333,-100,4,2,1,60,0,0
38611,-80,4,2,1,60,0,0
38888,-100,4,2,1,60,0,0
40277,-66.6666666666667,4,2,1,60,0,0
40555,-100,4,2,1,60,0,0
40833,-66.6666666666667,4,2,1,60,0,0
42499,-100,4,2,1,60,0,0
44722,-66.6666666666667,4,2,1,60,0,0
44999,-100,4,2,1,60,0,0
45277,-66.6666666666667,4,2,1,60,0,0
47499,-50,4,2,1,60,0,0
48055,-66.6666666666667,4,2,1,70,0,1
50277,-100,4,2,1,70,0,1
51944,-50,4,2,1,70,0,1
52222,-100,4,2,1,70,0,1
52499,-66.6666666666667,4,2,1,70,0,1
52777,-100,4,2,1,70,0,1
53055,-66.6666666666667,4,2,1,70,0,1
54999,-100,4,2,1,70,0,1
55277,-66.6666666666667,4,2,1,70,0,1
55555,-100,4,2,1,70,0,1
55833,-50,4,2,1,70,0,0
56944,-50,4,2,1,70,0,1
57499,-66.6666666666667,4,2,1,70,0,1
58888,-50,4,2,1,70,0,1
59444,-66.6666666666667,4,2,1,70,0,1
59722,-50,4,2,1,70,0,1
59999,-66.6666666666667,4,2,1,70,0,1
63333,-50,4,2,1,70,0,1
64444,-66.6666666666667,4,2,1,70,0,1
64722,-50,4,2,1,50,0,0
65833,-100,4,2,1,50,0,0
69166,-66.6666666666667,4,2,1,50,0,0
69444,-50,4,2,1,50,0,0
70277,-100,4,2,1,50,0,0
73611,-50,4,2,1,60,0,0
74722,-80,4,2,1,60,0,0
78333,-57.1428571428571,4,2,1,60,0,0
79166,-80,4,2,1,60,0,0
82777,-40,4,2,1,60,0,0
83055,-80,4,2,1,60,0,0
83333,-40,4,2,1,60,0,0
83611,-80,4,2,1,60,0,0
84722,-57.1428571428571,4,2,1,60,0,0
84999,-80,4,2,1,60,0,0
89166,-57.1428571428571,4,2,1,60,0,0
89444,-80,4,2,1,60,0,0
89722,-57.1428571428571,4,2,1,60,0,0
90833,-80,4,2,1,60,0,0
91388,-50,4,2,1,60,0,0
92222,-80,4,2,1,60,0,0
92499,-66.6666666666667,4,2,1,70,0,1
94444,-57.1428571428571,4,2,1,70,0,1
94999,-80,4,2,1,70,0,1
96388,-50,4,2,1,70,0,1
96666,-80,4,2,1,70,0,1
97685,-57.1428571428571,4,2,1,70,0,1
98888,-80,4,2,1,70,0,1
99444,-57.1428571428571,4,2,1,70,0,1
99722,-80,4,2,1,70,0,1
99999,-57.1428571428571,4,2,1,70,0,1
100277,-44.4444444444445,4,2,1,70,0,0
100833,-50,4,2,1,70,0,0
101388,-50,4,2,1,70,0,1
101944,-57.1428571428571,4,2,1,70,0,1
103055,-66.6666666666667,4,2,1,70,0,1
103333,-57.1428571428571,4,2,1,70,0,1
103888,-80,4,2,1,70,0,1
104166,-57.1428571428571,4,2,1,70,0,1
104444,-80,4,2,1,70,0,1
105833,-57.1428571428571,4,2,1,70,0,1
106111,-80,4,2,1,70,0,1
106388,-57.1428571428571,4,2,1,70,0,1
106666,-80,4,2,1,70,0,1
108055,-57.1428571428571,4,2,1,70,0,1
108333,-80,4,2,1,70,0,1
108611,-57.1428571428571,4,2,1,70,0,1
108888,-80,4,2,1,70,0,1
109166,-50,4,2,1,70,0,0
110277,-50,4,2,1,70,0,0
110833,-66.6666666666667,4,2,1,70,0,0
111111,-50,4,2,1,70,0,0
112499,-66.6666666666667,4,2,1,70,0,0
113611,-50,4,2,1,70,0,0
118055,-40,4,2,1,70,0,0
118611,-33.3333333333333,4,2,1,70,0,0
119166,-66.6666666666667,4,2,1,60,0,0
125833,-50,4,2,1,70,0,0
127499,-40,4,2,1,70,0,0
128055,-133.333333333333,4,2,1,40,0,0
133333,-80,4,2,1,50,0,0
138888,-57.1428571428571,4,2,1,60,0,0
139166,-44.4444444444445,4,2,1,70,0,1
140277,-57.1428571428571,4,2,1,70,0,1
141111,-50,4,2,1,70,0,1
141388,-80,4,2,1,70,0,1
143055,-44.4444444444445,4,2,1,70,0,1
143333,-80,4,2,1,70,0,1
143611,-57.1428571428571,4,2,1,70,0,1
146111,-80,4,2,1,70,0,1
146388,-57.1428571428571,4,2,1,70,0,1
146666,-80,4,2,1,70,0,1
146944,-44.4444444444445,4,2,1,70,0,0
148055,-80,4,2,1,50,0,0
150277,-57.1428571428571,4,2,1,50,0,0
151666,-80,4,2,1,50,0,0
151944,-57.1428571428571,4,2,1,50,0,0
152222,-80,4,2,1,50,0,0
155833,-57.1428571428571,4,2,1,70,0,0
156388,-44.4444444444445,4,2,1,70,0,0
156944,-66.6666666666667,4,2,1,60,0,0
157777,-80,4,2,1,60,0,0
158055,-66.6666666666667,4,2,1,60,0,0
160277,-50,4,2,1,60,0,0
161388,-66.6666666666667,4,2,1,60,0,0
164722,-50,4,2,1,60,0,0
165277,-40,4,2,1,60,0,0
165833,-200,4,2,1,20,0,0
166111,-200,4,2,1,10,0,0

[Colours]
Combo1 : 255,255,128
Combo2 : 128,255,128
Combo3 : 128,255,255
Combo4 : 255,128,192
Combo5 : 255,128,64
Combo6 : 128,0,255

[HitObjects]
407,313,3610,6,0,P|369:338|323:339,1,83.3333333333333,0|0,0:0|0:0,0:0:0:0:
302,356,3888,2,0,P|257:353|222:330,1,83.3333333333333,2|0,0:0|0:0,0:0:0:0:
191,334,4166,1,8,0:0:0:0:
94,238,4444,1,0,0:0:0:0:
407,313,4722,6,0,P|361:307|325:278,1,83.3333333333333,2|0,0:0|0:0,0:0:0:0:
283,270,5000,2,0,P|250:238|238:198,1,83.3333333333333,2|0,0:0|0:0,0:0:0:0:
198,173,5278,1,8,0:0:0:0:
407,313,5555,6,0,P|375:279|366:234,1,83.3333333333333,2|0,0:0|0:0,0:0:0:0:
330,208,5833,2,0,P|328:145|349:80,1,125,2|0,0:0|0:0,0:0:0:0:
473,21,6296,5,0,0:0:0:0:
440,16,6388,2,0,L|355:8,1,83.3333333333333,8|0,0:0|0:0,0:0:0:0:
461,99,6666,2,0,L|376:91,1,83.3333333333333,2|0,0:0|0:0,0:0:0:0:
345,86,6944,5,2,0:0:0:0:
216,45,7129,1,0,0:0:0:0:
247,33,7222,1,2,0:0:0:0:
234,132,7407,1,0,0:0:0:0:
265,142,7499,1,8,0:0:0:0:
211,227,7685,1,0,0:0:0:0:
234,250,7777,1,2,0:0:0:0:
137,286,7962,1,0,0:0:0:0:
164,325,8055,6,0,L|136:246,1,83.3333333333333,2|0,0:0|0:0,0:0:0:0:
118,199,8333,2,0,L|90:120,1,83.3333333333333,2|0,0:0|0:0,0:0:0:0:
58,263,8611,2,0,L|30:184,1,83.3333333333333,8|0,0:0|0:0,0:0:0:0:
12,138,8888,1,2,0:0:0:0:
30,353,9166,6,0,P|72:356|120:327,1,83.3333333333333,2|0,0:0|0:0,0:0:0:0:
158,343,9444,2,0,P|196:320|220:290,1,83.3333333333333,2|0,0:0|0:0,0:0:0:0:
269,280,9722,1,8,0:0:0:0:
30,353,9999,6,0,P|64:328|82:275,1,83.3333333333333,2|0,0:0|0:0,0:0:0:0:
121,262,10277,1,2,0:0:0:0:
127,238,10555,5,0,0:0:0:0:
121,141,10740,1,0,0:0:0:0:
92,122,10833,1,2,0:0:0:0:
68,114,11111,5,0,0:0:0:0:
7,193,11296,1,0,0:0:0:0:
31,215,11388,2,0,P|121:239|222:186,1,208.333333333333,2|0,0:0|0:0,0:0:0:0:
236,159,11944,5,2,0:3:0:0:
151,29,12129,1,2,0:3:0:0:
142,61,12222,1,2,0:3:0:0:
261,73,12407,1,2,0:3:0:0:
268,40,12499,6,0,P|216:17|148:30,1,125,12|2,0:1|0:0,0:0:0:0:
242,156,12962,1,0,0:0:0:0:
270,173,13055,2,0,P|322:196|390:183,1,125,8|2,0:0|0:0,0:0:0:0:
220,301,13518,5,0,0:0:0:0:
252,307,13611,2,0,P|299:306|340:289,1,83.3333333333333,8|0,0:1|0:0,0:0:0:0:
439,267,13888,2,0,P|411:294|391:338,1,83.3333333333333,2|0,0:0|0:0,0:0:0:0:
392,367,14166,1,8,0:0:0:0:
495,144,14444,5,8,0:1:0:0:
426,59,14629,1,0,0:0:0:0:
396,44,14722,2,0,P|322:42|272:81,1,125,8|2,0:1|0:0,0:0:0:0:
118,89,15185,1,0,0:0:0:0:
88,74,15277,2,0,P|114:36|152:31,1,83.3333333333333,8|0,0:0|0:0,0:0:0:0:
181,36,15555,1,2,0:0:0:0:
22,135,15833,5,8,0:1:0:0:
37,36,16018,1,0,0:0:0:0:
67,49,16111,1,2,0:0:0:0:
117,134,16296,1,0,0:0:0:0:
114,167,16388,2,0,P|97:203|58:226,1,83.3333333333333,8|0,0:0|0:0,0:0:0:0:
201,227,16666,2,0,P|219:191|181:184,1,83.3333333333333,8|0,0:1|0:0,0:0:0:0:
78,303,16944,6,0,P|137:289|206:320,1,125,8|2,0:1|0:0,0:0:0:0:
372,243,17407,1,0,0:0:0:0:
404,246,17499,2,0,P|454:274|486:338,1,125,8|2,0:0|0:0,0:0:0:0:
266,228,17962,5,0,0:0:0:0:
277,196,18055,2,0,P|303:154|337:140,1,83.3333333333333,8|0,0:1|0:0,0:0:0:0:
445,112,18333,2,0,P|404:104|373:74,1,83.3333333333333,2|0,0:0|0:0,0:0:0:0:
369,26,18611,1,8,0:0:0:0:
145,123,18888,6,0,P|190:125|222:99,1,83.3333333333333,8|0,0:1|0:0,0:0:0:0:
160,49,19166,2,0,P|103:44|46:83,1,125,8|2,0:1|0:0,0:0:0:0:
37,194,19629,1,0,0:0:0:0:
32,227,19722,2,0,P|68:235|111:210,1,83.3333333333333,8|0,0:0|0:0,0:0:0:0:
156,204,19999,2,0,P|195:192|243:212,1,83.3333333333333,2|0,0:0|0:0,0:0:0:0:
309,205,20277,6,0,P|308:239|273:272,1,83.3333333333333,8|0,0:1|0:0,0:0:0:0:
215,349,20555,2,0,P|169:351|134:325,1,83.3333333333333,2|0,0:0|0:0,0:0:0:0:
63,362,20833,1,8,0:0:0:0:
192,274,21018,1,2,0:0:0:0:
112,241,21111,2,0,L|18:253,1,83.3333333333333,8|0,0:1|0:0,0:0:0:0:
50,276,21388,5,4,0:0:0:0:
201,20,21666,1,2,0:0:0:0:
202,181,21944,1,8,0:0:0:0:
67,114,22222,1,2,0:0:0:0:
411,57,22499,6,0,P|415:98|396:138,1,83.3333333333333,8|0,0:1|0:0,0:0:0:0:
364,133,22777,2,0,P|360:92|379:52,1,83.3333333333333,2|0,0:0|0:0,0:0:0:0:
407,40,23055,1,8,0:0:0:0:
278,272,23333,6,0,P|245:244|233:202,1,83.3333333333333,8|0,0:1|0:0,0:0:0:0:
229,160,23611,1,8,0:1:0:0:
479,313,23888,1,2,0:0:0:0:
224,340,24166,1,8,0:0:0:0:
336,354,24351,1,0,0:0:0:0:
363,335,24444,2,0,P|385:299|387:256,1,83.3333333333333,2|0,0:0|0:0,0:0:0:0:
484,179,24722,6,0,L|393:187,1,83.3333333333333,8|0,0:1|0:0,0:0:0:0:
303,164,24999,2,0,L|394:156,1,83.3333333333333,2|0,0:0|0:0,0:0:0:0:
465,66,25277,2,0,P|465:98|429:82,1,83.3333333333333,8|0,0:0|0:0,0:0:0:0:
290,23,25555,2,0,P|332:10|375:26,1,83.3333333333333,8|0,0:1|0:0,0:0:0:0:
331,84,25833,5,2,0:0:0:0:
154,179,26111,1,2,0:0:0:0:
21,46,26388,1,8,0:0:0:0:
192,24,26666,1,2,0:0:0:0:
258,177,26944,6,0,L|234:269,1,83.3333333333333,8|0,0:1|0:0,0:0:0:0:
183,289,27222,2,0,L|91:265,1,83.3333333333333,2|0,0:0|0:0,0:0:0:0:
50,302,27499,1,8,0:0:0:0:
237,353,27777,6,0,B|202:378|202:378|151:369,1,83.3333333333333,8|0,0:1|0:0,0:0:0:0:
183,289,28055,2,0,P|266:274|319:342,1,166.666666666667,8|0,0:1|0:0,0:0:0:0:
384,299,28518,1,0,0:0:0:0:
391,310,28611,6,0,P|397:351|370:385,1,83.3333333333333,8|0,0:0|0:0,0:0:0:0:
367,382,28888,2,0,P|405:357|444:360,1,83.3333333333333,2|0,0:0|0:0,0:0:0:0:
435,229,29166,6,0,P|467:258|483:300,1,83.3333333333333,8|0,0:1|0:0,0:0:0:0:
394,144,29444,2,0,P|437:136|476:151,1,83.3333333333333,2|0,0:0|0:0,0:0:0:0:
338,206,29722,1,8,0:0:0:0:
321,90,29907,1,0,0:0:0:0:
330,58,29999,2,0,P|352:24|395:8,1,83.3333333333333,8|0,0:1|0:0,0:0:0:0:
401,17,30277,6,0,B|362:38|319:26,1,83.3333333333333,4|0,0:0|0:0,0:0:0:0:
290,11,30555,1,0,0:0:0:0:
192,34,30740,1,0,0:0:0:0:
173,40,30833,1,8,0:0:0:0:
36,87,31111,6,0,P|70:86|96:128,1,83.3333333333333,2|0,0:0|0:0,0:0:0:0:
184,124,31388,2,0,P|182:169|163:207,1,83.3333333333333,8|0,0:1|0:0,0:0:0:0:
14,243,31666,2,0,P|45:211|93:204,1,83.3333333333333,2|0,0:0|0:0,0:0:0:0:
125,276,31944,1,8,0:0:0:0:
160,44,32222,6,0,P|203:44|241:61,1,83.3333333333333,8|0,0:1|0:0,0:0:0:0:
309,29,32499,2,0,P|349:48|401:110,1,125,8|2,0:1|0:0,0:0:0:0:
488,15,32962,1,0,0:0:0:0:
483,48,33055,2,0,L|475:138,1,83.3333333333333,8|0,0:0|0:0,0:0:0:0:
393,190,33333,2,0,L|408:282,1,83.3333333333333,2|0,0:0|0:0,0:0:0:0:
390,301,33611,5,8,0:1:0:0:
475,353,33796,1,0,0:0:0:0:
483,321,33888,1,2,0:0:0:0:
446,207,34073,1,0,0:0:0:0:
430,236,34166,1,8,0:0:0:0:
309,224,34351,1,0,0:0:0:0:
314,257,34444,2,0,L|330:355,1,83.3333333333333,8|0,0:1|0:0,0:0:0:0:
350,363,34722,5,2,0:0:0:0:
212,236,34999,1,2,0:0:0:0:
71,112,35277,1,8,0:0:0:0:
22,293,35555,1,2,0:0:0:0:
199,384,35833,6,0,P|231:354|249:313,1,83.3333333333333,8|0,0:1|0:0,0:0:0:0:
319,252,36111,2,0,P|338:218|342:171,1,83.3333333333333,2|0,0:0|0:0,0:0:0:0:
420,116,36388,1,8,0:0:0:0:
87,183,36666,1,8,0:1:0:0:
111,195,36944,6,0,P|192:178|246:109,1,166.666666666667,8|0,0:1|0:0,0:0:0:0:
325,117,37407,1,0,0:0:0:0:
325,104,37499,2,0,P|312:62|279:44,1,83.3333333333333,8|0,0:0|0:0,0:0:0:0:
170,54,37777,2,0,P|182:85|230:95,1,83.3333333333333,2|0,0:0|0:0,0:0:0:0:
152,39,38055,6,0,P|96:32|52:57,1,104.166666666667,8|0,0:1|0:0,0:0:0:0:
36,141,38333,2,0,L|33:164,4,20.8333333333333,2|0|0|0|0,0:1|0:0|0:0|0:0|0:0,0:0:0:0:
153,40,38611,6,0,P|120:84|120:141,1,104.166666666667,8|0,0:0|0:0,0:0:0:0:
156,211,38888,2,0,L|172:235,4,20.8333333333333,10|0|0|0|0,0:1|0:0|0:0|0:0|0:0,0:0:0:0:
99,260,39166,6,0,P|161:203|276:225,1,208.333333333333,4|0,0:3|0:0,0:0:0:0:
423,179,39722,2,0,P|376:181|340:159,1,83.3333333333333,8|0,1:2|0:0,0:0:0:0:
317,122,39999,2,0,P|295:78|299:43,1,83.3333333333333,0|0,0:0|0:0,0:0:0:0:
453,168,40277,6,0,P|430:230|374:252,1,125.000004768372,2|0,1:3|0:0,0:0:0:0:
286,358,40555,2,0,P|311:329|362:340,1,83.3333333333333,8|0,0:1|0:0,0:0:0:0:
461,351,40833,2,0,P|357:229|221:267,1,312.500011920929,8|0,1:2|0:0,0:0:0:0:
218,287,41388,5,4,0:3:0:0:
46,295,41573,1,0,0:0:0:0:
65,334,41666,1,2,0:0:0:0:
154,201,41851,1,0,0:0:0:0:
113,184,41944,1,8,0:1:0:0:
34,30,42129,1,0,0:0:0:0:
50,70,42222,1,2,0:0:0:0:
234,68,42407,1,0,0:0:0:0:
187,49,42499,6,0,P|174:84|198:130,1,83.3333333333333,8|0,0:1|0:0,0:0:0:0:
269,172,42777,2,0,P|329:187|391:167,1,125,8|2,0:1|0:3,0:0:0:0:
457,114,43148,1,2,0:0:0:0:
461,81,43240,1,0,0:0:0:0:
443,52,43333,2,0,P|405:35|362:45,1,83.3333333333333,2|0,0:1|0:0,0:0:0:0:
234,68,43611,6,0,L|271:277,1,208.333333333333,4|0,0:3|0:0,0:0:0:0:
224,346,44166,2,0,L|136:338,1,83.3333333333333,0|0,1:0|0:0,0:0:0:0:
110,352,44444,2,0,L|22:344,1,83.3333333333333,8|0,0:1|0:0,0:0:0:0:
203,267,44722,6,0,L|328:279,1,125.000004768372,8|0,1:2|0:0,0:0:0:0:
415,225,44999,2,0,P|457:238|475:272,1,83.3333333333333,8|0,0:1|0:0,0:0:0:0:
273,367,45277,2,0,P|282:203|308:50,1,312.500011920929,8|0,1:2|0:0,0:0:0:0:
286,36,45833,5,4,0:3:0:0:
145,143,46018,1,2,0:0:0:0:
158,114,46111,1,2,0:3:0:0:
251,126,46296,1,0,0:0:0:0:
253,156,46388,1,8,0:1:0:0:
348,155,46573,1,2,0:0:0:0:
343,123,46666,1,2,0:3:0:0:
434,99,46851,1,0,0:0:0:0:
440,129,46944,6,0,P|457:190|482:248,1,125.000004768372,0|0,1:0|0:0,0:0:0:0:
368,245,47222,2,0,P|393:303|428:360,1,125.000004768372,0|0,1:0|0:0,0:0:0:0:
436,363,47499,6,2,P|348:313|218:118,1,333.333333333333,2|2,0:1|0:1,0:0:0:0:
278,24,47962,1,0,0:0:0:0:
283,36,48055,6,0,P|270:161|135:288,1,312.500011920929,4|0,1:0|0:0,0:0:0:0:
56,229,48611,2,0,B|95:187|148:175|148:175|253:208|243:339,1,312.500011920929,8|0,0:0|0:0,0:0:0:0:
120,367,49166,6,0,P|93:316|141:286,1,125.000004768372,8|0,0:1|0:0,0:0:0:0:
225,217,49444,1,2,0:3:0:0:
279,229,49536,1,0,0:0:0:0:
316,271,49629,1,0,0:0:0:0:
340,321,49722,2,0,B|343:353|330:383|330:383|365:376|384:344,1,125.000004768372,8|0,0:0|0:0,0:0:0:0:
461,336,49999,2,0,P|473:273|445:216,1,125.000004768372,2|0,0:1|0:0,0:0:0:0:
359,154,50277,6,0,L|274:169,1,83.3333333333333,8|0,0:1|0:0,0:0:0:0:
162,112,50555,2,0,L|247:100,1,83.3333333333333,2|0,0:3|0:0,0:0:0:0:
377,150,50833,6,0,L|462:138,1,83.3333333333333,8|0,0:0|0:0,0:0:0:0:
144,116,51111,2,0,L|59:131,1,83.3333333333333,8|0,0:1|0:0,0:0:0:0:
107,154,51388,5,8,0:1:0:0:
229,66,51573,1,2,0:3:0:0:
249,34,51666,1,2,0:3:0:0:
263,243,51851,1,2,0:3:0:0:
303,185,51944,6,0,L|393:39,1,166.666666666667,8|0,0:0|0:0,0:0:0:0:
461,11,52222,2,0,P|469:54|449:97,1,83.3333333333333,2|0,0:0|0:0,0:0:0:0:
509,211,52499,6,0,L|380:198,1,125.000004768372,4|0,0:0|0:0,0:0:0:0:
263,243,52777,2,0,P|301:254|308:217,1,83.3333333333333,2|0,0:3|0:0,0:0:0:0:
264,342,53055,2,0,P|209:313|171:258,1,125.000004768372,8|0,0:0|0:0,0:0:0:0:
153,209,53333,1,2,0:3:0:0:
11,276,53518,5,0,0:0:0:0:
22,331,53611,1,8,0:1:0:0:
118,247,53796,1,0,0:0:0:0:
172,262,53888,1,2,0:3:0:0:
191,139,54073,1,0,0:0:0:0:
230,98,54166,1,8,0:0:0:0:
108,65,54351,1,0,0:0:0:0:
85,13,54444,2,0,B|38:17|6:51|6:51|21:62|35:83,1,125.000004768372,2|0,0:1|0:0,0:0:0:0:
39,94,54722,6,0,P|95:100|150:55,1,125.000004768372,8|0,0:0|0:0,0:0:0:0:
301,61,54999,2,0,P|269:88|216:96,1,83.3333333333333,0|0,0:0|0:0,0:0:0:0:
97,208,55277,6,0,P|153:214|208:169,1,125.000004768372,8|0,0:0|0:0,0:0:0:0:
364,168,55555,2,0,P|331:196|270:202,1,83.3333333333333,0|0,0:0|0:0,0:0:0:0:
453,137,55833,6,0,P|449:222|401:293,1,166.666666666667,8|0,1:0|0:0,0:0:0:0:
367,152,56111,2,0,P|280:158|218:109,1,166.666666666667,8|0,1:0|0:0,0:0:0:0:
209,37,56388,1,8,0:0:0:0:
117,269,56573,1,0,0:0:0:0:
143,339,56666,1,8,0:0:0:0:
14,192,56851,1,0,0:0:0:0:
68,140,56944,6,0,P|258:129|459:243,1,416.666666666667,4|0,0:0|0:0,0:0:0:0:
478,129,57499,2,0,P|356:165|316:339,1,312.500011920929,8|0,0:0|0:0,0:0:0:0:
463,302,58055,6,0,P|415:275|452:235,1,125.000004768372,8|0,0:1|0:0,0:0:0:0:
338,127,58333,1,2,0:3:0:0:
378,88,58425,1,0,0:0:0:0:
434,92,58518,1,0,0:0:0:0:
478,129,58611,2,0,P|433:173|370:166,1,125.000004768372,8|0,0:0|0:0,0:0:0:0:
225,78,58888,2,0,B|287:14|342:50|342:50|314:103,1,166.666666666667,2|0,0:1|0:0,0:0:0:0:
296,148,59166,5,8,0:1:0:0:
78,209,59351,1,0,0:0:0:0:
123,150,59444,2,0,P|142:86|115:26,1,125.000004768372,2|0,0:3|0:0,0:0:0:0:
24,152,59722,2,0,B|51:230|51:230|140:258,1,166.666666666667,8|0,0:0|0:0,0:0:0:0:
171,324,59999,2,0,B|163:353|141:371|141:371|180:372|201:345,1,125.000004768372,2|0,0:3|0:0,0:0:0:0:
74,319,60277,6,0,P|50:338|38:367,1,62.5000023841859,8|0,0:1|0:0,0:0:0:0:
131,255,60462,1,0,0:0:0:0:
124,243,60555,1,8,0:1:0:0:
307,258,60740,1,0,0:0:0:0:
297,269,60833,2,2,P|185:196|185:29,1,312.500011920929,10|2,0:1|0:1,0:0:0:0:
227,3,61388,5,4,0:0:0:0:
320,88,61573,1,0,0:0:0:0:
302,121,61666,1,2,0:3:0:0:
474,122,61851,1,0,0:0:0:0:
460,73,61944,1,8,0:0:0:0:
350,213,62129,1,0,0:0:0:0:
379,261,62222,2,0,B|391:282|394:307|394:307|414:269|394:229,1,125.000004768372,2|0,0:3|0:0,0:0:0:0:
346,260,62499,5,8,0:1:0:0:
230,321,62685,1,0,0:0:0:0:
280,344,62777,1,2,0:3:0:0:
116,258,62962,1,0,0:0:0:0:
70,291,63055,2,0,P|70:350|131:328,1,125.000004768372,8|0,0:0|0:0,0:0:0:0:
193,247,63333,2,0,P|193:167|141:98,1,166.666666666667,2|0,0:1|0:0,0:0:0:0:
50,104,63611,5,8,0:1:0:0:
146,74,63796,1,0,0:0:0:0:
116,33,63888,1,2,0:3:0:0:
230,107,64073,1,0,0:0:0:0:
201,148,64166,1,8,0:0:0:0:
314,65,64351,1,0,0:0:0:0:
287,23,64444,2,0,B|349:-1|349:-1|392:46,1,125.000004768372,2|0,0:3|0:0,0:0:0:0:
300,152,64722,6,0,B|384:158|384:158|443:99,1,166.666666666667,8|0,1:0|0:0,0:0:0:0:
429,251,64999,2,0,B|469:177|469:177|441:98,1,166.666666666667,8|0,1:0|0:0,0:0:0:0:
472,28,65277,1,8,0:0:0:0:
458,347,65555,5,8,0:0:0:0:
348,271,65740,1,8,0:0:0:0:
315,262,65833,2,0,P|212:262|103:276,1,208.333333333333,8|0,1:0|0:0,0:0:0:0:
85,300,66388,1,8,0:0:0:0:
221,361,66666,1,2,0:0:0:0:
320,182,66944,6,0,P|273:173|226:181,1,83.3333333333333,8|0,0:1|0:0,0:0:0:0:
189,188,67222,2,0,P|147:192|107:183,1,83.3333333333333,2|0,0:0|0:0,0:0:0:0:
68,152,67499,1,8,0:0:0:0:
282,52,67777,2,0,P|263:81|308:82,1,83.3333333333333,8|0,0:1|0:0,0:0:0:0:
291,26,68055,6,0,P|234:13|166:22,1,125,8|2,0:1|0:0,0:0:0:0:
10,28,68518,1,0,0:0:0:0:
23,59,68611,2,0,P|72:69|109:49,1,83.3333333333333,8|0,0:0|0:0,0:0:0:0:
221,98,68888,2,0,P|184:117|152:148,1,83.3333333333333,2|0,0:0|0:0,0:0:0:0:
60,233,69166,6,0,P|124:217|191:237,1,125.000004768372,8|0,1:0|0:0,0:0:0:0:
296,186,69444,2,0,P|254:265|253:346,1,166.666666666667,0|0,1:0|0:0,0:0:0:0:
169,348,69722,1,8,0:0:0:0:
409,213,69907,1,0,0:0:0:0:
446,140,69999,2,0,P|426:58|368:0,1,166.666666666667,8|0,1:0|0:0,0:0:0:0:
377,4,70277,6,0,P|365:101|266:113,1,208.333333333333,8|0,0:1|0:0,0:0:0:0:
230,83,70833,1,8,0:0:0:0:
104,186,71111,1,2,0:0:0:0:
286,332,71388,6,0,L|421:320,1,125,8|2,0:1|0:0,0:0:0:0:
225,258,71851,1,0,0:0:0:0:
191,261,71944,2,0,L|91:271,1,83.3333333333333,8|0,0:0|0:0,0:0:0:0:
87,242,72222,2,0,L|77:142,1,83.3333333333333,8|0,0:1|0:0,0:0:0:0:
55,135,72499,5,8,0:1:0:0:
33,313,72685,1,2,0:0:0:0:
195,350,72870,1,2,0:0:0:0:
164,126,73055,1,8,0:0:0:0:
160,209,73240,1,2,0:0:0:0:
256,220,73425,2,0,P|256:239|237:242,1,41.6666666666667,2|0,0:0|0:0,0:0:0:0:
355,243,73611,6,0,B|420:246|478:204|478:204|436:196,1,166.666666666667,8|0,1:0|0:0,0:0:0:0:
421,359,73888,2,0,L|265:291,1,166.666666666667,8|0,1:0|0:0,0:0:0:0:
121,229,74166,2,0,L|277:161,1,166.666666666667,8|0,0:0|0:0,0:0:0:0:
376,94,74444,2,0,L|220:26,1,166.666666666667,8|0,0:0|0:0,0:0:0:0:
142,67,74722,6,0,P|67:86|29:22,1,156.25,8|2,0:1|0:0,0:0:0:0:
186,246,75277,2,0,P|120:200|40:165,1,156.25,8|2,0:0|0:0,0:0:0:0:
223,27,75740,1,0,0:0:0:0:
254,62,75833,2,0,P|272:111|266:168,1,104.166666666667,8|0,0:1|0:0,0:0:0:0:
287,204,76111,2,0,P|283:257|255:302,1,104.166666666667,2|0,0:0|0:0,0:0:0:0:
229,337,76388,1,8,0:0:0:0:
18,347,76666,6,0,P|63:322|121:315,1,104.166666666667,8|0,0:1|0:0,0:0:0:0:
153,340,76944,1,8,0:1:0:0:
394,238,77222,1,2,0:0:0:0:
335,32,77499,2,0,P|275:31|228:57,1,104.166666666667,8|0,0:0|0:0,0:0:0:0:
216,92,77777,2,0,P|213:144|237:190,1,104.166666666667,2|0,0:0|0:0,0:0:0:0:
279,208,78055,5,8,1:0:0:0:
491,74,78333,2,0,B|504:32|504:32|449:32|413:73,1,145.833334724108,8|0,0:1|0:0,0:0:0:0:
331,154,78611,2,0,P|265:177|194:152,1,145.833334724108,8|0,0:0|0:0,0:0:0:0:
163,47,78888,2,0,P|86:25|16:41,1,145.833334724108,8|0,1:0|0:0,0:0:0:0:
99,114,79166,6,0,P|172:133|243:102,1,156.25,8|2,0:1|0:0,0:0:0:0:
416,27,79629,1,0,0:0:0:0:
370,40,79722,2,0,P|336:72|342:136,1,104.166666666667,8|0,0:0|0:0,0:0:0:0:
346,171,79999,1,2,0:0:0:0:
458,225,80185,1,0,0:0:0:0:
474,268,80277,2,0,P|479:321|452:369,1,104.166666666667,8|0,0:1|0:0,0:0:0:0:
409,369,80555,2,0,L|305:339,1,104.166666666667,2|0,0:0|0:0,0:0:0:0:
264,354,80833,1,8,0:0:0:0:
248,366,81111,6,0,L|262:259,1,104.166666666667,8|0,0:1|0:0,0:0:0:0:
268,216,81388,1,8,0:1:0:0:
20,197,81666,2,0,L|176:181,1,156.25,2|8,0:0|0:0,0:0:0:0:
440,105,82129,1,0,0:0:0:0:
398,110,82222,1,2,0:0:0:0:
315,117,82407,1,0,0:0:0:0:
274,123,82499,6,0,P|255:74|291:40,1,104.166666666667,8|0,1:0|0:0,0:0:0:0:
369,28,82777,2,0,P|416:122|442:223,1,208.333333333333,2|0,0:1|0:0,0:0:0:0:
300,258,83055,2,0,P|324:220|365:254,1,104.166666666667,8|0,1:0|0:0,0:0:0:0:
377,357,83333,2,0,P|270:335|169:334,1,208.333333333333,2|0,0:1|0:0,0:0:0:0:
101,368,83611,6,0,P|237:375|320:284,1,260.416666666667,4|0,0:3|0:0,0:0:0:0:
267,108,84166,2,0,P|242:153|246:209,1,104.166666666667,8|0,1:2|0:0,0:0:0:0:
203,195,84444,2,0,P|201:248|236:299,1,104.166666666667,8|0,0:1|0:0,0:0:0:0:
74,145,84722,6,0,P|77:219|126:283,1,145.833334724108,8|0,1:2|0:0,0:0:0:0:
151,108,84999,2,0,P|154:52|128:11,1,104.166666666667,8|0,0:1|0:0,0:0:0:0:
245,13,85277,1,8,1:2:0:0:
281,50,85370,1,2,0:0:0:0:
332,58,85462,1,0,0:0:0:0:
384,54,85555,2,0,B|411:28|437:27|437:27|409:14|386:27,1,104.166666666667,2|0,0:0|0:0,0:0:0:0:
255,127,85833,6,0,P|355:152|496:84,1,260.416666666667,4|0,0:3|0:0,0:0:0:0:
493,73,86388,2,0,P|456:120|457:169,1,104.166666666667,8|0,0:0|0:0,0:0:0:0:
414,195,86666,2,0,P|420:248|452:289,1,104.166666666667,2|0,0:0|0:0,0:0:0:0:
496,312,86944,5,8,0:0:0:0:
414,195,87129,1,0,0:0:0:0:
386,239,87222,1,8,0:1:0:0:
280,186,87407,1,0,0:0:0:0:
299,234,87499,1,0,0:1:0:0:
183,257,87685,1,0,0:0:0:0:
226,285,87777,2,0,B|251:302|251:302|208:310|186:347,1,104.166666666667,10|0,0:1|0:0,0:0:0:0:
187,354,88055,6,0,P|271:293|233:157,1,260.416666666667,4|0,0:3|0:0,0:0:0:0:
183,93,88611,2,0,P|128:84|82:108,1,104.166666666667,8|0,1:2|0:0,0:0:0:0:
46,174,88888,2,0,P|38:226|56:275,1,104.166666666667,0|0,0:0|0:0,0:0:0:0:
71,102,89166,6,0,P|120:50|195:43,1,145.833334724108,8|0,1:2|0:0,0:0:0:0:
304,28,89444,2,0,P|350:52|316:75,1,104.166666666667,8|0,0:1|0:0,0:0:0:0:
197,34,89722,2,0,B|296:6|352:96|310:212|178:154|134:240,1,364.583336810271,8|0,1:2|0:0,0:0:0:0:
119,273,90277,5,4,0:3:0:0:
282,346,90462,1,2,0:0:0:0:
242,327,90555,1,2,0:3:0:0:
343,212,90740,1,2,0:0:0:0:
370,196,90833,2,0,P|431:185|474:227,1,104.166666666667,8|0,0:0|0:0,0:0:0:0:
343,212,91111,2,0,P|264:206|245:183,1,104.166666666667,2|0,0:0|0:0,0:0:0:0:
238,92,91388,6,0,P|325:91|406:108,1,166.666666666667,8|0,0:0|0:0,0:0:0:0:
175,28,91666,2,0,P|256:4|341:8,1,166.666666666667,8|0,0:0|0:0,0:0:0:0:
169,66,91944,1,8,0:3:0:0:
12,56,92129,1,0,0:0:0:0:
5,127,92222,2,0,P|57:129|112:102,1,104.166666666667,2|0,0:1|0:0,0:0:0:0:
175,28,92499,6,0,B|89:0|44:72|44:72|133:109|149:198,1,312.500011920929,4|0,0:0|0:0,0:0:0:0:
178,278,93055,2,0,B|219:228|203:175|156:142|60:173|0:258,1,312.500011920929,8|0,0:0|0:0,0:0:0:0:
12,294,93611,5,2,0:0:0:0:
154,358,93796,1,0,0:0:0:0:
209,349,93888,1,2,0:3:0:0:
342,267,94073,1,0,0:0:0:0:
366,219,94166,2,0,P|368:151|339:104,1,125.000004768372,8|0,0:0|0:0,0:0:0:0:
488,142,94444,2,0,P|455:73|395:31,1,145.833334724108,2|0,0:1|0:0,0:0:0:0:
312,28,94722,5,8,0:1:0:0:
169,129,94907,1,0,0:0:0:0:
173,170,94999,2,0,P|218:197|274:180,1,104.166666666667,2|0,0:3|0:0,0:0:0:0:
130,166,95277,1,8,0:0:0:0:
180,366,95462,1,0,0:0:0:0:
221,371,95555,2,0,P|271:357|301:314,1,104.166666666667,2|0,0:3|0:0,0:0:0:0:
319,353,95833,5,8,0:1:0:0:
455,228,96018,1,0,0:0:0:0:
448,269,96111,1,8,0:1:0:0:
312,217,96296,1,0,0:0:0:0:
282,148,96388,6,0,L|447:127,1,166.666666666667,8|0,0:0|0:0,0:0:0:0:
481,60,96666,2,0,B|456:13|456:13|420:53,1,104.166666666667,2|0,0:0|0:0,0:0:0:0:
409,77,96944,5,4,0:0:0:0:
463,154,97129,1,0,0:0:0:0:
442,195,97222,1,8,0:0:0:0:
476,295,97407,1,0,0:0:0:0:
463,317,97499,1,8,0:0:0:0:
364,367,97685,6,0,P|258:347|144:339,1,218.750002086163,2|0,0:3|0:0,0:0:0:0:
114,353,98055,1,8,0:1:0:0:
74,216,98240,1,0,0:0:0:0:
33,213,98333,1,2,0:3:0:0:
155,108,98518,1,0,0:0:0:0:
144,60,98611,1,8,0:0:0:0:
250,196,98796,1,0,0:0:0:0:
321,167,98888,2,0,L|436:122,1,104.166666666667,2|0,0:1|0:0,0:0:0:0:
277,28,99166,6,0,P|288:78|340:53,1,104.166666666667,8|0,0:1|0:0,0:0:0:0:
437,119,99444,2,0,P|392:188|319:217,1,145.833334724108,2|0,0:3|0:0,0:0:0:0:
212,270,99722,6,0,P|162:257|128:214,1,104.166666666667,8|0,0:0|0:0,0:0:0:0:
93,363,99999,2,0,P|167:369|251:337,1,145.833334724108,2|0,0:3|0:0,0:0:0:0:
328,267,100277,6,0,P|404:211|494:221,1,187.500007152558,8|0,1:0|0:0,0:0:0:0:
463,292,100555,2,0,P|394:230|404:141,1,187.500007152558,8|0,1:0|0:0,0:0:0:0:
299,100,100833,6,0,P|362:51|447:50,1,166.666666666667,8|0,0:0|0:0,0:0:0:0:
234,157,101111,2,0,P|154:166|80:121,1,166.666666666667,8|0,0:0|0:0,0:0:0:0:
9,188,101388,6,0,B|152:226|232:68|232:68|88:28,1,416.666666666667,4|0,0:0|0:0,0:0:0:0:
82,123,101944,2,0,B|130:263|130:263|256:220|291:117,1,364.583336810271,8|0,0:0|0:0,0:0:0:0:
471,61,102499,6,0,L|325:48,1,145.833334724108,8|0,0:1|0:0,0:0:0:0:
338,201,102777,1,0,0:0:0:0:
396,195,102870,1,0,0:0:0:0:
453,188,102962,1,0,0:0:0:0:
502,177,103055,2,0,P|453:134|392:138,1,125.000004768372,8|0,0:0|0:0,0:0:0:0:
325,184,103333,2,0,P|293:251|319:319,1,145.833334724108,2|0,0:1|0:0,0:0:0:0:
162,313,103611,6,0,L|306:338,1,145.833334724108,8|0,0:1|0:0,0:0:0:0:
383,353,103888,2,0,L|496:323,1,104.166666666667,8|0,0:0|0:0,0:0:0:0:
396,195,104166,6,0,L|247:223,1,145.833334724108,8|0,0:0|0:0,0:0:0:0:
174,230,104444,2,0,L|63:199,1,104.166666666667,0|0,0:0|0:0,0:0:0:0:
24,227,104722,5,8,0:1:0:0:
110,106,104907,1,0,0:0:0:0:
70,118,104999,1,8,0:1:0:0:
32,310,105185,1,0,0:0:0:0:
63,336,105277,2,2,P|130:251|83:113,1,260.416666666667,4|2,0:0|0:1,0:0:0:0:
48,26,105833,6,0,B|30:43|32:63|32:63|81:24|148:50,1,145.833334724108,8|0,0:1|0:0,0:0:0:0:
255,140,106111,2,0,P|274:191|268:250,1,104.166666666667,2|0,0:3|0:0,0:0:0:0:
231,53,106388,6,0,P|304:28|372:43,1,145.833334724108,8|0,0:0|0:0,0:0:0:0:
486,165,106666,2,0,P|432:158|395:120,1,104.166666666667,2|0,0:3|0:0,0:0:0:0:
367,153,106944,5,8,0:1:0:0:
335,281,107129,1,0,0:0:0:0:
376,276,107222,1,8,0:1:0:0:
454,380,107407,1,0,0:0:0:0:
479,347,107499,1,8,0:0:0:0:
296,202,107685,1,0,0:0:0:0:
230,233,107777,2,0,B|173:261|173:261|223:278,1,104.166666666667,2|0,0:1|0:0,0:0:0:0:
296,202,108055,6,0,P|233:159|166:157,1,145.833334724108,8|0,0:1|0:0,0:0:0:0:
110,72,108333,2,0,P|58:79|15:116,1,104.166666666667,2|0,0:3|0:0,0:0:0:0:
234,104,108611,6,0,P|170:150|156:223,1,145.833334724108,8|0,0:0|0:0,0:0:0:0:
63,253,108888,2,0,P|75:305|124:341,1,104.166666666667,2|0,0:3|0:0,0:0:0:0:
254,369,109166,6,0,L|426:350,1,166.666666666667,8|0,1:0|0:0,0:0:0:0:
293,269,109444,2,0,L|465:250,1,166.666666666667,8|0,1:0|0:0,0:0:0:0:
243,161,109722,2,0,B|332:174|332:174|402:124,1,166.666666666667,8|0,0:0|0:0,0:0:0:0:
463,86,109999,2,0,B|433:5|433:5|357:64,1,166.666666666667,8|8,0:0|0:0,0:0:0:0:
296,85,110277,6,0,P|166:73|46:31,1,250,2|2,0:1|0:1,0:0:0:0:
24,135,110648,1,0,0:0:0:0:
12,200,110740,1,0,0:0:0:0:
51,248,110833,2,0,P|121:242|126:195,1,125.000004768372,8|0,0:0|0:0,0:0:0:0:
234,172,111111,6,0,P|350:196|475:262,1,250,2|10,0:1|0:1,0:0:0:0:
491,165,111481,2,0,B|371:146|367:264|378:263|364:359|234:332,1,333.333333333333,0|0,0:0|0:0,0:0:0:0:
88,307,111944,6,0,P|91:264|129:235,1,83.3333333333333,8|0,0:0|0:0,0:0:0:0:
89,140,112129,2,0,P|125:164|131:211,1,83.3333333333333,0|2,0:0|0:1,0:0:0:0:
231,230,112314,2,0,P|192:249|148:231,1,83.3333333333333,2|0,0:1|0:0,0:0:0:0:
40,190,112499,6,0,B|82:124|161:129|178:168|178:168|122:192|128:249,1,250.000009536744,8|2,0:3|0:3,0:0:0:0:
85,321,112962,1,0,0:0:0:0:
92,327,113055,2,0,P|50:297|39:353,1,125.000004768372,8|0,0:0|0:0,0:0:0:0:
205,367,113333,2,0,P|230:309|201:254,1,125.000004768372,2|2,0:1|0:1,0:0:0:0:
202,54,113611,6,0,B|259:65|251:136|251:136|219:110|182:114,1,166.666666666667,8|0,0:3|0:0,0:0:0:0:
127,228,113888,2,0,B|174:187|211:226|203:229|235:263|284:227,1,166.666666666667,4|0,0:3|0:0,0:0:0:0:
336,195,114166,1,8,0:0:0:0:
465,43,114351,2,0,P|378:28|316:76,1,166.666666666667,2|0,0:1|0:0,0:0:0:0:
268,127,114629,1,0,0:0:0:0:
240,52,114722,6,0,P|227:35|208:27,4,41.6666666666667,10|0|0|0|0,0:1|0:0|0:0|0:0|0:0,0:0:0:0:
268,127,114999,2,0,P|331:160|419:123,1,166.666666666667,2|0,0:3|0:0,0:0:0:0:
473,107,115277,6,0,P|465:81|451:68,4,41.6666666666667,10|0|0|0|0,0:1|0:0|0:0|0:0|0:0,0:0:0:0:
316,204,115555,2,0,P|311:290|364:352,1,166.666666666667,2|0,0:3|0:0,0:0:0:0:
457,357,115833,6,0,P|486:346|493:329,4,41.6666666666667,10|0|0|0|0,0:1|0:0|0:0|0:0|0:0,0:0:0:0:
316,204,116111,2,0,P|230:199|170:255,1,166.666666666667,2|0,0:3|0:0,0:0:0:0:
151,344,116388,6,0,P|164:366|181:376,4,41.6666666666667,10|0|0|0|0,0:1|0:0|0:0|0:0|0:0,0:0:0:0:
172,249,116666,2,0,B|97:218|97:218|28:275,1,166.666666666667,2|0,0:3|0:0,0:0:0:0:
38,348,116944,5,8,0:1:0:0:
62,81,117129,1,4,0:3:0:0:
27,147,117221,1,8,0:3:0:0:
203,98,117407,1,0,0:0:0:0:
191,24,117499,1,8,0:0:0:0:
363,56,117685,1,4,0:3:0:0:
396,122,117777,2,0,B|432:199|432:199|487:130,1,166.666666666667,8|0,0:3|0:0,0:0:0:0:
456,46,118055,6,0,P|351:35|287:115,1,208.333333333333,8|0,1:0|0:0,0:0:0:0:
191,175,118333,2,0,P|283:213|305:311,1,208.333333333333,8|0,1:0|0:0,0:0:0:0:
212,342,118611,6,0,P|250:236|378:207,1,250.000009536744,4|0,1:3|0:0,0:0:0:0:
288,106,118888,2,0,P|414:107|494:196,1,250.000009536744,4|0,1:3|0:0,0:0:0:0:
491,330,119166,6,2,L|292:309,1,187.500007152558,4|2,0:3|0:1,0:0:0:0:
128,206,119629,1,0,0:0:0:0:
171,211,119722,2,0,L|370:232,1,187.500007152558,8|2,0:0|0:3,0:0:0:0:
30,343,120277,6,0,P|92:354|150:312,1,125.000004768372,8|0,0:1|0:0,0:0:0:0:
186,322,120555,2,0,P|220:266|215:205,1,125.000004768372,2|0,0:3|0:0,0:0:0:0:
240,172,120833,1,8,0:0:0:0:
470,129,121018,6,0,P|443:63|397:35,1,125.000004768372,2|0,0:1|0:0,0:0:0:0:
319,76,121296,1,0,0:0:0:0:
321,88,121388,2,0,L|339:220,2,125.000004768372,10|0|2,0:1|0:0|0:1,0:0:0:0:
200,31,121944,5,8,0:0:0:0:
77,116,122129,1,2,0:1:0:0:
205,192,122314,1,0,0:0:0:0:
38,333,122499,6,2,B|104:326|129:248|129:248|227:267|240:372,1,312.500011920929,10|2,0:1|0:1,0:0:0:0:
226,374,123055,6,2,P|293:383|347:360,1,125.000004768372,10|2,0:2|0:1,0:0:0:0:
420,362,123333,2,0,P|474:322|489:266,1,125.000004768372,2|0,0:1|0:0,0:0:0:0:
251,226,123611,6,0,P|351:251|421:195,1,187.500007152558,10|2,0:1|0:3,0:0:0:0:
462,63,124073,1,0,0:0:0:0:
441,26,124166,1,8,0:0:0:0:
165,56,124444,6,0,L|373:82,1,187.500007152558,2|8,0:1|0:1,0:0:0:0:
92,18,124999,2,0,B|48:32|33:79|33:79|57:62|80:63,1,125.000004768372,2|0,0:1|0:0,0:0:0:0:
127,124,125277,2,0,P|156:174|146:242,1,125.000004768372,8|0,0:0|0:0,0:0:0:0:
196,324,125555,1,2,0:1:0:0:
143,359,125648,1,0,0:0:0:0:
81,362,125740,1,2,0:1:0:0:
25,330,125833,6,0,B|2:272|64:231|64:231|63:256|69:280,1,166.666666666667,4|0,0:0|0:0,0:0:0:0:
106,294,126111,1,8,0:0:0:0:
274,273,126296,1,0,0:0:0:0:
300,347,126388,2,0,B|286:291|316:250|368:243|411:260,1,166.666666666667,8|0,0:0|0:0,0:0:0:0:
470,308,126666,5,2,0:1:0:0:
439,358,126759,1,0,0:0:0:0:
381,359,126851,1,2,0:1:0:0:
360,286,126944,2,0,L|384:118,1,166.666666666667,0|0,0:0|0:0,0:0:0:0:
220,199,127222,2,0,L|244:31,1,166.666666666667,8|0,0:0|0:0,0:0:0:0:
59,309,127499,6,0,L|89:100,1,208.333333333333,8|0,0:0|0:0,0:0:0:0:
243,34,127777,5,2,0:1:0:0:
291,102,127870,5,2,0:1:0:0:
253,175,127962,5,0,0:0:0:0:
186,213,128055,6,0,B|82:251|53:144|53:144|187:69|271:180|261:188|374:270|456:177|456:177|419:125|367:138,1,718.750027418138,8|0,0:1|0:0,0:0:0:0:
355,140,130277,5,2,0:3:0:0:
385,31,130833,1,8,0:0:0:0:
495,52,131388,1,2,0:3:0:0:
273,71,131666,1,2,0:3:0:0:
232,154,131851,1,0,0:0:0:0:
236,172,131944,1,8,0:0:0:0:
24,36,132407,5,0,0:0:0:0:
42,34,132499,2,0,L|123:22,1,62.5000023841859,0|0,0:0|0:0,0:0:0:0:
180,86,132777,2,0,L|99:98,1,62.5000023841859,2|0,0:3|0:0,0:0:0:0:
182,14,133055,2,0,L|263:2,1,62.5000023841859,8|0,0:0|0:0,0:0:0:0:
376,78,133333,6,0,L|258:70,1,104.166666666667,2|0,0:3|0:0,0:0:0:0:
261,100,133611,1,8,0:0:0:0:
347,206,133888,2,0,L|465:198,1,104.166666666667,2|0,0:3|0:0,0:0:0:0:
462,228,134166,1,8,0:0:0:0:
310,286,134351,5,0,0:0:0:0:
290,310,134444,2,0,L|172:318,1,104.166666666667,2|0,0:3|0:0,0:0:0:0:
162,338,134722,1,0,0:0:0:0:
45,255,134907,1,0,0:0:0:0:
81,274,134999,1,2,0:3:0:0:
40,150,135185,1,0,0:0:0:0:
77,168,135277,1,8,0:0:0:0:
274,207,135833,5,2,0:3:0:0:
157,124,136018,1,0,0:0:0:0:
193,143,136110,1,2,0:3:0:0:
152,19,136296,1,0,0:0:0:0:
189,37,136388,1,8,0:0:0:0:
318,21,136573,5,0,0:0:0:0:
345,35,136666,2,0,L|439:85,1,104.166666666667,2|0,0:3|0:0,0:0:0:0:
463,101,136944,5,2,0:3:0:0:
467,284,137129,1,0,0:0:0:0:
465,252,137222,1,2,0:3:0:0:
321,170,137407,1,0,0:0:0:0:
350,160,137499,1,8,0:0:0:0:
318,21,137685,1,0,0:0:0:0:
345,35,137777,2,0,L|439:85,1,104.166666666667,2|0,0:3|0:0,0:0:0:0:
284,98,138055,6,0,B|231:73|233:10|233:10|203:57,2,156.25,2|2|2,0:0|0:0|0:0,0:0:0:0:
142,109,138888,6,0,B|65:131|37:76|37:76|66:76,1,145.833334724108,4|0,0:3|0:0,0:0:0:0:
168,111,139166,6,0,B|294:168|259:365|259:365|346:342|366:236,1,468.750017881394,4|0,1:0|0:0,0:0:0:0:
486,189,139722,2,0,P|254:153|41:237,1,468.750017881394,8|0,0:0|0:0,0:0:0:0:
58,344,140277,6,0,P|123:349|106:275,1,145.833334724108,2|0,0:0|0:0,0:0:0:0:
201,218,140555,1,0,0:0:0:0:
175,165,140648,1,0,0:0:0:0:
126,133,140740,1,0,0:0:0:0:
69,117,140833,6,0,B|30:110|1:161|1:161|31:187|76:176,1,145.833334724108,8|0,0:0|0:0,0:0:0:0:
241,108,141111,2,0,B|285:108|324:63|324:63|299:33|258:37,1,166.666666666667,2|0,0:1|0:0,0:0:0:0:
338,156,141388,6,0,P|383:119|406:75,1,104.166666666667,8|0,0:1|0:0,0:0:0:0:
489,162,141666,2,0,P|454:196|383:211,1,104.166666666667,2|0,0:3|0:0,0:0:0:0:
308,265,141944,2,0,L|341:374,1,104.166666666667,8|0,0:0|0:0,0:0:0:0:
173,364,142222,2,0,L|204:265,1,104.166666666667,2|0,0:3|0:0,0:0:0:0:
216,225,142499,5,8,0:1:0:0:
64,285,142685,1,0,0:0:0:0:
71,325,142777,1,8,0:1:0:0:
240,131,142962,1,0,0:0:0:0:
202,65,143055,6,0,P|127:56|32:120,1,187.500007152558,8|0,0:0|0:0,0:0:0:0:
23,200,143333,2,0,P|78:194|110:150,1,104.166666666667,2|0,0:0|0:0,0:0:0:0:
154,349,143611,6,0,P|189:290|184:204,1,145.833334724108,4|0,0:0|0:0,0:0:0:0:
306,149,143888,2,0,P|285:77|231:31,1,145.833334724108,2|0,0:3|0:0,0:0:0:0:
164,74,144166,5,8,0:0:0:0:
351,14,144351,1,0,0:0:0:0:
421,52,144444,2,0,P|459:114|456:195,1,145.833334724108,2|0,0:3|0:0,0:0:0:0:
435,262,144722,5,8,0:0:0:0:
224,346,144907,1,0,0:0:0:0:
224,266,144999,2,0,P|263:214|334:257,1,145.833334724108,2|0,0:3|0:0,0:0:0:0:
370,309,145277,1,8,0:0:0:0:
120,307,145462,1,2,0:0:0:0:
46,274,145555,1,2,0:3:0:0:
56,31,145833,6,0,P|129:27|188:70,1,145.833334724108,0|0,0:0|0:0,0:0:0:0:
303,106,146111,2,0,P|356:105|396:71,1,104.166666666667,8|0,0:0|0:0,0:0:0:0:
228,180,146388,6,0,P|165:204|105:148,1,145.833334724108,8|0,0:0|0:0,0:0:0:0:
278,293,146666,2,0,P|332:301|350:258,1,104.166666666667,2|0,0:3|0:0,0:0:0:0:
405,346,146944,6,0,B|476:283|476:283|422:205,1,187.500007152558,8|0,1:0|0:0,0:0:0:0:
241,71,147222,2,0,B|227:166|227:166|316:189,1,187.500007152558,8|0,1:0|0:0,0:0:0:0:
336,30,147499,6,0,B|263:26|190:60|190:60|192:32|214:21,1,187.500007152558,8|0,0:0|0:0,0:0:0:0:
65,77,147777,2,0,B|126:98|131:148|131:148|86:117|46:125,1,187.500007152558,8|8,0:0|0:0,0:0:0:0:
216,142,148055,6,0,P|245:257|130:333,1,260.416666666667,4|0,0:3|0:0,0:0:0:0:
170,374,148611,2,0,L|69:340,1,104.166666666667,8|0,0:0|0:0,0:0:0:0:
19,316,148888,1,2,0:0:0:0:
318,350,149166,6,0,P|351:305|356:243,1,104.166666666667,8|0,0:1|0:0,0:0:0:0:
392,212,149444,2,0,P|393:162|369:103,1,104.166666666667,2|0,0:0|0:0,0:0:0:0:
362,55,149722,1,8,0:0:0:0:
485,227,149999,2,0,L|465:342,1,104.166666666667,8|0,0:1|0:0,0:0:0:0:
387,363,150277,6,0,P|330:324|305:247,1,145.833334724108,8|0,0:1|0:0,0:0:0:0:
224,172,150555,2,0,P|240:98|291:51,1,145.833334724108,2|0,0:0|0:0,0:0:0:0:
394,38,150833,1,8,0:0:0:0:
164,240,151111,1,2,0:0:0:0:
55,43,151388,6,0,B|143:24|143:24|114:88,1,145.833334724108,8|0,0:1|0:0,0:0:0:0:
105,182,151666,2,0,P|48:182|-5:164,1,104.166666666667,8|0,0:1|0:0,0:0:0:0:
182,140,151944,2,0,P|257:135|328:159,1,145.833334724108,8|0,0:0|0:0,0:0:0:0:
487,85,152222,2,0,P|434:78|383:100,1,104.166666666667,8|0,0:1|0:0,0:0:0:0:
275,9,152499,6,0,P|253:138|256:273,1,260.416666666667,8|0,0:1|0:0,0:0:0:0:
395,371,153055,2,0,P|367:322|353:268,1,104.166666666667,8|0,0:0|0:0,0:0:0:0:
355,218,153333,1,2,0:0:0:0:
126,72,153611,6,0,P|137:152|156:236,1,156.25,8|2,0:1|0:0,0:0:0:0:
354,276,154073,1,0,0:0:0:0:
344,269,154166,2,0,P|352:324|366:381,1,104.166666666667,8|0,0:0|0:0,0:0:0:0:
392,379,154444,1,8,0:1:0:0:
243,358,154722,5,8,0:1:0:0:
61,278,154907,1,2,0:0:0:0:
221,161,155092,1,2,0:0:0:0:
446,143,155277,5,8,0:0:0:0:
304,208,155462,1,2,0:0:0:0:
321,52,155648,1,2,0:0:0:0:
94,86,155833,6,0,L|243:60,1,145.833334724108,8|0,1:0|0:0,0:0:0:0:
77,186,156111,2,0,L|226:160,1,145.833334724108,8|0,1:0|0:0,0:0:0:0:
433,212,156388,6,0,L|248:244,1,187.500007152558,8|0,0:0|0:0,0:0:0:0:
494,298,156666,2,0,L|308:331,1,187.500007152558,8|0,0:0|0:0,0:0:0:0:
189,369,156944,6,0,B|107:344|147:257|147:257|170:267|180:294,1,187.500007152558,8|2,0:1|0:3,0:0:0:0:
50,276,157314,1,0,0:0:0:0:
47,219,157407,1,0,0:0:0:0:
76,171,157499,2,0,P|133:138|197:155,1,125.000004768372,8|0,0:0|0:0,0:0:0:0:
263,107,157777,2,0,P|302:145|307:202,1,104.166666666667,2|0,0:3|0:0,0:0:0:0:
257,319,158055,6,0,B|293:371|293:371|323:302,1,125.000004768372,8|0,0:1|0:0,0:0:0:0:
335,267,158333,1,2,0:3:0:0:
397,110,158518,1,0,0:0:0:0:
415,63,158611,2,0,P|452:108|462:183,1,125.000004768372,8|0,0:0|0:0,0:0:0:0:
454,220,158888,1,2,0:3:0:0:
257,319,159166,6,0,P|344:301|424:355,1,187.500007152558,8|2,0:1|0:3,0:0:0:0:
82,364,159629,1,0,0:0:0:0:
48,326,159722,2,0,P|23:279|20:194,1,125.000004768372,8|0,0:0|0:0,0:0:0:0:
24,159,159999,1,2,0:3:0:0:
284,143,160277,6,0,P|369:137|423:79,1,166.666666666667,8|0,0:1|0:0,0:0:0:0:
443,34,160555,1,2,0:3:0:0:
155,79,160740,1,0,0:0:0:0:
106,66,160833,1,8,0:0:0:0:
241,282,161018,1,0,0:0:0:0:
306,297,161111,2,0,P|387:276|426:200,1,166.666666666667,2|0,0:3|0:0,0:0:0:0:
417,192,161388,6,0,B|457:218|481:279|481:279|451:313|430:352,1,187.500007152558,4|2,0:0|0:3,0:0:0:0:
253,128,161851,1,0,0:0:0:0:
255,77,161944,2,0,P|291:24|367:13,1,125.000004768372,8|0,0:0|0:0,0:0:0:0:
395,24,162222,1,2,0:3:0:0:
483,62,162499,6,0,P|440:114|384:118,1,125.000004768372,8|0,0:1|0:0,0:0:0:0:
344,90,162777,1,2,0:3:0:0:
217,220,162962,1,0,0:0:0:0:
196,265,163055,2,0,P|123:247|103:198,1,125.000004768372,8|0,0:0|0:0,0:0:0:0:
53,213,163333,1,2,0:3:0:0:
329,361,163611,5,10,0:0:0:0:
370,266,163796,1,2,0:0:0:0:
227,326,163981,1,2,0:0:0:0:
396,165,164166,5,8,0:0:0:0:
258,215,164351,1,2,0:0:0:0:
121,259,164536,1,2,0:0:0:0:
323,92,164722,6,0,L|157:63,1,166.666666666667,2|0,0:1|0:0,0:0:0:0:
457,93,164999,2,0,L|317:-1,1,166.666666666667,2|0,0:1|0:0,0:0:0:0:
212,215,165277,6,0,P|117:277|116:365,1,208.333333333333,2|0,1:0|0:0,0:0:0:0:
308,192,165555,2,0,P|231:122|130:144,1,208.333333333333,2|0,1:0|0:0,0:0:0:0:
352,286,165833,6,0,L|414:272,1,62.5,2|2,0:3|0:3,0:0:0:0:
