osu file format v14

[General]
AudioFilename: audio.mp3
AudioLeadIn: 0
PreviewTime: 47962
Countdown: 0
SampleSet: Soft
StackLeniency: 0.7
Mode: 0
LetterboxInBreaks: 0
WidescreenStoryboard: 1

[Editor]
Bookmarks: 12407,21296,39073,47962,65740,74629,83518,92407,110185,119073,130185,139073,147962,155740,165740
DistanceSpacing: 1.3
BeatDivisor: 6
GridSize: 8
TimelineZoom: 3.300639

[Metadata]
Title:Yowanehaki feat. Wanuka, asmi
TitleUnicode:ヨワネハキ feat. 和ぬか, asmi
Artist:MAISONdes
ArtistUnicode:MAISONdes
Creator:Mixagji
Version:Hard
Source:
Tags:jpop j-pop japanese pop
BeatmapID:3283097
BeatmapSetID:1599643

[Difficulty]
HPDrainRate:5
CircleSize:3.6
OverallDifficulty:7
ApproachRate:8
SliderMultiplier:2.2
SliderTickRate:1

[Events]
//Background and Video events
0,0,"20210816-ys-155901-1408x793.jpg",0,0
Video,0,"videoplayback (1)_x264.mp4"
//Break Periods
2,130277,133972
//Storyboard Layer 0 (Background)
//Storyboard Layer 1 (Fail)
//Storyboard Layer 2 (Pass)
//Storyboard Layer 3 (Foreground)
//Storyboard Layer 4 (Overlay)
//Storyboard Sound Samples

[TimingPoints]
3611,555.555555555556,4,2,1,40,1,0
11944,-100,4,2,1,50,0,0
12499,-100,4,2,1,60,0,0
48055,-80,4,2,1,70,0,1
55833,-80,4,2,1,70,0,0
56944,-80,4,2,1,70,0,1
64722,-80,4,2,1,50,0,0
65833,-100,4,2,1,50,0,0
73611,-100,4,2,1,60,0,0
92499,-80,4,2,1,70,0,1
100277,-80,4,2,1,70,0,0
101388,-80,4,2,1,70,0,1
109166,-80,4,2,1,70,0,0
119166,-80,4,2,1,60,0,0
125833,-80,4,2,1,70,0,0
128055,-100,4,2,1,40,0,0
133333,-100,4,2,1,50,0,0
134722,-100,4,2,1,50,0,0
138888,-100,4,2,1,60,0,0
139166,-80,4,2,1,70,0,1
146944,-80,4,2,1,70,0,0
148055,-100,4,2,1,50,0,0
155833,-100,4,2,1,70,0,0
156944,-100,4,2,1,60,0,0
165833,-100,4,2,1,20,0,0
166111,-100,4,2,1,10,0,0

[Colours]
Combo1 : 255,255,128
Combo2 : 128,255,128
Combo3 : 128,255,255
Combo4 : 255,128,192
Combo5 : 255,128,64
Combo6 : 128,0,255

[HitObjects]
354,215,3610,6,0,L|242:195,1,110,0|0,0:0|0:0,0:0:0:0:
104,166,4166,1,8,0:0:0:0:
202,62,4444,1,0,0:0:0:0:
297,168,4722,2,0,P|301:212|280:249,1,73.3333333333333,2|0,0:0|0:0,0:0:0:0:
304,282,4999,2,0,P|289:318|260:338,1,73.3333333333333,2|0,0:0|0:0,0:0:0:0:
218,357,5277,1,8,0:0:0:0:
425,284,5555,6,0,P|419:320|400:356,1,73.3333333333333,2|0,0:0|0:0,0:0:0:0:
355,361,5833,1,2,0:0:0:0:
504,270,6111,1,0,0:0:0:0:
445,139,6388,2,0,L|365:123,1,73.3333333333333,8|0,0:0|0:0,0:0:0:0:
345,85,6666,2,0,L|273:99,1,73.3333333333333,2|0,0:0|0:0,0:0:0:0:
225,107,6944,5,2,0:0:0:0:
159,37,7129,1,0,0:0:0:0:
148,47,7222,1,2,0:0:0:0:
136,141,7407,1,0,0:0:0:0:
125,150,7499,2,0,P|95:180|62:201,1,73.3333333333333,8|0,0:0|0:0,0:0:0:0:
40,235,7777,2,0,P|41:274|49:313,1,73.3333333333333,2|0,0:0|0:0,0:0:0:0:
46,355,8055,6,0,P|100:358|150:328,1,110,2|2,0:0|0:0,0:0:0:0:
304,249,8611,2,0,P|269:269|255:338,1,110,8|2,0:0|0:0,0:0:0:0:
211,196,9166,2,0,P|237:171|274:161,1,73.3333333333333,2|0,0:0|0:0,0:0:0:0:
315,141,9444,2,0,P|354:143|386:162,1,73.3333333333333,2|0,0:0|0:0,0:0:0:0:
430,156,9722,1,8,0:0:0:0:
392,18,9999,6,0,P|425:34|443:65,1,73.3333333333333,2|0,0:0|0:0,0:0:0:0:
480,94,10277,2,0,L|458:205,1,110,2|0,0:0|0:0,0:0:0:0:
435,294,10740,1,0,0:0:0:0:
435,294,10833,1,2,0:0:0:0:
302,347,11111,1,0,0:0:0:0:
206,241,11388,1,2,0:0:0:0:
206,241,11944,6,0,L|188:326,1,73.3333333333333,2|2,0:3|0:3,0:0:0:0:
180,359,12222,1,2,0:3:0:0:
300,209,12499,6,0,P|265:159|210:145,1,110,12|2,0:1|0:0,0:0:0:0:
124,144,12962,1,0,0:0:0:0:
124,144,13055,1,8,0:0:0:0:
18,46,13333,2,0,L|90:32,1,73.3333333333333,2|0,0:0|0:0,0:0:0:0:
137,26,13611,1,8,0:1:0:0:
231,11,13796,1,0,0:0:0:0:
235,25,13888,1,2,0:0:0:0:
326,50,14073,1,0,0:0:0:0:
330,64,14166,1,8,0:0:0:0:
137,26,14444,6,0,L|154:102,1,73.3333333333333,8|0,0:1|0:0,0:0:0:0:
163,144,14722,1,8,0:1:0:0:
303,167,14999,1,2,0:0:0:0:
404,66,15277,1,8,0:0:0:0:
264,43,15554,1,2,0:0:0:0:
476,122,15833,6,0,P|450:148|411:155,1,73.3333333333333,8|0,0:1|0:0,0:0:0:0:
392,197,16111,2,0,P|415:228|450:243,1,73.3333333333333,2|0,0:0|0:0,0:0:0:0:
480,274,16388,2,0,P|454:300|415:307,1,73.3333333333333,8|0,0:0|0:0,0:0:0:0:
387,343,16666,1,8,0:1:0:0:
223,285,16944,6,0,P|266:268|334:285,1,110,8|2,0:1|0:0,0:0:0:0:
279,363,17407,1,0,0:0:0:0:
279,363,17499,1,8,0:0:0:0:
137,339,17777,2,0,P|121:301|125:269,1,73.3333333333333,2|0,0:0|0:0,0:0:0:0:
146,227,18055,1,8,0:1:0:0:
69,170,18240,1,0,0:0:0:0:
56,163,18333,1,2,0:0:0:0:
35,256,18518,1,0,0:0:0:0:
21,260,18611,1,8,0:0:0:0:
223,285,18888,6,0,P|256:256|266:227,1,73.3333333333333,8|0,0:1|0:0,0:0:0:0:
252,182,19166,1,8,0:1:0:0:
379,116,19444,1,2,0:0:0:0:
497,195,19722,1,8,0:0:0:0:
370,261,20000,1,2,0:0:0:0:
379,116,20277,6,0,L|383:41,1,73.3333333333333,8|0,0:1|0:0,0:0:0:0:
403,33,20555,2,0,L|447:98,1,73.3333333333333,2|0,0:0|0:0,0:0:0:0:
466,96,20833,1,8,0:0:0:0:
307,15,21111,2,0,B|270:7|270:7|266:46,1,73.3333333333333,8|0,0:1|0:0,0:0:0:0:
286,85,21388,6,0,L|166:69,1,110,4|2,0:0|0:0,0:0:0:0:
82,56,21851,1,0,0:0:0:0:
82,56,21944,1,8,0:0:0:0:
17,183,22222,1,2,0:0:0:0:
102,296,22499,2,0,P|140:288|168:266,1,73.3333333333333,8|0,0:1|0:0,0:0:0:0:
214,263,22777,2,0,P|254:226|263:172,1,110,2|8,0:0|0:0,0:0:0:0:
211,353,23333,6,0,P|247:369|284:369,1,73.3333333333333,8|0,0:1|0:0,0:0:0:0:
317,339,23611,2,0,P|372:321|431:328,1,110,8|2,0:1|0:0,0:0:0:0:
491,259,24073,1,0,0:0:0:0:
491,259,24166,1,8,0:0:0:0:
349,236,24444,1,2,0:0:0:0:
362,93,24722,6,0,P|386:64|422:56,1,73.3333333333333,8|0,0:1|0:0,0:0:0:0:
465,68,24999,2,0,P|483:102|479:136,1,73.3333333333333,2|0,0:0|0:0,0:0:0:0:
446,170,25277,1,8,0:0:0:0:
350,170,25462,1,0,0:0:0:0:
335,171,25555,1,8,0:1:0:0:
273,38,25833,5,2,0:0:0:0:
130,49,26111,1,2,0:0:0:0:
210,166,26388,1,8,0:0:0:0:
67,177,26666,1,2,0:0:0:0:
156,288,26944,2,0,L|272:277,1,110,8|2,0:1|0:0,0:0:0:0:
361,271,27407,1,0,0:0:0:0:
361,271,27499,1,8,0:0:0:0:
258,371,27777,6,0,L|172:363,1,73.3333333333333,8|0,0:1|0:0,0:0:0:0:
137,366,28055,2,0,B|115:375|115:375|61:309,1,110,8|0,0:1|0:0,0:0:0:0:
2,231,28518,1,0,0:0:0:0:
2,231,28611,1,8,0:0:0:0:
133,174,28888,1,2,0:0:0:0:
135,30,29166,6,0,B|99:23|99:23|67:44,1,73.3333333333333,8|0,0:1|0:0,0:0:0:0:
20,48,29444,2,0,B|13:84|13:84|34:116,1,73.3333333333333,2|0,0:0|0:0,0:0:0:0:
24,161,29722,2,0,L|96:146,1,73.3333333333333,8|0,0:0|0:0,0:0:0:0:
142,137,29999,1,8,0:1:0:0:
86,357,30277,6,0,L|99:238,1,110,4|0,0:0|0:0,0:0:0:0:
193,256,30740,1,0,0:0:0:0:
193,256,30833,1,8,0:0:0:0:
284,145,31111,2,0,L|282:222,1,73.3333333333333,2|0,0:0|0:0,0:0:0:0:
282,265,31388,1,8,0:1:0:0:
384,365,31666,1,2,0:0:0:0:
505,289,31944,1,8,0:0:0:0:
427,168,32222,6,0,P|422:203|450:233,1,73.3333333333333,8|0,0:1|0:0,0:0:0:0:
490,216,32499,2,0,P|506:156|484:114,1,110,8|2,0:1|0:0,0:0:0:0:
371,27,33055,2,0,L|293:32,1,73.3333333333333,8|0,0:0|0:0,0:0:0:0:
250,24,33333,2,0,L|258:100,1,73.3333333333333,2|0,0:0|0:0,0:0:0:0:
275,141,33611,2,0,L|161:150,1,110,8|2,0:1|0:0,0:0:0:0:
70,158,34073,1,0,0:0:0:0:
72,141,34166,1,8,0:0:0:0:
130,65,34351,1,0,0:0:0:0:
128,50,34444,1,8,0:1:0:0:
18,247,34722,6,0,P|66:260|128:234,1,110,2|2,0:0|0:0,0:0:0:0:
263,230,35277,2,0,P|330:240|367:281,1,110,8|2,0:0|0:0,0:0:0:0:
471,356,35833,2,0,P|448:325|415:327,1,73.3333333333333,8|0,0:1|0:0,0:0:0:0:
377,354,36111,2,0,P|344:373|324:343,1,73.3333333333333,2|0,0:0|0:0,0:0:0:0:
279,334,36388,2,0,P|232:322|251:364,1,110,8|8,0:0|0:1,0:0:0:0:
140,228,36944,6,0,B|68:284|126:360|126:360|145:334,1,183.333333333333,8|0,0:1|0:0,0:0:0:0:
179,302,37499,1,8,0:0:0:0:
201,160,37777,1,2,0:0:0:0:
59,136,38055,5,8,0:1:0:0:
28,226,38240,1,0,0:0:0:0:
32,240,38333,2,0,L|106:231,1,73.3333333333333,2|0,0:1|0:0,0:0:0:0:
152,227,38611,1,8,0:0:0:0:
115,314,38796,1,0,0:0:0:0:
119,328,38889,2,0,L|193:319,1,73.3333333333333,10|0,0:1|0:0,0:0:0:0:
198,310,39166,6,0,P|289:314|384:346,1,183.333333333333,4|0,0:3|0:0,0:0:0:0:
329,353,39722,2,0,P|335:314|357:287,1,73.3333333333333,8|0,1:2|0:0,0:0:0:0:
398,267,39999,2,0,P|431:283|453:319,1,73.3333333333333,0|0,0:0|0:0,0:0:0:0:
451,360,40277,2,0,L|486:250,1,110,2|8,1:3|0:1,0:0:0:0:
390,59,40833,1,8,1:2:0:0:
331,140,41111,1,0,0:0:0:0:
473,140,41388,6,0,P|437:173|413:176,1,73.3333333333333,4|0,0:3|0:0,0:0:0:0:
386,214,41666,2,0,P|350:230|314:226,1,73.3333333333333,2|0,0:0|0:0,0:0:0:0:
280,257,41944,2,0,P|242:262|203:248,1,73.3333333333333,8|0,0:1|0:0,0:0:0:0:
172,221,42222,1,2,0:0:0:0:
27,355,42499,5,8,0:1:0:0:
76,220,42777,1,8,0:1:0:0:
19,88,43055,1,2,0:3:0:0:
93,29,43240,1,0,0:0:0:0:
104,39,43333,2,0,P|116:75|107:121,1,73.3333333333333,2|0,0:1|0:0,0:0:0:0:
101,119,43611,6,0,P|156:67|268:68,1,183.333333333333,4|0,0:3|0:0,0:0:0:0:
218,39,44166,2,0,P|211:77|230:107,1,73.3333333333333,0|0,1:0|0:0,0:0:0:0:
266,134,44444,2,0,P|303:126|326:92,1,73.3333333333333,8|0,0:1|0:0,0:0:0:0:
335,52,44722,2,0,P|376:31|442:37,1,110,8|8,1:2|0:1,0:0:0:0:
487,169,45277,2,0,B|436:222|436:222|318:200,1,183.333333333333,8|0,1:2|0:0,0:0:0:0:
281,190,45833,5,4,0:3:0:0:
214,257,46018,1,2,0:0:0:0:
213,272,46111,2,0,P|218:310|246:332,1,73.3333333333333,2|0,0:3|0:0,0:0:0:0:
262,374,46388,1,8,0:1:0:0:
343,324,46573,1,2,0:0:0:0:
356,317,46666,2,0,P|398:318|426:338,1,73.3333333333333,2|0,0:3|0:0,0:0:0:0:
457,367,46944,5,0,1:0:0:0:
292,269,47222,1,0,1:0:0:0:
435,163,47499,2,0,B|475:145|501:185|501:185|438:215|468:277,1,183.333333333333,2|0,0:1|0:0,0:0:0:0:
472,278,48055,6,0,P|432:243|257:240,1,229.166666666667,4|0,1:0|0:0,0:0:0:0:
206,216,48611,2,0,P|94:250|35:342,1,229.166666666667,8|0,0:0|0:0,0:0:0:0:
89,365,49166,1,8,0:1:0:0:
234,261,49444,2,0,P|237:216|216:176,1,91.6666666666667,2|0,0:3|0:0,0:0:0:0:
171,135,49722,1,8,0:0:0:0:
308,21,49999,2,0,P|357:11|403:28,1,91.6666666666667,2|0,0:1|0:0,0:0:0:0:
445,56,50277,5,8,0:1:0:0:
474,171,50462,1,0,0:0:0:0:
471,189,50555,1,2,0:3:0:0:
295,156,50833,2,0,P|352:169|381:238,1,137.5,8|8,0:0|0:1,0:0:0:0:
335,347,51296,5,0,0:0:0:0:
335,347,51388,1,8,0:1:0:0:
421,321,51573,1,2,0:3:0:0:
409,306,51666,1,2,0:3:0:0:
305,264,51851,1,2,0:3:0:0:
283,268,51944,2,0,B|227:308|242:379|242:379|218:328|154:323,1,229.166666666667,8|0,0:0|0:0,0:0:0:0:
173,317,52499,6,0,P|157:358|116:329,1,91.6666666666667,4|0,0:0|0:0,0:0:0:0:
62,360,52777,2,0,P|36:324|46:270,1,91.6666666666667,2|0,0:3|0:0,0:0:0:0:
31,228,53055,1,8,0:0:0:0:
122,133,53240,1,0,0:0:0:0:
114,116,53333,2,0,P|72:92|27:97,1,91.6666666666667,2|0,0:3|0:0,0:0:0:0:
8,151,53611,5,8,0:1:0:0:
108,214,53796,1,0,0:0:0:0:
117,231,53888,1,2,0:3:0:0:
218,169,54073,1,0,0:0:0:0:
232,157,54166,2,0,L|311:103,1,91.6666666666667,8|0,0:0|0:0,0:0:0:0:
323,162,54444,1,2,0:1:0:0:
451,37,54722,6,0,P|412:66|371:47,1,91.6666666666667,8|0,0:0|0:0,0:0:0:0:
324,22,54999,1,0,0:0:0:0:
449,149,55277,2,0,P|421:185|431:231,1,91.6666666666667,8|0,0:0|0:0,0:0:0:0:
459,279,55555,1,0,0:0:0:0:
340,359,55833,6,0,L|250:338,1,91.6666666666667,8|0,1:0|0:0,0:0:0:0:
194,318,56111,1,8,1:0:0:0:
270,224,56388,1,8,0:0:0:0:
140,136,56666,1,8,0:0:0:0:
301,58,56944,6,0,L|66:27,1,229.166666666667,4|0,0:0|0:0,0:0:0:0:
15,14,57499,2,0,B|99:3|99:3|57:155,1,229.166666666667,8|0,0:0|0:0,0:0:0:0:
42,200,58055,1,8,0:1:0:0:
150,341,58333,2,0,B|144:284|144:284|69:320,1,137.5,2|8,0:3|0:0,0:0:0:0:
197,191,58888,2,0,B|233:214|233:214|242:266,1,91.6666666666667,2|0,0:1|0:0,0:0:0:0:
241,322,59166,5,8,0:1:0:0:
415,360,59444,1,2,0:3:0:0:
484,195,59722,1,8,0:0:0:0:
373,55,59999,2,0,L|465:90,1,91.6666666666667,2|0,0:3|0:0,0:0:0:0:
414,128,60277,5,8,0:1:0:0:
295,115,60462,1,0,0:0:0:0:
291,97,60555,1,8,0:1:0:0:
198,21,60740,1,0,0:0:0:0:
187,37,60833,2,0,B|159:88|159:88|231:154|206:259,1,229.166666666667,10|2,0:1|0:1,0:0:0:0:
172,290,61388,5,8,0:1:0:0:
70,227,61573,1,0,0:0:0:0:
78,210,61666,2,0,P|102:169|152:157,1,91.6666666666667,2|0,0:3|0:0,0:0:0:0:
201,158,61944,1,8,0:0:0:0:
317,184,62129,1,0,0:0:0:0:
328,199,62222,1,2,0:3:0:0:
487,49,62499,6,0,B|433:11|433:11|397:38,1,91.6666666666667,8|0,0:1|0:0,0:0:0:0:
379,76,62777,2,0,P|395:121|435:154,1,91.6666666666667,2|0,0:3|0:0,0:0:0:0:
484,165,63055,1,8,0:0:0:0:
306,143,63333,2,0,B|292:192|292:192|341:182,1,91.6666666666667,2|0,0:1|0:0,0:0:0:0:
356,184,63611,6,0,L|325:282,1,91.6666666666667,8|0,0:1|0:0,0:0:0:0:
309,327,63888,1,2,0:3:0:0:
232,187,64166,2,0,L|201:285,1,91.6666666666667,8|0,0:0|0:0,0:0:0:0:
185,330,64444,2,0,P|139:326|102:293,1,91.6666666666667,2|0,0:3|0:0,0:0:0:0:
45,291,64722,5,8,1:0:0:0:
85,184,64907,1,0,0:0:0:0:
101,193,64999,1,8,1:0:0:0:
135,86,65185,1,0,0:0:0:0:
151,95,65277,2,0,L|232:138,1,91.6666666666667,8|0,0:0|0:0,0:0:0:0:
280,138,65555,2,0,L|361:95,1,91.6666666666667,8|8,0:0|0:0,0:0:0:0:
365,47,65833,6,0,P|407:22|498:105,1,183.333333333333,8|0,1:0|0:0,0:0:0:0:
487,141,66388,1,8,0:0:0:0:
374,229,66666,1,2,0:0:0:0:
483,321,66944,2,0,P|466:360|432:374,1,73.3333333333333,8|0,0:1|0:0,0:0:0:0:
392,363,67222,2,0,L|322:340,1,73.3333333333333,2|0,0:0|0:0,0:0:0:0:
278,357,67499,1,8,0:0:0:0:
265,214,67777,6,0,P|299:197|338:212,1,73.3333333333333,8|0,0:1|0:0,0:0:0:0:
359,245,68055,2,0,B|360:289|360:289|324:268,1,73.3333333333333,8|0,0:1|0:0,0:0:0:0:
369,214,68333,2,0,P|394:176|434:179,1,73.3333333333333,2|0,0:0|0:0,0:0:0:0:
461,194,68611,1,8,0:0:0:0:
485,53,68888,1,2,0:0:0:0:
346,18,69166,6,0,L|267:43,1,73.3333333333333,8|0,1:0|0:0,0:0:0:0:
230,26,69444,2,0,L|151:51,1,73.3333333333333,0|0,1:0|0:0,0:0:0:0:
114,33,69722,1,8,0:0:0:0:
22,57,69907,1,0,0:0:0:0:
34,67,69999,1,8,1:0:0:0:
147,154,70277,6,0,B|110:130|110:130|36:175|60:253,1,183.333333333333,8|0,0:1|0:0,0:0:0:0:
79,291,70833,1,8,0:0:0:0:
203,361,71111,1,2,0:0:0:0:
261,230,71388,2,0,P|272:158|262:117,1,110,8|2,0:1|0:0,0:0:0:0:
231,32,71851,1,0,0:0:0:0:
231,32,71944,1,8,0:0:0:0:
366,77,72222,1,8,0:1:0:0:
502,19,72499,6,0,L|430:29,2,73.3333333333333,8|2|2,0:1|0:0|0:0,0:0:0:0:
328,109,73055,2,0,L|400:119,2,73.3333333333333,8|2|2,0:0|0:0|0:0,0:0:0:0:
491,200,73611,5,8,1:0:0:0:
357,248,73888,1,8,1:0:0:0:
464,341,74166,1,8,0:0:0:0:
491,200,74444,1,8,0:0:0:0:
357,248,74722,6,0,L|371:362,1,110,8|2,0:1|0:0,0:0:0:0:
275,367,75185,1,0,0:0:0:0:
275,367,75277,2,0,L|153:342,1,110,8|2,0:0|0:0,0:0:0:0:
74,319,75740,1,0,0:0:0:0:
74,319,75833,2,0,P|92:282|92:245,1,73.3333333333333,8|0,0:1|0:0,0:0:0:0:
118,209,76111,2,0,P|110:170|91:143,1,73.3333333333333,2|0,0:0|0:0,0:0:0:0:
47,124,76388,1,8,0:0:0:0:
149,23,76666,6,0,P|111:12|76:21,1,73.3333333333333,8|0,0:1|0:0,0:0:0:0:
36,41,76944,1,8,0:1:0:0:
164,105,77222,1,2,0:0:0:0:
305,87,77499,2,0,L|430:56,1,110,8|2,0:0|0:0,0:0:0:0:
277,9,78055,5,8,1:0:0:0:
288,168,78333,2,0,L|296:300,1,110,8|8,0:1|0:0,0:0:0:0:
351,355,78796,1,0,0:0:0:0:
351,355,78888,1,8,1:0:0:0:
481,295,79166,5,8,0:1:0:0:
375,198,79444,1,2,0:0:0:0:
245,258,79722,2,0,L|160:248,1,73.3333333333333,8|0,0:0|0:0,0:0:0:0:
127,265,79999,2,0,L|42:255,1,73.3333333333333,2|0,0:0|0:0,0:0:0:0:
14,283,80277,1,8,0:1:0:0:
71,359,80462,1,0,0:0:0:0:
85,353,80555,1,2,0:0:0:0:
178,370,80740,1,0,0:0:0:0:
184,356,80833,1,8,0:0:0:0:
270,241,81111,6,0,L|279:327,1,73.3333333333333,8|0,0:1|0:0,0:0:0:0:
282,361,81388,1,8,0:1:0:0:
424,371,81666,1,2,0:0:0:0:
461,233,81944,2,0,L|381:219,1,73.3333333333333,8|0,0:0|0:0,0:0:0:0:
354,187,82222,2,0,L|411:137,1,73.3333333333333,2|0,0:0|0:0,0:0:0:0:
401,91,82499,5,8,1:0:0:0:
234,24,82777,2,0,B|289:12|289:12|333:46,1,110,2|8,0:1|1:0,0:0:0:0:
200,103,83333,2,0,B|145:115|145:115|116:96,1,73.3333333333333,2|0,0:1|0:0,0:0:0:0:
92,76,83611,6,0,B|117:162|49:212|49:212|28:172,1,183.333333333333,4|0,0:3|0:0,0:0:0:0:
18,140,84166,2,0,P|57:137|87:163,1,73.3333333333333,8|0,1:2|0:0,0:0:0:0:
117,189,84444,2,0,L|101:264,1,73.3333333333333,8|0,0:1|0:0,0:0:0:0:
121,304,84722,2,0,L|2:284,1,110,8|8,1:2|0:1,0:0:0:0:
181,367,85277,1,8,1:2:0:0:
301,107,85833,6,0,B|336:133|333:176|333:176|345:118|401:98,1,183.333333333333,4|0,0:3|0:0,0:0:0:0:
412,54,86388,2,0,P|444:37|462:68,1,73.3333333333333,8|0,0:0|0:0,0:0:0:0:
473,108,86666,2,0,P|467:146|439:166,1,73.3333333333333,2|0,0:0|0:0,0:0:0:0:
424,210,86944,1,8,0:0:0:0:
469,293,87129,1,0,0:0:0:0:
467,308,87222,2,0,P|445:337|410:347,1,73.3333333333333,8|0,0:1|0:0,0:0:0:0:
363,340,87499,1,0,0:1:0:0:
303,265,87685,1,0,0:0:0:0:
291,258,87777,2,0,P|254:263|229:295,1,73.3333333333333,10|0,0:1|0:0,0:0:0:0:
241,335,88055,6,0,B|265:368|265:368|124:332,1,183.333333333333,4|0,0:3|0:0,0:0:0:0:
85,358,88611,2,0,L|125:293,1,73.3333333333333,8|0,1:2|0:0,0:0:0:0:
160,265,88888,2,0,L|123:191,1,73.3333333333333,0|0,0:0|0:0,0:0:0:0:
82,181,89166,2,0,L|141:80,1,110,8|8,1:2|0:1,0:0:0:0:
191,7,89629,1,0,0:0:0:0:
191,7,89722,1,8,1:2:0:0:
49,25,89999,1,0,0:0:0:0:
204,147,90277,6,0,P|242:143|273:119,1,73.3333333333333,4|2,0:3|0:0,0:0:0:0:
291,80,90555,1,2,0:3:0:0:
368,24,90740,1,2,0:0:0:0:
382,20,90833,2,0,P|421:21|449:40,1,73.3333333333333,8|0,0:0|0:0,0:0:0:0:
491,61,91111,2,0,P|502:96|494:134,1,73.3333333333333,2|0,0:0|0:0,0:0:0:0:
495,178,91388,5,8,0:0:0:0:
415,339,91666,1,8,0:0:0:0:
306,200,91944,2,0,L|391:217,1,73.3333333333333,8|0,0:3|0:0,0:0:0:0:
347,289,92222,2,0,B|311:319|311:319|298:284,1,73.3333333333333,2|0,0:1|0:0,0:0:0:0:
298,285,92499,6,0,B|254:334|312:387|312:387|424:354,1,229.166666666667,4|0,0:0|0:0,0:0:0:0:
478,367,93055,2,0,B|501:275|442:200|442:200|394:177,1,229.166666666667,8|0,0:0|0:0,0:0:0:0:
338,198,93611,1,2,0:0:0:0:
267,101,93796,1,0,0:0:0:0:
275,85,93888,1,2,0:3:0:0:
380,29,94073,1,0,0:0:0:0:
385,47,94166,1,8,0:0:0:0:
208,20,94444,2,0,B|181:87|181:87|188:128,1,91.6666666666667,2|0,0:1|0:0,0:0:0:0:
209,160,94722,6,0,L|100:152,1,91.6666666666667,8|0,0:1|0:0,0:0:0:0:
58,149,94999,1,2,0:3:0:0:
27,264,95185,1,0,0:0:0:0:
30,282,95277,1,8,0:0:0:0:
206,255,95555,2,0,B|146:294|146:294|159:368,1,137.5,2|8,0:3|0:1,0:0:0:0:
276,366,96018,5,0,0:0:0:0:
274,348,96111,1,8,0:1:0:0:
325,240,96296,1,0,0:0:0:0:
323,222,96388,2,0,B|295:162|228:173|228:173|240:108|315:95,1,229.166666666667,8|0,0:0|0:0,0:0:0:0:
307,88,96944,6,0,P|348:112|374:78,1,91.6666666666667,4|0,0:0|0:0,0:0:0:0:
390,27,97222,2,0,P|431:8|482:12,1,91.6666666666667,8|0,0:0|0:0,0:0:0:0:
499,64,97499,1,8,0:0:0:0:
453,174,97685,2,0,P|442:225|466:310,1,137.5,2|0,0:3|0:0,0:0:0:0:
485,361,98055,2,0,L|391:342,1,91.6666666666667,8|0,0:1|0:0,0:0:0:0:
338,361,98333,2,0,L|244:342,1,91.6666666666667,2|0,0:3|0:0,0:0:0:0:
193,366,98611,1,8,0:0:0:0:
32,236,98888,6,0,P|88:237|134:304,1,137.5,2|8,0:1|0:1,0:0:0:0:
229,226,99351,1,0,0:0:0:0:
229,226,99444,2,0,P|216:179|131:171,1,137.5,2|8,0:3|0:0,0:0:0:0:
36,76,99907,1,0,0:0:0:0:
36,76,99999,2,0,P|81:48|115:67,1,91.6666666666667,2|0,0:3|0:0,0:0:0:0:
120,88,100277,5,8,1:0:0:0:
18,155,100555,1,8,1:0:0:0:
153,246,100833,1,8,0:0:0:0:
279,119,101111,2,0,L|249:26,1,91.6666666666667,8|0,0:0|0:0,0:0:0:0:
239,23,101388,6,0,B|331:4|421:48|421:48|380:70,1,229.166666666667,4|0,0:0|0:0,0:0:0:0:
371,8,101944,2,0,B|421:-7|468:17|468:17|500:83|431:136,1,229.166666666667,8|0,0:0|0:0,0:0:0:0:
386,162,102499,1,8,0:1:0:0:
329,331,102777,2,0,P|389:327|405:258,1,137.5,0|8,0:0|0:0,0:0:0:0:
232,215,103333,2,0,P|213:256|219:310,1,91.6666666666667,2|0,0:1|0:0,0:0:0:0:
236,357,103611,5,8,0:1:0:0:
313,196,103888,1,8,0:0:0:0:
184,71,104166,1,8,0:0:0:0:
30,162,104444,2,0,P|79:163|116:137,1,91.6666666666667,0|0,0:0|0:0,0:0:0:0:
151,186,104722,5,8,0:1:0:0:
56,257,104907,1,0,0:0:0:0:
66,272,104999,1,8,0:1:0:0:
164,339,105185,1,0,0:0:0:0:
157,357,105277,2,0,P|176:284|295:196,1,229.166666666667,8|2,0:2|0:1,0:0:0:0:
351,216,105833,5,4,0:0:0:0:
368,98,106018,1,0,0:0:0:0:
351,91,106111,2,0,P|305:83|261:98,1,91.6666666666667,2|0,0:3|0:0,0:0:0:0:
209,121,106388,1,8,0:0:0:0:
93,150,106573,1,0,0:0:0:0:
88,168,106666,1,2,0:3:0:0:
34,12,106944,6,0,L|129:25,1,91.6666666666667,8|0,0:1|0:0,0:0:0:0:
183,37,107222,2,0,L|278:50,1,91.6666666666667,8|0,0:1|0:0,0:0:0:0:
331,60,107499,1,8,0:0:0:0:
207,189,107777,2,0,B|249:161|249:161|211:132,1,91.6666666666667,2|0,0:1|0:0,0:0:0:0:
207,118,108055,6,0,L|115:165,1,91.6666666666667,8|0,0:1|0:0,0:0:0:0:
73,186,108332,1,2,0:3:0:0:
226,279,108611,2,0,L|125:269,1,91.6666666666667,8|0,0:0|0:0,0:0:0:0:
75,267,108888,2,0,P|61:313|80:352,1,91.6666666666667,2|0,0:3|0:0,0:0:0:0:
125,358,109166,5,8,1:0:0:0:
219,366,109351,1,0,0:0:0:0:
233,360,109444,1,8,1:0:0:0:
328,360,109629,1,0,0:0:0:0:
344,351,109722,2,0,L|329:254,1,91.6666666666667,8|0,0:0|0:0,0:0:0:0:
299,209,109999,2,0,L|396:194,1,91.6666666666667,8|8,0:0|0:0,0:0:0:0:
449,191,110277,6,0,B|481:150|485:53|427:22|362:54,1,229.166666666667,2|0,0:1|0:0,0:0:0:0:
317,91,110833,1,8,0:0:0:0:
156,11,111111,6,0,B|111:78|189:115|195:86|269:113|239:192,1,229.166666666667,2|0,0:1|0:0,0:0:0:0:
233,245,111666,1,0,0:0:0:0:
61,194,111944,6,0,B|36:202|16:229|16:229|8:183|43:143,1,137.5,8|0,0:0|0:0,0:0:0:0:
80,115,112314,1,2,0:1:0:0:
135,212,112499,6,0,B|164:274|169:365|169:365|215:344|213:294,1,229.166666666667,8|0,0:3|0:0,0:0:0:0:
234,260,113055,1,8,0:0:0:0:
369,142,113333,1,2,0:1:0:0:
410,315,113611,6,0,P|456:327|478:289,1,91.6666666666667,8|0,0:3|0:0,0:0:0:0:
436,253,113888,2,0,P|390:241|368:279,1,91.6666666666667,4|0,0:3|0:0,0:0:0:0:
349,329,114166,1,8,0:0:0:0:
236,289,114351,2,0,P|279:241|316:172,1,137.5,2|0,0:1|0:0,0:0:0:0:
390,155,114722,6,0,L|257:113,1,137.5,10|2,0:1|0:3,0:0:0:0:
94,183,115277,2,0,B|142:191|142:191|169:97,1,137.5,10|2,0:1|0:3,0:0:0:0:
331,36,115833,2,0,B|283:28|283:28|256:122,1,137.5,10|2,0:1|0:3,0:0:0:0:
347,268,116388,2,0,L|505:235,1,137.5,10|2,0:1|0:3,0:0:0:0:
346,358,116944,6,0,L|251:347,1,91.6666666666667,8|0,0:1|0:0,0:0:0:0:
195,337,117222,1,8,0:3:0:0:
34,260,117499,2,0,B|16:303|16:303|18:356,1,91.6666666666667,8|4,0:0|0:3,0:0:0:0:
76,359,117777,2,0,B|93:315|93:315|92:263,1,91.6666666666667,8|0,0:3|0:0,0:0:0:0:
80,212,118055,5,8,1:0:0:0:
43,36,118333,1,8,1:0:0:0:
176,155,118611,5,4,1:3:0:0:
188,22,118889,1,4,1:3:0:0:
289,168,119166,6,0,P|304:95|369:68,1,137.5,4|2,0:3|0:1,0:0:0:0:
472,110,119629,1,0,0:0:0:0:
472,110,119722,1,8,0:0:0:0:
482,287,119999,6,0,P|481:238|442:212,1,91.6666666666667,2|0,0:3|0:0,0:0:0:0:
400,247,120277,2,0,P|345:266|263:241,1,137.5,8|2,0:1|0:3,0:0:0:0:
170,180,120740,1,0,0:0:0:0:
170,180,120833,1,8,0:0:0:0:
17,274,121111,1,2,0:0:0:0:
177,350,121388,6,0,P|134:370|93:357,2,91.6666666666667,10|0|2,0:1|0:0|0:1,0:0:0:0:
207,234,121944,2,0,P|171:207|157:161,2,91.6666666666667,8|2|0,0:0|0:1|0:0,0:0:0:0:
322,207,122499,2,0,B|325:148|382:135|382:135|421:198|396:265,1,229.166666666667,10|2,0:1|0:1,0:0:0:0:
362,305,123055,1,10,0:2:0:0:
492,183,123333,1,2,0:1:0:0:
401,28,123611,6,0,L|293:37,1,91.6666666666667,10|0,0:1|0:0,0:0:0:0:
251,25,123888,2,0,L|265:118,1,91.6666666666667,2|0,0:3|0:0,0:0:0:0:
206,129,124166,1,8,0:0:0:0:
45,48,124444,6,0,B|95:24|95:24|138:104,1,137.5,2|8,0:1|0:1,0:0:0:0:
26,239,124999,2,0,B|46:197|46:197|84:244,1,91.6666666666667,2|0,0:1|0:0,0:0:0:0:
110,279,125277,1,8,0:0:0:0:
282,308,125555,6,0,L|262:350,2,45.8333333333333,2|0|2,0:1|0:0|0:1,0:0:0:0:
282,308,125833,6,0,P|213:291|172:351,1,137.5,4|8,0:0|0:0,0:0:0:0:
20,346,126388,1,8,0:0:0:0:
105,189,126666,6,0,L|55:208,2,45.8333333333333,2|0|2,0:1|0:0|0:1,0:0:0:0:
105,189,126944,6,0,P|125:147|114:105,1,91.6666666666667,0|0,0:0|0:0,0:0:0:0:
85,94,127222,2,0,P|141:98|173:76,1,91.6666666666667,8|0,0:0|0:0,0:0:0:0:
210,37,127499,1,8,0:0:0:0:
210,219,127777,6,0,P|212:245|226:268,2,45.8333333333333,2|0|0,0:1|0:0|0:0,0:0:0:0:
210,219,128055,6,0,B|313:178|351:290|351:290|500:240|460:127|460:127|343:155|420:348,1,660,8|0,0:1|0:0,0:0:0:0:
77,130,134722,6,0,L|88:251,1,110,0|2,0:0|0:3,0:0:0:0:
174,126,135277,1,8,0:0:0:0:
174,126,135833,6,0,L|167:35,1,73.3333333333333,2|0,0:3|0:0,0:0:0:0:
209,29,136111,2,0,L|216:120,1,73.3333333333333,2|0,0:3|0:0,0:0:0:0:
259,115,136388,1,8,0:0:0:0:
453,123,136944,6,0,L|443:239,1,110,2|2,0:3|0:3,0:0:0:0:
434,327,137407,1,0,0:0:0:0:
434,327,137499,1,8,0:0:0:0:
323,235,137777,1,2,0:3:0:0:
244,354,138055,6,0,B|289:367|321:332|321:332|290:323,2,110,2|2|2,0:0|0:0|0:0,0:0:0:0:
137,257,138888,1,4,0:3:0:0:
39,354,139166,6,0,P|116:300|136:171,1,229.166666666667,4|0,1:0|0:0,0:0:0:0:
85,140,139722,2,0,B|55:195|55:195|146:235|216:163,1,229.166666666667,8|0,0:0|0:0,0:0:0:0:
243,121,140277,2,0,P|223:77|183:58,1,91.6666666666667,2|0,0:0|0:0,0:0:0:0:
135,25,140555,2,0,L|35:52,1,91.6666666666667,0|0,0:0|0:0,0:0:0:0:
13,99,140833,1,8,0:0:0:0:
185,58,141111,2,0,B|220:56|247:23|247:23|271:45,1,91.6666666666667,2|0,0:1|0:0,0:0:0:0:
289,87,141388,6,0,P|296:126|279:184,1,91.6666666666667,8|0,0:1|0:0,0:0:0:0:
240,217,141666,2,0,P|229:264|245:315,1,91.6666666666667,2|0,0:3|0:0,0:0:0:0:
266,358,141944,1,8,0:0:0:0:
384,367,142129,1,0,0:0:0:0:
399,356,142222,1,2,0:3:0:0:
488,201,142499,6,0,B|478:258|478:258|448:242,1,91.6666666666667,8|0,0:1|0:0,0:0:0:0:
392,219,142777,2,0,B|349:239|349:239|383:272,1,91.6666666666667,8|0,0:1|0:0,0:0:0:0:
448,242,143055,2,0,P|481:131|481:7,1,229.166666666667,8|0,0:0|0:0,0:0:0:0:
492,13,143611,6,0,P|457:67|388:75,1,137.5,4|2,0:0|0:3,0:0:0:0:
277,32,144073,1,0,0:0:0:0:
277,32,144166,2,0,P|280:78|236:91,1,91.6666666666667,8|0,0:0|0:0,0:0:0:0:
195,129,144444,2,0,P|243:116|268:151,1,91.6666666666667,2|0,0:3|0:0,0:0:0:0:
284,201,144722,1,8,0:0:0:0:
169,235,144907,1,0,0:0:0:0:
150,235,144999,2,0,P|103:218|80:139,1,137.5,2|8,0:3|0:0,0:0:0:0:
21,263,145462,1,2,0:0:0:0:
23,282,145555,2,0,P|44:329|91:343,1,91.6666666666667,2|0,0:3|0:0,0:0:0:0:
138,345,145833,5,0,0:0:0:0:
253,314,146018,1,0,0:0:0:0:
264,299,146111,2,0,P|262:254|224:227,1,91.6666666666667,8|0,0:0|0:0,0:0:0:0:
183,267,146388,1,8,0:0:0:0:
338,354,146666,1,2,0:3:0:0:
469,232,146944,6,0,B|490:273|490:273|467:313,1,91.6666666666667,8|0,1:0|0:0,0:0:0:0:
408,299,147222,2,0,L|362:217,1,91.6666666666667,8|0,1:0|0:0,0:0:0:0:
332,168,147499,2,0,L|286:86,1,91.6666666666667,8|0,0:0|0:0,0:0:0:0:
228,78,147777,1,8,0:0:0:0:
325,9,147962,1,8,0:0:0:0:
332,25,148055,6,0,P|332:101|250:168,1,183.333333333333,4|0,0:3|0:0,0:0:0:0:
216,196,148611,2,0,L|138:182,1,73.3333333333333,8|0,0:0|0:0,0:0:0:0:
99,199,148888,1,2,0:0:0:0:
109,56,149166,6,0,B|73:45|73:45|90:115,1,110,8|2,0:1|0:0,0:0:0:0:
16,175,149629,1,0,0:0:0:0:
16,175,149722,1,8,0:0:0:0:
20,317,149999,6,0,B|55:327|55:327|89:305,1,73.3333333333333,8|0,0:1|0:0,0:0:0:0:
113,267,150277,2,0,B|139:248|139:248|178:323,1,110,8|2,0:1|0:0,0:0:0:0:
261,358,150740,1,0,0:0:0:0:
261,358,150833,2,0,P|271:314|262:284,1,73.3333333333333,8|0,0:0|0:0,0:0:0:0:
244,243,151111,1,2,0:0:0:0:
360,160,151388,6,0,L|248:153,1,110,8|8,0:1|0:1,0:0:0:0:
356,249,151944,2,0,L|434:253,1,73.3333333333333,8|0,0:0|0:0,0:0:0:0:
472,232,152222,2,0,L|454:321,1,73.3333333333333,8|0,0:1|0:0,0:0:0:0:
464,350,152499,6,0,L|501:165,1,183.333333333333,8|0,0:1|0:0,0:0:0:0:
475,128,153055,2,0,P|442:112|399:127,1,73.3333333333333,8|0,0:0|0:0,0:0:0:0:
360,111,153333,1,2,0:0:0:0:
237,36,153611,6,0,L|354:25,1,110,8|2,0:1|0:0,0:0:0:0:
258,122,154073,1,0,0:0:0:0:
258,122,154166,2,0,P|213:124|186:112,1,73.3333333333333,8|0,0:0|0:0,0:0:0:0:
150,82,154444,1,8,0:1:0:0:
30,161,154722,6,0,L|116:149,2,73.3333333333333,8|2|2,0:1|0:0|0:0,0:0:0:0:
210,236,155277,2,0,L|124:224,2,73.3333333333333,8|2|2,0:0|0:0|0:0,0:0:0:0:
44,284,155833,5,8,1:0:0:0:
170,350,156111,1,8,1:0:0:0:
298,287,156388,1,8,0:0:0:0:
292,144,156666,1,8,0:0:0:0:
406,58,156944,6,0,P|474:108|465:218,1,183.333333333333,8|0,0:1|0:0,0:0:0:0:
451,242,157499,2,0,L|362:219,1,73.3333333333333,8|0,0:0|0:0,0:0:0:0:
333,214,157777,1,2,0:3:0:0:
198,164,158055,6,0,L|200:243,1,73.3333333333333,8|0,0:1|0:0,0:0:0:0:
161,265,158333,2,0,L|163:344,1,73.3333333333333,2|0,0:3|0:0,0:0:0:0:
124,367,158611,1,8,0:0:0:0:
27,261,158888,1,2,0:3:0:0:
132,164,159166,6,0,P|181:161|238:198,1,110,8|2,0:1|0:3,0:0:0:0:
278,274,159629,1,0,0:0:0:0:
278,274,159722,1,8,0:0:0:0:
340,146,159999,1,2,0:3:0:0:
407,272,160277,6,0,B|414:313|385:344|385:344|416:343,1,110,8|2,0:1|0:3,0:0:0:0:
491,282,160740,1,0,0:0:0:0:
491,282,160833,1,8,0:0:0:0:
428,153,161111,2,0,P|465:147|499:165,1,73.3333333333333,2|0,0:3|0:0,0:0:0:0:
497,177,161388,6,0,P|417:180|359:89,1,183.333333333333,4|0,0:0|0:0,0:0:0:0:
366,55,161944,1,8,0:0:0:0:
266,157,162222,1,2,0:3:0:0:
179,43,162499,6,0,B|201:18|201:18|222:55,1,73.3333333333333,8|0,0:1|0:0,0:0:0:0:
188,88,162777,2,0,B|166:113|166:113|145:76,1,73.3333333333333,2|0,0:3|0:0,0:0:0:0:
118,39,163055,1,8,0:0:0:0:
19,142,163333,1,2,0:3:0:0:
143,213,163611,6,0,P|152:255|139:288,2,73.3333333333333,10|2|2,0:0|0:0|0:0,0:0:0:0:
246,338,164166,2,0,P|227:370|187:387,2,73.3333333333333,8|2|2,0:0|0:0|0:0,0:0:0:0:
358,347,164722,5,2,0:1:0:0:
303,215,164999,1,2,0:1:0:0:
436,164,165277,1,2,1:0:0:0:
491,296,165554,1,2,1:0:0:0:
358,347,165833,6,0,P|341:315|373:347,1,110,2|2,0:3|0:3,0:0:0:0:
