osu file format v14

[General]
AudioFilename: audio.ogg
AudioLeadIn: 0
PreviewTime:56239
Countdown: 0
SampleSet: Soft
StackLeniency: 1
Mode: 0
LetterboxInBreaks: 0
WidescreenStoryboard: 1

[Editor]
Bookmarks: 5682,8091,15099,29113,43018,57142,71157,85172
DistanceSpacing: 0.7
BeatDivisor: 8
GridSize: 32
TimelineZoom: 3.099999

[Metadata]
Title:Tokyo Shandy Rendez-vous feat. KAF, Tsumiki (TV Size)
TitleUnicode:トウキョウ・シャンディ・ランデヴ feat. 花譜, ツミキ (TV Size)
Artist:MAISONdes
ArtistUnicode:MAISONdes
Creator:Ryuusei Aika
Version:nooj's Insane
Source:うる星やつら
Tags:Gorou Wanpachi Cycopton Astrolis nooj midorijeon メゾン・デ 239 Urusei Yatsura Japanese Pop J-Pop Jpop Female Vocal Anime Ending ED Lum ラム
BeatmapID:4135390
BeatmapSetID:1981688

[Difficulty]
HPDrainRate:5
CircleSize:4
OverallDifficulty:8
ApproachRate:9
SliderMultiplier:2.00000000596046
SliderTickRate:1

[Events]
//Background and Video events
0,0,"bg.jpg",0,0
//Break Periods
//Storyboard Layer 0 (Background)
//Storyboard Layer 1 (Fail)
//Storyboard Layer 2 (Pass)
//Storyboard Layer 3 (Foreground)
//Storyboard Layer 4 (Overlay)
//Storyboard Sound Samples

[TimingPoints]
-640,437.956204379562,4,2,0,50,1,0
564,-100,4,2,1,50,0,0
5819,-83.3333333333333,4,2,2,50,0,0
5929,-83.3333333333333,4,2,3,50,0,0
6038,-100,4,2,1,50,0,0
6148,-100,4,2,1,65,0,0
6257,-100,4,2,2,65,0,0
6476,-133.333333333333,4,2,3,65,0,0
8119,-83.3333333333333,4,2,4,75,0,0
8338,-83.3333333333333,4,2,5,75,0,0
8557,-83.3333333333333,4,2,6,75,0,0
8776,-83.3333333333333,4,2,5,75,0,0
8995,-83.3333333333333,4,2,1,75,0,0
9214,-83.3333333333333,4,2,2,75,0,0
9323,-83.3333333333333,4,2,6,75,0,0
9651,-83.3333333333333,4,2,5,75,0,0
9761,-83.3333333333333,4,2,1,75,0,0
10089,-83.3333333333333,4,2,5,75,0,0
10144,-83.3333333333333,4,2,6,75,0,0
10527,-83.3333333333333,4,2,5,75,0,0
10746,-83.3333333333333,4,2,1,75,0,0
10965,-83.3333333333333,4,2,7,75,0,0
11184,-83.3333333333333,4,2,5,75,0,0
11294,-83.3333333333333,4,2,1,75,0,0
11403,-83.3333333333333,4,2,5,75,0,0
11513,-83.3333333333333,4,2,1,75,0,0
11841,-83.3333333333333,4,2,2,75,0,0
12060,-83.3333333333333,4,2,6,75,0,0
12279,-83.3333333333333,4,2,5,75,0,0
12498,-83.3333333333333,4,2,1,75,0,0
12717,-83.3333333333333,4,2,2,75,0,0
12827,-83.3333333333333,4,2,6,75,0,0
13155,-83.3333333333333,4,2,5,75,0,0
13265,-83.3333333333333,4,2,8,75,0,0
13648,-83.3333333333333,4,2,1,75,0,0
13812,-83.3333333333333,4,2,9,75,0,0
14359,-83.3333333333333,4,2,6,75,0,0
15126,-250,4,2,6,60,0,0
15345,-250,4,2,10,60,0,0
15564,-250,4,2,1,60,0,0
15783,-250,4,2,10,60,0,0
15892,-250,4,2,1,60,0,0
16002,-133.333333333333,4,2,1,60,0,0
16221,-133.333333333333,4,2,10,60,0,0
16330,-133.333333333333,4,2,3,60,0,0
17097,-133.333333333333,4,2,10,60,0,0
17206,-133.333333333333,4,2,1,60,0,0
17535,-133.333333333333,4,2,10,60,0,0
17644,-133.333333333333,4,2,1,60,0,0
17973,-133.333333333333,4,2,10,60,0,0
18082,-133.333333333333,4,2,3,60,0,0
18849,-133.333333333333,4,2,10,60,0,0
19068,-133.333333333333,4,2,1,60,0,0
19287,-133.333333333333,4,2,10,60,0,0
19505,-133.333333333333,4,2,1,60,0,0
19724,-133.333333333333,4,2,10,60,0,0
19834,-133.333333333333,4,2,3,60,0,0
20600,-133.333333333333,4,2,10,60,0,0
20819,-133.333333333333,4,2,1,60,0,0
21038,-133.333333333333,4,2,10,60,0,0
21148,-133.333333333333,4,2,1,60,0,0
21476,-133.333333333333,4,2,10,60,0,0
21695,-133.333333333333,4,2,3,60,0,0
22133,-133.333333333333,4,2,4,60,0,0
22352,-133.333333333333,4,2,10,60,0,0
22571,-133.333333333333,4,2,3,60,0,0
23228,-133.333333333333,4,2,10,60,0,0
23447,-133.333333333333,4,2,3,60,0,0
24104,-133.333333333333,4,2,10,60,0,0
24214,-133.333333333333,4,2,3,60,0,0
25418,-133.333333333333,4,2,10,60,0,0
25527,-133.333333333333,4,2,1,60,0,0
25856,-133.333333333333,4,2,10,60,0,0
26075,-133.333333333333,4,2,1,60,0,0
26294,-133.333333333333,4,2,10,60,0,0
26403,-133.333333333333,4,2,1,60,0,0
26732,-133.333333333333,4,2,10,60,0,0
26951,-133.333333333333,4,2,1,60,0,0
27170,-133.333333333333,4,2,10,60,0,0
27279,-133.333333333333,4,2,1,60,0,0
27389,-133.333333333333,4,2,4,60,0,0
27608,-133.333333333333,4,2,10,60,0,0
27827,-133.333333333333,4,2,3,60,0,0
28046,-133.333333333333,4,2,11,60,0,0
28155,-133.333333333333,4,2,1,60,0,0
28265,-133.333333333333,4,2,3,60,0,0
28374,-133.333333333333,4,2,1,60,0,0
28484,-133.333333333333,4,2,5,60,0,0
28593,-133.333333333333,4,2,2,60,0,0
28922,-133.333333333333,4,2,3,60,0,0
29031,-117.647058823529,4,2,3,65,0,0
29359,-117.647058823529,4,2,10,65,0,0
29578,-117.647058823529,4,2,6,65,0,0
29797,-117.647058823529,4,2,10,65,0,0
30016,-117.647058823529,4,2,1,65,0,0
30235,-117.647058823529,4,2,10,65,0,0
30345,-117.647058823529,4,2,6,65,0,0
30673,-117.647058823529,4,2,3,65,0,0
31111,-117.647058823529,4,2,10,65,0,0
31221,-117.647058823529,4,2,6,65,0,0
31549,-117.647058823529,4,2,10,65,0,0
31768,-117.647058823529,4,2,1,65,0,0
31987,-117.647058823529,4,2,10,65,0,0
32097,-117.647058823529,4,2,6,65,0,0
32425,-117.647058823529,4,2,3,65,0,0
32863,-117.647058823529,4,2,10,65,0,0
33082,-117.647058823529,4,2,6,65,0,0
33301,-117.647058823529,4,2,10,65,0,0
33520,-117.647058823529,4,2,1,65,0,0
33739,-117.647058823529,4,2,10,65,0,0
33849,-117.647058823529,4,2,6,65,0,0
34177,-117.647058823529,4,2,3,65,0,0
34615,-117.647058823529,4,2,10,65,0,0
34834,-117.647058823529,4,2,6,65,0,0
35053,-117.647058823529,4,2,10,65,0,0
35272,-117.647058823529,4,2,1,65,0,0
35491,-117.647058823529,4,2,10,65,0,0
35710,-117.647058823529,4,2,6,65,0,0
35929,-117.647058823529,4,2,3,65,0,0
36367,-117.647058823529,4,2,10,65,0,0
36586,-117.647058823529,4,2,6,65,0,0
36805,-117.647058823529,4,2,3,65,0,0
36914,-100,4,2,3,65,0,0
37243,-100,4,2,10,65,0,0
37462,-100,4,2,6,65,0,0
37681,-100,4,2,3,65,0,0
37790,-83.3333333333333,4,2,3,65,0,0
38119,-83.3333333333333,4,2,10,65,0,0
38228,-83.3333333333333,4,2,6,65,0,0
38557,-83.3333333333333,4,2,3,65,0,0
38666,-133.333333333333,4,2,3,65,0,0
39214,-133.333333333333,4,2,6,65,0,0
39432,-133.333333333333,4,2,3,65,0,0
39542,-117.647058823529,4,2,3,65,0,0
39870,-117.647058823529,4,2,10,65,0,0
39980,-117.647058823529,4,2,6,65,0,0
40308,-117.647058823529,4,2,3,65,0,0
40746,-117.647058823529,4,2,10,65,0,0
40856,-117.647058823529,4,2,6,65,0,0
41184,-117.647058823529,4,2,3,65,0,0
41403,-117.647058823529,4,2,4,65,0,0
41622,-117.647058823529,4,2,10,65,0,0
41841,-117.647058823529,4,2,3,65,0,0
42060,-117.647058823529,4,2,11,65,0,0
42170,-117.647058823529,4,2,3,65,0,0
42498,-117.647058823529,4,2,10,65,0,0
42608,-117.647058823529,4,2,1,65,0,0
42717,-117.647058823529,4,2,3,65,0,0
43046,-76.9230769230769,4,2,3,70,0,0
43593,-100,4,2,12,70,0,0
43812,-100,4,2,10,70,0,0
44031,-100,4,2,3,70,0,0
44469,-100,4,2,12,70,0,0
44688,-100,4,2,10,70,0,0
44797,-100,4,2,1,70,0,0
45126,-100,4,2,10,70,0,0
45235,-100,4,2,12,70,0,0
45564,-100,4,2,10,70,0,0
45783,-100,4,2,1,70,0,0
46002,-100,4,2,13,70,0,0
46111,-100,4,2,14,70,0,0
46440,-100,4,2,10,70,0,0
46549,-100,4,2,1,70,0,0
46878,-100,4,2,10,70,0,0
47097,-100,4,2,12,70,0,0
47316,-100,4,2,10,70,0,0
47535,-100,4,2,1,70,0,0
47754,-100,4,2,10,70,0,0
47863,-100,4,2,12,70,0,0
48192,-100,4,2,3,70,0,0
48630,-100,4,2,10,70,0,0
48739,-100,4,2,12,70,0,0
49068,-100,4,2,10,70,0,0
49287,-100,4,2,1,70,0,0
49505,-100,4,2,13,70,0,0
49615,-100,4,2,14,70,0,0
49943,-100,4,2,3,70,0,0
50053,-76.9230769230769,4,2,3,70,0,0
50600,-100,4,2,12,70,0,0
50819,-100,4,2,10,70,0,0
51038,-100,4,2,3,70,0,0
51476,-100,4,2,12,70,0,0
51695,-100,4,2,3,70,0,0
52133,-100,4,2,10,70,0,0
52243,-100,4,2,12,70,0,0
52571,-100,4,2,10,70,0,0
52790,-100,4,2,1,70,0,0
53009,-100,4,2,15,70,0,0
53228,-100,4,2,14,70,0,0
53447,-100,4,2,10,70,0,0
53557,-100,4,2,1,70,0,0
53885,-100,4,2,10,70,0,0
54104,-100,4,2,12,70,0,0
54323,-100,4,2,10,70,0,0
54542,-100,4,2,1,70,0,0
54761,-100,4,2,10,70,0,0
54870,-100,4,2,12,70,0,0
55199,-100,4,2,3,70,0,0
55856,-100,4,2,1,70,0,0
56075,-100,4,2,3,70,0,0
56294,-250,4,2,3,50,0,0
57170,-66.6666666666667,4,2,4,80,0,1
57389,-66.6666666666667,4,2,2,80,0,1
57553,-66.6666666666667,4,2,2,5,0,1
57608,-66.6666666666667,4,2,6,80,0,1
57827,-66.6666666666667,4,2,2,80,0,1
58046,-500,4,2,1,80,0,1
58265,-500,4,2,2,80,0,1
58484,-500,4,2,6,80,0,1
58703,-500,4,2,5,80,0,1
58922,-83.3333333333333,4,2,1,80,0,1
59141,-83.3333333333333,4,2,5,80,0,1
59359,-83.3333333333333,4,2,6,80,0,1
59578,-83.3333333333333,4,2,5,80,0,1
59688,-83.3333333333333,4,2,1,80,0,1
59797,-133.333333333333,4,2,1,80,0,1
60016,-133.333333333333,4,2,7,80,0,1
60235,-133.333333333333,4,2,9,80,0,1
60454,-133.333333333333,4,2,5,80,0,1
60673,-83.3333333333333,4,2,1,80,0,1
60892,-83.3333333333333,4,2,2,80,0,1
61002,-83.3333333333333,4,2,6,80,0,1
61330,-83.3333333333333,4,2,5,80,0,1
61549,-76.9230769230769,4,2,1,80,0,1
61768,-76.9230769230769,4,2,2,80,0,1
61878,-76.9230769230769,4,2,6,80,0,1
62206,-76.9230769230769,4,2,5,80,0,1
62425,-71.4285714285714,4,2,1,80,0,1
62644,-71.4285714285714,4,2,5,80,0,1
62754,-71.4285714285714,4,2,6,80,0,1
63082,-71.4285714285714,4,2,5,80,0,1
63301,-71.4285714285714,4,2,1,80,0,1
63520,-71.4285714285714,4,2,16,80,0,1
63739,-71.4285714285714,4,2,9,80,0,1
63958,-71.4285714285714,4,2,17,80,0,1
64177,-66.6666666666667,4,2,18,80,0,1
64396,-66.6666666666667,4,2,2,80,0,1
64560,-66.6666666666667,4,2,2,5,0,1
64615,-66.6666666666667,4,2,6,80,0,1
64834,-66.6666666666667,4,2,2,80,0,1
65053,-500,4,2,1,80,0,1
65272,-500,4,2,2,80,0,1
65491,-500,4,2,6,80,0,1
65710,-500,4,2,5,80,0,1
65929,-83.3333333333333,4,2,1,80,0,1
66148,-83.3333333333333,4,2,5,80,0,1
66257,-83.3333333333333,4,2,6,80,0,1
66586,-83.3333333333333,4,2,5,80,0,1
66695,-83.3333333333333,4,2,1,80,0,1
67024,-83.3333333333333,4,2,16,80,0,1
67243,-83.3333333333333,4,2,9,80,0,1
67462,-83.3333333333333,4,2,5,80,0,1
67681,-83.3333333333333,4,2,1,80,0,1
67900,-83.3333333333333,4,2,2,80,0,1
68009,-83.3333333333333,4,2,6,80,0,1
68338,-83.3333333333333,4,2,5,80,0,1
68557,-76.9230769230769,4,2,1,80,0,1
68776,-76.9230769230769,4,2,2,80,0,1
68885,-76.9230769230769,4,2,6,80,0,1
69214,-71.4285714285714,4,2,5,80,0,1
69432,-83.3333333333333,4,2,1,80,0,1
69651,-83.3333333333333,4,2,5,80,0,1
69761,-83.3333333333333,4,2,1,80,0,1
69870,-83.3333333333333,4,2,17,80,0,1
69980,-83.3333333333333,4,2,1,80,0,1
70089,-83.3333333333333,4,2,2,80,0,1
70199,-83.3333333333333,4,2,1,80,0,1
70527,-83.3333333333333,4,2,5,80,0,1
70637,-83.3333333333333,4,2,4,80,0,1
70746,-83.3333333333333,4,2,9,80,0,1
70856,-83.3333333333333,4,2,17,80,0,1
71184,-66.6666666666667,4,2,4,80,0,1
71403,-66.6666666666667,4,2,2,80,0,1
71567,-66.6666666666667,4,2,2,5,0,1
71622,-66.6666666666667,4,2,6,80,0,1
71841,-66.6666666666667,4,2,2,80,0,1
72060,-500,4,2,1,80,0,1
72279,-500,4,2,2,80,0,1
72498,-500,4,2,6,80,0,1
72717,-500,4,2,5,80,0,1
72936,-83.3333333333333,4,2,1,80,0,1
73155,-83.3333333333333,4,2,5,80,0,1
73374,-83.3333333333333,4,2,6,80,0,1
73593,-83.3333333333333,4,2,5,80,0,1
73703,-83.3333333333333,4,2,1,80,0,1
73811,-133.333333333333,4,2,1,80,0,1
74031,-133.333333333333,4,2,7,80,0,1
74250,-133.333333333333,4,2,9,80,0,1
74469,-133.333333333333,4,2,5,80,0,1
74687,-83.3333333333333,4,2,1,80,0,1
74907,-83.3333333333333,4,2,2,80,0,1
75016,-83.3333333333333,4,2,6,80,0,1
75345,-83.3333333333333,4,2,5,80,0,1
75563,-76.9230769230769,4,2,1,80,0,1
75783,-76.9230769230769,4,2,2,80,0,1
75892,-76.9230769230769,4,2,6,80,0,1
76221,-76.9230769230769,4,2,5,80,0,1
76439,-71.4285714285714,4,2,1,80,0,1
76659,-71.4285714285714,4,2,5,80,0,1
76768,-71.4285714285714,4,2,6,80,0,1
77097,-71.4285714285714,4,2,5,80,0,1
77316,-71.4285714285714,4,2,1,80,0,1
77535,-71.4285714285714,4,2,16,80,0,1
77754,-71.4285714285714,4,2,9,80,0,1
77973,-71.4285714285714,4,2,17,80,0,1
78192,-66.6666666666667,4,2,18,80,0,1
78411,-66.6666666666667,4,2,2,80,0,1
78575,-66.6666666666667,4,2,2,5,0,1
78630,-66.6666666666667,4,2,6,80,0,1
78849,-66.6666666666667,4,2,2,80,0,1
79068,-500,4,2,1,80,0,1
79287,-500,4,2,2,80,0,1
79505,-500,4,2,6,80,0,1
79724,-500,4,2,5,80,0,1
79944,-83.3333333333333,4,2,1,80,0,1
80162,-83.3333333333333,4,2,5,80,0,1
80272,-83.3333333333333,4,2,6,80,0,1
80600,-83.3333333333333,4,2,5,80,0,1
80710,-83.3333333333333,4,2,1,80,0,1
81038,-83.3333333333333,4,2,16,80,0,1
81257,-83.3333333333333,4,2,9,80,0,1
81476,-83.3333333333333,4,2,5,80,0,1
81695,-83.3333333333333,4,2,1,80,0,1
81914,-83.3333333333333,4,2,2,80,0,1
82024,-83.3333333333333,4,2,6,80,0,1
82352,-83.3333333333333,4,2,5,80,0,1
82572,-76.9230769230769,4,2,1,80,0,1
82790,-76.9230769230769,4,2,2,80,0,1
82900,-76.9230769230769,4,2,6,80,0,1
83229,-71.4285714285714,4,2,5,80,0,1
83447,-100,4,2,3,80,0,1
83666,-100,4,2,3,50,0,1
84323,-100,4,2,3,75,0,1
84761,-100,4,2,3,75,0,0
85418,-100,4,2,11,75,0,0
85527,-100,4,2,1,75,0,0
85746,-100,4,2,11,75,0,0
85856,-100,4,2,3,75,0,0
86075,-100,4,2,11,75,0,0
86184,-100,4,2,1,75,0,0
86513,-100,4,2,10,75,0,0
86732,-100,4,2,3,75,0,0
87170,-100,4,2,10,75,0,0
87389,-100,4,2,3,75,0,0
87608,-100,4,2,10,75,0,0
87827,-100,4,2,3,75,0,0
88046,-100,4,2,10,75,0,0
88265,-100,4,2,3,75,0,0
88484,-100,4,2,8,75,0,0

[Colours]
Combo1 : 173,255,95
Combo2 : 193,132,255
Combo3 : 17,254,176
Combo4 : 255,128,255

[HitObjects]
261,175,5710,5,2,2:2:0:0:
293,246,5819,2,0,L|335:259,2,29.9999991738796,8|8|10,3:2|2:2|2:2,0:0:0:0:
232,296,6038,6,0,L|217:354,1,50.0000001490115,10|4,2:3|3:3,0:0:0:0:
283,96,6257,1,2,3:2:0:0:
283,96,6476,6,0,L|273:58,3,37.5000015422702,2|2|2|2,2:2|2:2|2:2|2:2,0:0:0:0:
213,6,7024,1,2,2:2:0:0:
474,111,7243,5,10,1:2:0:0:
261,175,7462,1,10,1:2:0:0:
48,239,7681,2,0,L|10:231,1,37.5000015422702,2|2,2:2|2:2,0:0:0:0:
0,157,8009,5,2,2:2:0:0:
118,280,8119,2,0,P|168:237|169:177,1,119.999996695518,6|2,1:2|2:2,0:0:0:0:
70,44,8557,2,0,P|53:77|64:116,1,59.9999983477592,10|0,1:2|0:0,0:0:0:0:
96,168,8776,1,2,2:2:0:0:
283,158,8995,6,0,B|358:183|335:195|396:224,1,119.999996695518,2|2,1:2|2:3,0:0:0:0:
440,273,9323,1,2,2:2:0:0:
506,233,9432,1,8,1:2:0:0:
506,233,9651,5,2,2:2:0:0:
462,350,9761,2,0,B|405:370|405:370|353:323,1,119.999996695518,2|2,2:2|2:2,0:0:0:0:
344,301,10089,6,0,L|327:340,2,39.9999988985061,2|2|2,2:2|2:2|2:2,0:0:0:0:
263,294,10308,1,10,1:2:0:0:
263,294,10527,1,2,2:2:0:0:
118,340,10746,2,0,L|-15:384,2,119.999996695518,2|10|8,1:2|1:2|1:2,0:0:0:0:
189,372,11294,5,2,2:2:0:0:
253,328,11403,2,0,L|233:263,1,59.9999983477592,2|2,2:2|2:2,0:0:0:0:
292,213,11622,5,2,1:2:0:0:
156,269,11732,2,0,P|106:240|93:173,1,119.999996695518,2|0,2:2|0:0,0:0:0:0:
34,128,12060,2,0,P|49:105|94:101,1,59.9999983477592,10|0,1:2|0:0,0:0:0:0:
117,167,12279,1,2,2:2:0:0:
274,84,12498,6,0,B|352:59|307:44|381:23,1,119.999996695518,2|2,1:2|2:3,0:0:0:0:
445,60,12827,1,2,2:2:0:0:
512,27,12936,1,8,1:2:0:0:
512,27,13155,5,2,1:2:0:0:
405,133,13265,2,0,B|430:186|430:186|491:193,1,119.999996695518,2|0,1:2|0:0,0:0:0:0:
506,180,13593,6,0,L|516:222,2,39.9999988985061,10|2|2,1:2|2:2|2:2,0:0:0:0:
511,104,13812,5,10,1:2:0:0:
306,58,14031,1,2,1:2:0:0:
101,12,14250,1,2,1:2:0:0:
101,12,14469,5,2,1:2:0:0:
139,33,14578,1,2,1:2:0:0:
153,72,14688,1,10,2:2:0:0:
174,108,14797,1,10,2:2:0:0:
212,124,14907,1,10,2:2:0:0:
253,118,15016,1,10,2:2:0:0:
228,38,15126,6,0,L|241:-19,2,40.0000001192092,6|2|2,1:2|2:2|1:2,0:0:0:0:
317,48,15783,1,2,2:2:0:0:
317,48,15892,1,2,2:2:0:0:
317,48,16002,2,0,P|355:57|393:83,1,75.0000030845403,2|2,1:2|2:2,0:0:0:0:
466,67,16440,1,0,1:1:0:0:
466,67,16549,1,2,2:2:0:0:
512,0,16768,6,0,B|484:109|454:68|422:177,1,187.500007711351,2|0,2:2|1:1,0:0:0:0:
425,164,17535,5,2,2:2:0:0:
480,222,17754,1,2,1:2:0:0:
380,259,17973,2,0,P|336:271|273:334,1,112.50000462681,2|2,2:2|2:2,0:0:0:0:
240,239,18520,6,0,B|158:197|201:171|78:127,1,187.500007711351,2|2,2:2|1:2,0:0:0:0:
90,132,19287,5,2,2:2:0:0:
13,110,19505,1,2,1:2:0:0:
13,23,19724,1,2,2:2:0:0:
13,23,19834,2,0,P|57:31|71:69,1,75.0000030845403,2|2,2:2|2:2,0:0:0:0:
32,196,20272,6,0,B|49:288|70:246|87:343,1,150.000006169081,2|0,2:2|0:0,0:0:0:0:
85,334,21476,5,2,2:2:0:0:
26,384,21695,1,2,1:2:0:0:
26,384,21805,1,2,2:2:0:0:
2,280,22024,2,0,P|52:262|113:222,1,112.50000462681,2|2,2:2|2:2,0:0:0:0:
183,246,22571,1,2,1:2:0:0:
183,246,22681,1,2,2:2:0:0:
245,195,22900,2,0,P|303:213|357:226,1,112.50000462681,2|2,2:2|2:2,0:0:0:0:
487,267,23447,5,2,1:2:0:0:
487,267,23557,1,2,2:2:0:0:
507,168,23776,1,2,2:2:0:0:
507,168,23885,2,0,P|468:180|418:186,1,75.0000030845403,0|2,1:1|2:2,0:0:0:0:
404,229,24214,1,2,2:2:0:0:
404,229,24323,1,2,1:2:0:0:
404,229,24432,1,2,2:2:0:0:
290,295,24651,2,0,P|228:270|149:261,1,112.50000462681,2|2,2:2|2:3,0:0:0:0:
126,317,25199,5,2,1:2:0:0:
108,319,25308,1,2,2:2:0:0:
96,310,25418,1,2,2:2:0:0:
99,295,25527,1,2,2:2:0:0:
319,216,25856,1,2,2:2:0:0:
319,216,26075,6,0,P|302:177|298:157,1,37.5000015422702,2|0,1:2|0:0,0:0:0:0:
244,132,26294,1,2,2:2:0:0:
244,132,26403,2,0,P|256:65|260:8,1,112.50000462681,2|2,2:2|2:2,0:0:0:0:
334,0,26951,5,2,1:2:0:0:
180,71,27170,1,2,2:2:0:0:
180,71,27279,1,2,2:2:0:0:
180,71,27389,2,0,L|96:46,1,75.0000030845403,2|10,1:3|2:2,0:0:0:0:
304,185,27827,5,10,1:2:0:0:
234,275,28046,1,10,2:2:0:0:
317,307,28155,2,0,L|312:288,2,18.7500007711351,10|8|8,2:3|2:3|1:2,0:0:0:0:
299,384,28374,1,4,2:3:0:0:
299,384,28484,1,6,2:3:0:0:
299,384,28593,5,2,1:2:0:0:
271,208,28812,1,2,1:2:0:0:
243,32,29031,2,0,P|295:77|298:157,1,127.500002811849,6|2,1:2|1:2,0:0:0:0:
186,209,29578,6,0,L|128:192,1,42.500000937283,14|0,1:2|0:0,0:0:0:0:
120,169,29797,1,2,2:2:0:0:
37,302,30016,6,0,P|31:241|60:205,1,85.0000018745659,2|2,1:2|2:2,0:0:0:0:
64,229,30345,1,2,2:2:0:0:
189,127,30564,1,2,2:2:0:0:
17,72,30783,2,0,B|94:101|57:127|137:158,1,127.500002811849,2|2,2:2|2:2,0:0:0:0:
266,99,31330,6,0,L|328:81,1,42.500000937283,10|0,1:2|0:0,0:0:0:0:
327,106,31549,1,2,2:2:0:0:
282,176,31768,5,2,1:2:0:0:
410,87,31987,1,2,2:2:0:0:
410,87,32097,2,0,P|470:108|512:115,1,85.0000018745659,2|2,2:2|2:2,0:0:0:0:
342,0,32535,6,0,L|401:228,1,212.500004686415,2|10,2:2|1:2,0:0:0:0:
395,205,33301,6,0,L|367:153,1,42.500000937283,2|0,2:2|0:0,0:0:0:0:
341,151,33520,1,2,1:2:0:0:
424,282,33739,1,2,2:2:0:0:
424,282,33849,2,0,P|477:303|522:277,1,85.0000018745659,2|2,2:2|2:2,0:0:0:0:
350,310,34287,2,0,B|288:340|320:364|223:393,1,127.500002811849,2|2,2:2|2:2,0:0:0:0:
248,384,34834,5,10,1:2:0:0:
0,326,35272,1,2,1:2:0:0:
54,381,35491,5,2,2:2:0:0:
174,341,35710,1,10,1:2:0:0:
174,341,35819,2,0,L|118:358,1,42.500000937283,2|2,2:2|2:3,0:0:0:0:
10,384,36038,6,0,P|31:356|71:292,1,85.0000018745659,2|0,2:2|0:0,0:0:0:0:
43,240,36367,1,2,2:2:0:0:
123,171,36586,1,10,1:2:0:0:
123,171,36695,1,2,2:2:0:0:
10,384,36914,6,0,P|31:325|42:253,1,100.000000298023,2|0,2:2|0:0,0:0:0:0:
0,223,37243,1,2,2:2:0:0:
105,132,37462,1,10,1:2:0:0:
105,132,37571,1,2,2:2:0:0:
10,384,37790,6,0,P|63:333|141:283,1,119.999996695518,2|0,2:2|0:0,0:0:0:0:
132,235,38119,1,2,2:2:0:0:
132,235,38228,2,0,P|178:228|216:219,1,59.9999983477592,2|8,2:2|1:2,0:0:0:0:
243,168,38447,1,2,2:2:0:0:
361,126,38666,2,0,P|399:82|445:50,1,112.50000462681,2|2,2:2|2:3,0:0:0:0:
512,17,39214,5,10,1:2:0:0:
512,17,39323,1,2,2:2:0:0:
341,9,39542,6,0,P|302:36|308:87,1,85.0000018745659,2|0,2:2|0:0,0:0:0:0:
247,132,39870,1,2,2:2:0:0:
247,132,39980,2,0,P|209:121|192:87,1,42.500000937283,2|8,2:2|1:2,0:0:0:0:
166,57,40199,1,2,2:2:0:0:
37,69,40418,6,0,P|123:50|174:6,1,127.500002811849,2|2,2:2|2:2,0:0:0:0:
229,14,40856,1,2,2:2:0:0:
393,78,41075,1,2,2:2:0:0:
463,36,41294,1,2,2:2:0:0:
463,36,41403,1,2,1:3:0:0:
262,98,41622,5,10,2:2:0:0:
312,0,41841,2,0,L|323:54,1,42.500000937283,10|0,1:2|0:0,0:0:0:0:
177,146,42060,2,0,L|185:104,1,42.500000937283,10|10,2:2|2:2,0:0:0:0:
308,162,42279,5,2,1:2:0:0:
315,199,42389,1,8,2:2:0:0:
288,226,42498,1,10,2:2:0:0:
245,220,42608,2,0,L|236:182,2,21.2500004686415,8|8|10,2:3|2:3|2:2,0:0:0:0:
275,367,42827,1,2,1:2:0:0:
275,367,43046,6,0,P|203:330|199:263,1,129.999994436502,6|2,1:2|1:2,0:0:0:0:
290,135,43374,1,2,2:3:0:0:
344,196,43593,6,0,L|402:216,1,50.0000001490115,10|0,2:2|0:0,0:0:0:0:
462,167,43812,1,2,1:2:0:0:
279,253,44031,6,0,P|245:216|184:199,1,100.000000298023,2|2,1:2|2:3,0:0:0:0:
124,230,44359,2,0,L|110:177,1,50.0000001490115,2|8,1:2|2:2,0:0:0:0:
6,354,44797,6,0,P|114:332|158:293,1,150.000000447035,2|2,1:2|2:2,0:0:0:0:
200,334,45235,1,2,1:2:0:0:
200,334,45345,2,0,L|179:278,1,50.0000001490115,10|0,2:2|0:0,0:0:0:0:
357,232,45564,1,2,1:2:0:0:
261,287,45783,6,0,L|458:340,1,200.000000596046,2|8,1:2|2:2,0:0:0:0:
454,338,46330,5,2,2:2:0:0:
423,305,46440,1,2,2:2:0:0:
434,255,46549,1,2,2:2:0:0:
493,212,46659,6,0,L|478:154,1,50.0000001490115,2|0,1:2|0:0,0:0:0:0:
510,285,46878,1,2,1:2:0:0:
281,199,47097,6,0,L|266:141,1,50.0000001490115,10|0,2:2|0:0,0:0:0:0:
298,272,47316,1,2,1:2:0:0:
69,186,47535,6,0,L|54:128,1,50.0000001490115,2|0,1:2|0:0,0:0:0:0:
86,259,47754,1,2,2:2:0:0:
35,312,47863,2,0,L|-7:353,1,50.0000001490115,2|8,1:2|2:2,0:0:0:0:
161,284,48082,1,2,2:2:0:0:
397,312,48301,6,0,P|357:330|304:373,1,100.000000298023,2|2,1:2|1:2,0:0:0:0:
238,341,48630,1,2,2:2:0:0:
222,361,48739,1,2,1:2:0:0:
232,384,48849,5,10,2:2:0:0:
256,192,49068,1,2,1:2:0:0:
280,0,49287,1,2,1:2:0:0:
280,0,49505,6,0,L|297:64,1,50.0000001490115,10|2,2:2|1:2,0:0:0:0:
274,167,49724,1,10,2:2:0:0:
232,103,49834,1,2,1:2:0:0:
479,15,50053,6,0,B|398:39|427:66|352:84,1,129.999994436502,6|2,1:2|2:2,0:0:0:0:
171,49,50381,1,2,1:3:0:0:
123,112,50600,6,0,L|71:127,1,50.0000001490115,10|0,1:2|0:0,0:0:0:0:
9,87,50819,1,2,2:2:0:0:
201,135,51038,6,0,P|240:167|251:228,1,100.000000298023,2|2,1:2|2:3,0:0:0:0:
326,244,51367,2,0,L|318:296,1,50.0000001490115,2|8,2:2|1:2,0:0:0:0:
499,384,51805,6,0,P|422:345|400:273,1,150.000000447035,2|2,2:2|2:2,0:0:0:0:
421,262,52243,1,2,2:2:0:0:
421,262,52352,6,0,L|487:237,1,50.0000001490115,10|0,1:2|0:0,0:0:0:0:
334,370,52571,1,2,2:2:0:0:
196,273,52790,2,0,L|-7:233,1,200.000000596046,2|10,1:2|1:2,0:0:0:0:
0,234,53338,5,2,2:2:0:0:
52,223,53448,1,2,2:2:0:0:
89,263,53557,1,2,2:2:0:0:
39,325,53667,6,0,L|54:383,1,50.0000001490115,2|0,1:2|0:0,0:0:0:0:
16,254,53886,1,2,2:2:0:0:
218,242,54105,6,0,L|233:300,1,50.0000001490115,10|0,1:2|0:0,0:0:0:0:
198,171,54324,1,2,2:2:0:0:
399,160,54542,6,0,L|414:218,1,50.0000001490115,2|0,1:2|0:0,0:0:0:0:
377,88,54761,1,2,2:2:0:0:
428,35,54870,2,0,L|470:-6,1,50.0000001490115,2|8,2:2|1:2,0:0:0:0:
301,63,55089,1,2,2:2:0:0:
111,161,55308,5,2,2:2:0:0:
72,130,55418,5,10,1:2:0:0:
72,130,55527,5,10,1:2:0:0:
229,142,55746,5,0,1:1:0:0:
207,129,55856,1,0,3:3:0:0:
210,103,55965,1,0,3:3:0:0:
178,33,56075,5,10,1:2:0:0:
102,42,56184,1,10,1:2:0:0:
102,42,56294,6,0,L|43:20,1,60.0000001788138,2|0,2:2|0:0,0:0:0:0:
35,16,56732,1,2,2:2:0:0:
128,119,56951,1,2,2:2:0:0:
450,7,57170,6,0,B|494:22|518:66|485:130|406:44|316:154,1,262.500010795891,6|0,1:2|0:0,0:0:0:0:
317,230,57608,2,0,B|311:280|390:289|360:126|251:148|215:194,1,225.000009253621,10|0,1:2|0:0,0:0:0:0:
122,287,58046,6,0,L|94:302,1,30.0000000894069,2|0,1:2|0:0,0:0:0:0:
33,246,58484,5,10,1:2:0:0:
175,351,58703,1,2,2:2:0:0:
130,209,58922,2,0,P|127:236|99:282,1,59.9999983477592,2|0,1:2|0:0,0:0:0:0:
28,355,59141,1,2,2:2:0:0:
207,236,59359,6,0,P|265:195|336:189,1,119.999996695518,10|2,1:2|2:2,0:0:0:0:
376,227,59688,1,2,2:2:0:0:
414,160,59797,2,0,L|406:121,1,37.5000015422702,0|0,1:1|0:0,0:0:0:0:
512,11,60016,2,0,L|509:50,1,37.5000015422702,10|0,1:2|0:0,0:0:0:0:
497,126,60235,5,10,1:2:0:0:
325,110,60454,1,2,2:2:0:0:
325,110,60564,1,0,0:0:0:0:
325,110,60673,2,0,P|263:171|252:218,1,119.999996695518,2|2,1:2|2:3,0:0:0:0:
179,220,61002,1,2,2:2:0:0:
144,287,61111,2,0,P|126:310|84:335,1,59.9999983477592,8|0,1:2|0:0,0:0:0:0:
26,332,61330,1,2,2:2:0:0:
229,102,61549,6,0,P|220:147|170:228,1,129.999994436502,2|2,1:2|2:3,0:0:0:0:
129,338,61878,1,2,2:2:0:0:
168,276,61987,2,0,P|215:241|248:234,1,64.9999972182512,8|0,1:2|0:0,0:0:0:0:
297,243,62206,1,2,2:2:0:0:
497,9,62425,6,0,P|462:65|386:125,1,139.999996144771,2|2,1:2|2:2,0:0:0:0:
374,231,62754,1,2,2:2:0:0:
297,209,62863,2,0,P|265:214|230:244,1,69.9999980723857,10|0,1:2|0:0,0:0:0:0:
156,250,63082,2,0,P|143:279|105:311,1,69.9999980723857,2|0,2:2|0:0,0:0:0:0:
31,300,63301,5,2,1:2:0:0:
257,203,63520,1,14,1:2:0:0:
483,106,63739,1,14,1:2:0:0:
445,263,63958,5,10,2:2:0:0:
445,263,64068,1,8,2:2:0:0:
512,308,64177,6,0,B|522:361|492:402|394:360|473:252|335:225,1,262.500010795891,6|0,1:2|0:0,0:0:0:0:
298,176,64615,2,0,B|272:97|194:72|127:110|118:164|197:179|166:113,1,225.000009253621,10|0,1:2|0:0,0:0:0:0:
50,29,65053,6,0,L|21:14,1,30.0000000894069,2|0,1:2|0:0,0:0:0:0:
0,90,65491,5,10,1:2:0:0:
165,45,65710,1,2,2:2:0:0:
236,161,65929,2,0,P|200:144|183:111,1,59.9999983477592,2|0,1:2|0:0,0:0:0:0:
116,146,66148,1,2,2:2:0:0:
116,146,66257,1,2,2:2:0:0:
93,70,66367,6,0,P|74:36|1:3,1,119.999996695518,10|2,1:2|2:2,0:0:0:0:
3,4,66695,1,2,2:2:0:0:
236,196,67024,6,0,P|255:231|286:252,1,59.9999983477592,10|0,1:2|0:0,0:0:0:0:
379,279,67243,1,10,1:2:0:0:
438,346,67462,1,2,2:2:0:0:
512,372,67681,6,0,P|475:328|406:305,1,119.999996695518,2|2,1:2|2:3,0:0:0:0:
342,301,68009,1,2,2:2:0:0:
298,237,68119,1,8,1:2:0:0:
298,237,68338,6,0,P|325:252|348:290,1,59.9999983477592,2|0,2:2|0:0,0:0:0:0:
212,227,68557,2,0,P|169:175|152:101,1,129.999994436502,2|2,1:2|2:3,0:0:0:0:
101,58,68885,1,2,2:2:0:0:
28,64,68995,1,8,1:2:0:0:
28,64,69214,6,0,P|24:36|-7:-11,1,69.9999980723857,2|0,2:2|0:0,0:0:0:0:
173,162,69432,6,0,P|232:185|241:184,1,59.9999983477592,2|0,1:2|0:0,0:0:0:0:
301,157,69651,1,2,2:2:0:0:
301,157,69761,1,2,2:2:0:0:
402,287,69980,2,0,P|424:330|492:361,1,119.999996695518,2|2,2:2|2:2,0:0:0:0:
487,361,70308,5,2,1:2:0:0:
261,264,70527,1,10,2:2:0:0:
35,171,70746,1,10,1:2:0:0:
35,171,70856,1,8,2:2:0:0:
35,171,70965,1,10,2:2:0:0:
35,171,71075,1,8,2:2:0:0:
118,166,71184,6,0,B|149:143|119:29|-32:3|-13:113|52:137,1,262.500010795891,6|0,1:2|0:0,0:0:0:0:
189,201,71622,2,0,B|216:284|321:247|372:273|345:332,1,225.000009253621,10|0,1:2|0:0,0:0:0:0:
485,361,72060,6,0,L|515:373,1,30.0000000894069,2|0,1:2|0:0,0:0:0:0:
404,380,72498,5,10,1:2:0:0:
354,247,72717,1,2,2:2:0:0:
512,304,72936,2,0,P|480:323|433:316,1,59.9999983477592,2|0,1:2|0:0,0:0:0:0:
428,304,73155,1,2,2:2:0:0:
280,280,73373,6,0,P|249:226|185:184,1,119.999996695518,10|2,1:2|2:2,0:0:0:0:
142,143,73702,1,2,2:2:0:0:
76,189,73811,2,0,L|30:172,1,37.5000015422702,0|0,1:1|0:0,0:0:0:0:
0,9,74030,2,0,L|47:30,1,37.5000015422702,10|0,1:2|0:0,0:0:0:0:
70,101,74249,5,10,1:2:0:0:
261,211,74468,1,2,2:2:0:0:
261,211,74578,1,0,0:0:0:0:
261,211,74687,2,0,P|193:204|146:163,1,119.999996695518,2|2,1:2|2:3,0:0:0:0:
118,112,75016,1,2,2:2:0:0:
103,39,75125,2,0,P|73:13|53:8,1,59.9999983477592,8|0,1:2|0:0,0:0:0:0:
14,24,75344,1,2,2:2:0:0:
203,213,75563,6,0,P|187:137|128:94,1,129.999994436502,2|2,1:2|2:3,0:0:0:0:
79,63,75892,1,2,2:2:0:0:
14,24,76001,2,0,P|30:67|64:80,1,64.9999972182512,8|0,1:2|0:0,0:0:0:0:
251,145,76221,1,2,2:2:0:0:
476,375,76439,6,0,P|408:317|375:257,1,139.999996144771,2|2,1:2|2:2,0:0:0:0:
251,145,76768,1,2,2:2:0:0:
253,218,76877,2,0,P|281:234|333:225,1,69.9999980723857,10|0,1:2|0:0,0:0:0:0:
371,171,77096,2,0,P|403:183|433:239,1,69.9999980723857,2|0,2:2|0:0,0:0:0:0:
482,270,77315,5,2,1:2:0:0:
256,173,77534,1,14,1:2:0:0:
30,76,77753,1,14,1:2:0:0:
75,292,77973,5,10,2:2:0:0:
75,292,78082,1,8,2:2:0:0:
31,358,78192,6,0,B|-20:331|-50:290|20:210|98:318|166:196,1,262.500010795891,6|0,1:2|0:0,0:0:0:0:
231,223,78630,2,0,B|296:254|413:200|338:57|242:155|338:151,1,225.000009253621,10|0,1:2|0:0,0:0:0:0:
472,38,79068,6,0,L|492:14,1,30.0000000894069,2|0,1:2|0:0,0:0:0:0:
512,106,79506,5,10,1:2:0:0:
346,39,79725,1,2,2:2:0:0:
268,154,79944,2,0,P|304:137|321:104,1,59.9999983477592,2|0,1:2|0:0,0:0:0:0:
413,148,80163,1,2,2:2:0:0:
413,148,80272,1,2,2:2:0:0:
419,70,80382,6,0,P|438:36|511:3,1,119.999996695518,10|2,1:2|2:2,0:0:0:0:
509,4,80710,1,2,2:2:0:0:
276,196,81039,6,0,P|257:231|226:252,1,59.9999983477592,10|0,1:2|0:0,0:0:0:0:
133,279,81258,1,10,1:2:0:0:
74,346,81477,1,2,2:2:0:0:
0,372,81696,6,0,P|37:328|106:305,1,119.999996695518,2|2,1:2|2:3,0:0:0:0:
170,301,82024,1,2,2:2:0:0:
214,237,82134,1,8,1:2:0:0:
214,237,82353,6,0,P|187:252|164:290,1,59.9999983477592,2|0,2:2|0:0,0:0:0:0:
300,227,82572,2,0,P|343:175|360:101,1,129.999994436502,2|2,1:2|2:3,0:0:0:0:
403,58,82900,1,2,2:2:0:0:
484,64,83010,1,8,1:2:0:0:
484,64,83229,6,0,P|488:36|519:-11,1,69.9999980723857,2|0,2:2|0:0,0:0:0:0:
388,191,83447,6,0,P|353:212|327:211,1,50.0000001490115,2|0,1:2|0:0,0:0:0:0:
293,157,83666,1,2,2:2:0:0:
293,157,83776,1,2,2:2:0:0:
213,122,83995,2,0,P|206:76|238:26,1,100.000000298023,2|2,2:2|2:2,0:0:0:0:
268,0,84323,5,10,1:2:0:0:
256,192,84542,1,10,1:2:0:0:
246,384,84761,1,10,1:2:0:0:
246,384,85199,5,6,1:2:0:0:
313,348,85418,5,10,2:2:0:0:
313,348,85527,1,6,1:2:0:0:
193,306,85746,5,10,2:2:0:0:
193,306,85855,1,6,1:2:0:0:
326,238,86075,5,10,2:2:0:0:
326,238,86184,2,0,L|389:262,1,50.0000001490115,6|0,1:2|0:0,0:0:0:0:
147,193,86403,1,0,1:1:0:0:
147,193,86513,1,14,2:2:0:0:
275,133,86732,5,2,1:3:0:0:
260,164,86841,1,2,2:3:0:0:
245,196,86951,1,8,1:2:0:0:
372,172,87170,5,10,2:2:0:0:
504,78,87389,1,10,1:2:0:0:
436,123,87608,1,10,1:2:0:0:
406,94,87717,1,0,1:1:0:0:
357,95,87827,1,2,1:2:0:0:
325,65,87936,1,8,2:2:0:0:
107,76,88155,5,0,1:1:0:0:
154,38,88265,1,10,2:2:0:0:
206,56,88374,1,2,2:2:0:0:
256,1,88484,5,6,1:2:0:0:
