osu file format v14

[General]
AudioFilename: audio.ogg
AudioLeadIn: 0
PreviewTime: 56239
Countdown: 0
SampleSet: Soft
StackLeniency: 1
Mode: 0
LetterboxInBreaks: 0
WidescreenStoryboard: 1

[Editor]
DistanceSpacing: 1.3
BeatDivisor: 8
GridSize: 32
TimelineZoom: 3.099999

[Metadata]
Title:Tokyo Shandy Rendez-vous feat. KAF, Tsumiki (TV Size)
TitleUnicode:トウキョウ・シャンディ・ランデヴ feat. 花譜, ツミキ (TV Size)
Artist:MAISONdes
ArtistUnicode:MAISONdes
Creator:Ryuusei Aika
Version:Astrolis' Hard
Source:うる星やつら
Tags:Gorou Wanpachi Cycopton Astrolis nooj midorijeon メゾン・デ 239 Urusei Yatsura Japanese Pop J-Pop Jpop Female Vocal Anime Ending ED Lum ラム
BeatmapID:4140238
BeatmapSetID:1981688

[Difficulty]
HPDrainRate:4
CircleSize:3.5
OverallDifficulty:6
ApproachRate:7.8
SliderMultiplier:1.50000000596046
SliderTickRate:1

[Events]
//Background and Video events
0,0,"bg.jpg",0,0
//Break Periods
2,1311,4931
//Storyboard Layer 0 (Background)
//Storyboard Layer 1 (Fail)
//Storyboard Layer 2 (Pass)
//Storyboard Layer 3 (Foreground)
//Storyboard Layer 4 (Overlay)
//Storyboard Sound Samples

[TimingPoints]
-640,437.956204379562,4,2,0,50,1,0
564,-100,4,2,1,50,0,0
5710,-100,4,2,1,50,0,0
5819,-100,4,2,2,50,0,0
5929,-100,4,2,3,50,0,0
6038,-100,4,2,1,50,0,0
6148,-100,4,2,1,65,0,0
6257,-100,4,2,2,65,0,0
6476,-100,4,2,3,65,0,0
7681,-100,4,2,3,65,0,0
8119,-100,4,2,4,75,0,0
8338,-100,4,2,5,75,0,0
8557,-100,4,2,6,75,0,0
8776,-100,4,2,5,75,0,0
8995,-100,4,2,1,75,0,0
9214,-100,4,2,2,75,0,0
9323,-100,4,2,6,75,0,0
9651,-100,4,2,5,75,0,0
9761,-100,4,2,1,75,0,0
10089,-100,4,2,5,75,0,0
10144,-100,4,2,6,75,0,0
10527,-100,4,2,5,75,0,0
10746,-100,4,2,1,75,0,0
10965,-100,4,2,7,75,0,0
11184,-100,4,2,5,75,0,0
11294,-100,4,2,1,75,0,0
11403,-100,4,2,5,75,0,0
11513,-100,4,2,1,75,0,0
11841,-100,4,2,2,75,0,0
12060,-100,4,2,6,75,0,0
12279,-100,4,2,5,75,0,0
12498,-100,4,2,1,75,0,0
12717,-100,4,2,2,75,0,0
12827,-100,4,2,6,75,0,0
13155,-100,4,2,5,75,0,0
13265,-100,4,2,8,75,0,0
13648,-100,4,2,1,75,0,0
13812,-100,4,2,9,75,0,0
14359,-100,4,2,6,75,0,0
15126,-117.647058823529,4,2,6,60,0,0
15345,-117.647058823529,4,2,10,60,0,0
15564,-117.647058823529,4,2,1,60,0,0
15783,-117.647058823529,4,2,10,60,0,0
15892,-117.647058823529,4,2,1,60,0,0
16221,-117.647058823529,4,2,10,60,0,0
16330,-117.647058823529,4,2,3,60,0,0
17097,-117.647058823529,4,2,10,60,0,0
17206,-117.647058823529,4,2,1,60,0,0
17535,-117.647058823529,4,2,10,60,0,0
17644,-117.647058823529,4,2,1,60,0,0
17973,-117.647058823529,4,2,10,60,0,0
18082,-117.647058823529,4,2,3,60,0,0
18849,-117.647058823529,4,2,10,60,0,0
19068,-117.647058823529,4,2,1,60,0,0
19287,-117.647058823529,4,2,10,60,0,0
19505,-117.647058823529,4,2,1,60,0,0
19724,-117.647058823529,4,2,10,60,0,0
19834,-117.647058823529,4,2,3,60,0,0
20600,-117.647058823529,4,2,10,60,0,0
20819,-117.647058823529,4,2,1,60,0,0
21038,-117.647058823529,4,2,10,60,0,0
21148,-117.647058823529,4,2,1,60,0,0
21476,-117.647058823529,4,2,10,60,0,0
21695,-117.647058823529,4,2,3,60,0,0
22133,-117.647058823529,4,2,4,60,0,0
22352,-117.647058823529,4,2,10,60,0,0
22571,-117.647058823529,4,2,3,60,0,0
23228,-117.647058823529,4,2,10,60,0,0
23447,-117.647058823529,4,2,3,60,0,0
24104,-117.647058823529,4,2,10,60,0,0
24214,-117.647058823529,4,2,3,60,0,0
25418,-117.647058823529,4,2,10,60,0,0
25527,-117.647058823529,4,2,1,60,0,0
25856,-117.647058823529,4,2,10,60,0,0
26075,-117.647058823529,4,2,1,60,0,0
26294,-117.647058823529,4,2,10,60,0,0
26403,-117.647058823529,4,2,1,60,0,0
26732,-117.647058823529,4,2,10,60,0,0
26951,-117.647058823529,4,2,1,60,0,0
27170,-117.647058823529,4,2,10,60,0,0
27279,-117.647058823529,4,2,1,60,0,0
27389,-117.647058823529,4,2,4,60,0,0
27608,-100,4,2,10,60,0,0
27827,-100,4,2,3,60,0,0
28046,-100,4,2,11,60,0,0
28155,-100,4,2,1,60,0,0
28265,-100,4,2,3,60,0,0
28374,-100,4,2,1,60,0,0
28484,-100,4,2,5,60,0,0
28593,-100,4,2,2,60,0,0
28922,-100,4,2,3,60,0,0
29031,-100,4,2,3,65,0,0
29359,-100,4,2,10,65,0,0
29578,-100,4,2,6,65,0,0
29797,-100,4,2,10,65,0,0
30016,-100,4,2,1,65,0,0
30235,-100,4,2,10,65,0,0
30345,-100,4,2,6,65,0,0
30673,-100,4,2,3,65,0,0
31111,-100,4,2,10,65,0,0
31221,-100,4,2,6,65,0,0
31549,-100,4,2,10,65,0,0
31768,-100,4,2,1,65,0,0
31987,-100,4,2,10,65,0,0
32097,-100,4,2,6,65,0,0
32425,-100,4,2,3,65,0,0
32863,-100,4,2,10,65,0,0
33082,-100,4,2,6,65,0,0
33301,-100,4,2,10,65,0,0
33520,-100,4,2,1,65,0,0
33739,-100,4,2,10,65,0,0
33849,-100,4,2,6,65,0,0
34177,-100,4,2,3,65,0,0
34615,-100,4,2,10,65,0,0
34834,-100,4,2,6,65,0,0
35053,-100,4,2,10,65,0,0
35272,-100,4,2,1,65,0,0
35491,-100,4,2,10,65,0,0
35710,-100,4,2,6,65,0,0
35929,-100,4,2,3,65,0,0
36367,-100,4,2,10,65,0,0
36586,-100,4,2,6,65,0,0
36805,-100,4,2,3,65,0,0
37243,-100,4,2,10,65,0,0
37462,-100,4,2,6,65,0,0
37681,-100,4,2,3,65,0,0
38119,-100,4,2,10,65,0,0
38228,-100,4,2,6,65,0,0
38557,-100,4,2,3,65,0,0
39214,-100,4,2,6,65,0,0
39432,-100,4,2,3,65,0,0
39870,-100,4,2,10,65,0,0
39980,-100,4,2,6,65,0,0
40308,-100,4,2,3,65,0,0
40746,-100,4,2,10,65,0,0
40856,-100,4,2,6,65,0,0
41184,-100,4,2,3,65,0,0
41403,-100,4,2,4,65,0,0
41622,-100,4,2,10,65,0,0
41841,-100,4,2,3,65,0,0
42060,-100,4,2,11,65,0,0
42170,-100,4,2,3,65,0,0
42279,-100,4,2,3,65,0,0
42498,-100,4,2,10,65,0,0
42608,-100,4,2,1,65,0,0
42717,-100,4,2,3,65,0,0
43046,-117.647058823529,4,2,3,70,0,0
43593,-117.647058823529,4,2,12,70,0,0
43812,-117.647058823529,4,2,10,70,0,0
44031,-117.647058823529,4,2,3,70,0,0
44469,-117.647058823529,4,2,12,70,0,0
44688,-117.647058823529,4,2,10,70,0,0
44797,-117.647058823529,4,2,1,70,0,0
45126,-117.647058823529,4,2,10,70,0,0
45235,-117.647058823529,4,2,12,70,0,0
45564,-117.647058823529,4,2,10,70,0,0
45783,-117.647058823529,4,2,1,70,0,0
46002,-117.647058823529,4,2,13,70,0,0
46111,-117.647058823529,4,2,14,70,0,0
46440,-117.647058823529,4,2,10,70,0,0
46549,-117.647058823529,4,2,1,70,0,0
46659,-117.647058823529,4,2,1,70,0,0
46878,-117.647058823529,4,2,10,70,0,0
47097,-117.647058823529,4,2,12,70,0,0
47316,-117.647058823529,4,2,10,70,0,0
47535,-117.647058823529,4,2,1,70,0,0
47754,-117.647058823529,4,2,10,70,0,0
47863,-117.647058823529,4,2,12,70,0,0
48192,-117.647058823529,4,2,3,70,0,0
48301,-117.647058823529,4,2,3,70,0,0
48630,-117.647058823529,4,2,10,70,0,0
48739,-117.647058823529,4,2,12,70,0,0
48849,-117.647058823529,4,2,12,70,0,0
49068,-117.647058823529,4,2,10,70,0,0
49287,-117.647058823529,4,2,1,70,0,0
49505,-117.647058823529,4,2,13,70,0,0
49615,-117.647058823529,4,2,14,70,0,0
49724,-117.647058823529,4,2,14,70,0,0
49943,-117.647058823529,4,2,3,70,0,0
50053,-117.647058823529,4,2,3,70,0,0
50600,-117.647058823529,4,2,12,70,0,0
50819,-117.647058823529,4,2,10,70,0,0
51038,-117.647058823529,4,2,3,70,0,0
51476,-117.647058823529,4,2,12,70,0,0
51695,-117.647058823529,4,2,3,70,0,0
52133,-117.647058823529,4,2,10,70,0,0
52243,-117.647058823529,4,2,12,70,0,0
52571,-117.647058823529,4,2,10,70,0,0
52790,-117.647058823529,4,2,1,70,0,0
53009,-117.647058823529,4,2,15,70,0,0
53228,-117.647058823529,4,2,14,70,0,0
53447,-117.647058823529,4,2,10,70,0,0
53557,-117.647058823529,4,2,1,70,0,0
53666,-117.647058823529,4,2,1,70,0,0
53885,-117.647058823529,4,2,10,70,0,0
54104,-117.647058823529,4,2,12,70,0,0
54323,-117.647058823529,4,2,10,70,0,0
54542,-117.647058823529,4,2,1,70,0,0
54761,-117.647058823529,4,2,10,70,0,0
54870,-117.647058823529,4,2,12,70,0,0
55199,-117.647058823529,4,2,3,70,0,0
55418,-100,4,2,3,70,0,0
55856,-100,4,2,1,70,0,0
56075,-100,4,2,3,70,0,0
56294,-100,4,2,3,50,0,0
56403,-117.647058823529,4,2,3,50,0,0
57170,-86.9565217391304,4,2,4,80,0,1
57389,-86.9565217391304,4,2,2,80,0,1
57608,-86.9565217391304,4,2,6,80,0,1
57827,-86.9565217391304,4,2,2,80,0,1
58046,-86.9565217391304,4,2,1,80,0,1
58265,-86.9565217391304,4,2,2,80,0,1
58484,-86.9565217391304,4,2,6,80,0,1
58703,-86.9565217391304,4,2,5,80,0,1
58922,-86.9565217391304,4,2,1,80,0,1
59141,-86.9565217391304,4,2,5,80,0,1
59359,-86.9565217391304,4,2,6,80,0,1
59578,-86.9565217391304,4,2,5,80,0,1
59688,-86.9565217391304,4,2,1,80,0,1
60016,-86.9565217391304,4,2,7,80,0,1
60235,-86.9565217391304,4,2,9,80,0,1
60454,-86.9565217391304,4,2,5,80,0,1
60673,-86.9565217391304,4,2,1,80,0,1
60892,-86.9565217391304,4,2,2,80,0,1
61002,-86.9565217391304,4,2,6,80,0,1
61330,-86.9565217391304,4,2,5,80,0,1
61549,-86.9565217391304,4,2,1,80,0,1
61768,-86.9565217391304,4,2,2,80,0,1
61878,-86.9565217391304,4,2,6,80,0,1
62206,-86.9565217391304,4,2,5,80,0,1
62425,-86.9565217391304,4,2,1,80,0,1
62644,-86.9565217391304,4,2,5,80,0,1
62754,-86.9565217391304,4,2,6,80,0,1
63082,-86.9565217391304,4,2,5,80,0,1
63301,-86.9565217391304,4,2,1,80,0,1
63520,-86.9565217391304,4,2,16,80,0,1
63739,-86.9565217391304,4,2,9,80,0,1
63958,-86.9565217391304,4,2,17,80,0,1
64177,-86.9565217391304,4,2,18,80,0,1
64396,-86.9565217391304,4,2,2,80,0,1
64615,-86.9565217391304,4,2,6,80,0,1
64834,-86.9565217391304,4,2,2,80,0,1
65053,-86.9565217391304,4,2,1,80,0,1
65272,-86.9565217391304,4,2,2,80,0,1
65491,-86.9565217391304,4,2,6,80,0,1
65710,-86.9565217391304,4,2,5,80,0,1
65929,-86.9565217391304,4,2,1,80,0,1
66148,-86.9565217391304,4,2,5,80,0,1
66257,-86.9565217391304,4,2,6,80,0,1
66586,-86.9565217391304,4,2,5,80,0,1
66695,-86.9565217391304,4,2,1,80,0,1
67024,-86.9565217391304,4,2,16,80,0,1
67243,-86.9565217391304,4,2,9,80,0,1
67462,-86.9565217391304,4,2,5,80,0,1
67681,-86.9565217391304,4,2,1,80,0,1
67900,-86.9565217391304,4,2,2,80,0,1
68009,-86.9565217391304,4,2,6,80,0,1
68338,-86.9565217391304,4,2,5,80,0,1
68557,-86.9565217391304,4,2,1,80,0,1
68776,-86.9565217391304,4,2,2,80,0,1
68885,-86.9565217391304,4,2,6,80,0,1
69214,-86.9565217391304,4,2,5,80,0,1
69432,-86.9565217391304,4,2,1,80,0,1
69651,-86.9565217391304,4,2,5,80,0,1
69761,-86.9565217391304,4,2,1,80,0,1
69870,-86.9565217391304,4,2,17,80,0,1
69980,-86.9565217391304,4,2,1,80,0,1
70089,-86.9565217391304,4,2,2,80,0,1
70199,-86.9565217391304,4,2,1,80,0,1
70527,-86.9565217391304,4,2,5,80,0,1
70637,-86.9565217391304,4,2,4,80,0,1
70746,-86.9565217391304,4,2,9,80,0,1
70856,-86.9565217391304,4,2,17,80,0,1
71184,-86.9565217391304,4,2,4,80,0,1
71403,-86.9565217391304,4,2,2,80,0,1
71622,-86.9565217391304,4,2,6,80,0,1
71841,-86.9565217391304,4,2,2,80,0,1
72060,-86.9565217391304,4,2,1,80,0,1
72279,-86.9565217391304,4,2,2,80,0,1
72498,-86.9565217391304,4,2,6,80,0,1
72717,-86.9565217391304,4,2,5,80,0,1
72936,-86.9565217391304,4,2,1,80,0,1
73155,-86.9565217391304,4,2,5,80,0,1
73374,-86.9565217391304,4,2,6,80,0,1
73593,-86.9565217391304,4,2,5,80,0,1
73703,-86.9565217391304,4,2,1,80,0,1
74031,-86.9565217391304,4,2,7,80,0,1
74250,-86.9565217391304,4,2,9,80,0,1
74469,-86.9565217391304,4,2,5,80,0,1
74688,-86.9565217391304,4,2,1,80,0,1
74907,-86.9565217391304,4,2,2,80,0,1
75016,-86.9565217391304,4,2,6,80,0,1
75345,-86.9565217391304,4,2,5,80,0,1
75564,-86.9565217391304,4,2,1,80,0,1
75783,-86.9565217391304,4,2,2,80,0,1
75892,-86.9565217391304,4,2,6,80,0,1
76221,-86.9565217391304,4,2,5,80,0,1
76440,-86.9565217391304,4,2,1,80,0,1
76659,-86.9565217391304,4,2,5,80,0,1
76768,-86.9565217391304,4,2,6,80,0,1
77097,-86.9565217391304,4,2,5,80,0,1
77316,-86.9565217391304,4,2,1,80,0,1
77535,-86.9565217391304,4,2,16,80,0,1
77754,-86.9565217391304,4,2,9,80,0,1
77973,-86.9565217391304,4,2,17,80,0,1
78192,-86.9565217391304,4,2,18,80,0,1
78411,-86.9565217391304,4,2,2,80,0,1
78630,-86.9565217391304,4,2,6,80,0,1
78849,-86.9565217391304,4,2,2,80,0,1
79068,-86.9565217391304,4,2,1,80,0,1
79287,-86.9565217391304,4,2,2,80,0,1
79505,-86.9565217391304,4,2,6,80,0,1
79724,-86.9565217391304,4,2,5,80,0,1
79943,-86.9565217391304,4,2,1,80,0,1
80162,-86.9565217391304,4,2,5,80,0,1
80272,-86.9565217391304,4,2,6,80,0,1
80381,-86.9565217391304,4,2,6,80,0,1
80600,-86.9565217391304,4,2,5,80,0,1
80710,-86.9565217391304,4,2,1,80,0,1
81038,-86.9565217391304,4,2,16,80,0,1
81257,-86.9565217391304,4,2,9,80,0,1
81476,-86.9565217391304,4,2,5,80,0,1
81695,-86.9565217391304,4,2,1,80,0,1
81914,-86.9565217391304,4,2,2,80,0,1
82024,-86.9565217391304,4,2,6,80,0,1
82352,-86.9565217391304,4,2,5,80,0,1
82571,-86.9565217391304,4,2,1,80,0,1
82790,-86.9565217391304,4,2,2,80,0,1
82900,-86.9565217391304,4,2,6,80,0,1
83228,-86.9565217391304,4,2,5,80,0,1
83447,-86.9565217391304,4,2,3,80,0,0
83666,-86.9565217391304,4,2,3,50,0,0
84323,-86.9565217391304,4,2,3,75,0,0
84761,-86.9565217391304,4,2,3,75,0,0
85199,-86.9565217391304,4,2,3,75,0,1
85418,-86.9565217391304,4,2,11,75,0,1
85527,-86.9565217391304,4,2,1,75,0,1
85746,-86.9565217391304,4,2,11,75,0,1
85856,-86.9565217391304,4,2,3,75,0,1
86075,-86.9565217391304,4,2,11,75,0,1
86184,-86.9565217391304,4,2,1,75,0,1
86513,-86.9565217391304,4,2,10,75,0,1
86732,-86.9565217391304,4,2,3,75,0,1
87170,-86.9565217391304,4,2,10,75,0,1
87389,-86.9565217391304,4,2,3,75,0,1
87608,-86.9565217391304,4,2,10,75,0,1
87717,-86.9565217391304,4,2,10,75,0,1
87827,-86.9565217391304,4,2,3,75,0,1
88046,-86.9565217391304,4,2,10,75,0,1
88265,-86.9565217391304,4,2,3,75,0,1
88484,-86.9565217391304,4,2,8,75,0,0

[Colours]
Combo1 : 173,255,95
Combo2 : 193,132,255
Combo3 : 17,254,176
Combo4 : 255,128,255

[HitObjects]
140,193,564,6,0,L|124:154,1,37.5000001490115,2|2,2:2|3:2,0:0:0:0:
56,287,1002,2,0,L|40:248,1,37.5000001490115,2|2,3:2|3:2,0:0:0:0:
465,368,5710,6,0,P|450:337|377:299,1,112.500000447034,2|10,2:2|2:3,0:0:0:0:
339,311,6148,1,4,3:3:0:0:
339,311,6257,1,2,3:2:0:0:
287,16,7243,6,0,L|276:101,1,75.000000298023,10|10,1:2|1:2,0:0:0:0:
264,187,7681,1,2,2:2:0:0:
457,210,8119,6,0,P|497:181|492:115,1,112.500000447034,6|0,1:2|0:0,0:0:0:0:
496,122,8557,2,0,P|469:114|414:103,1,75.000000298023,10|2,1:2|2:2,0:0:0:0:
403,8,8995,2,0,B|318:14|359:50|256:70,1,150.000000596046,2|8,1:2|1:2,0:0:0:0:
182,22,9651,1,2,2:2:0:0:
182,22,9761,1,2,2:2:0:0:
182,22,9870,6,0,P|121:32|97:113,1,150.000000596046,0|10,1:1|1:2,0:0:0:0:
170,171,10527,1,2,2:2:0:0:
242,236,10746,1,2,1:2:0:0:
97,236,10965,6,0,L|44:229,1,37.5000001490115,10|0,1:2|0:0,0:0:0:0:
13,245,11184,2,0,L|34:370,1,112.500000447034,8|2,1:2|2:2,0:0:0:0:
31,355,11622,6,0,P|66:383|143:316,1,150.000000596046,2|10,1:2|1:2,0:0:0:0:
215,266,12279,1,2,2:2:0:0:
312,272,12498,2,0,P|298:221|266:124,1,150.000000596046,2|8,1:2|1:2,0:0:0:0:
184,76,13155,1,2,1:2:0:0:
184,76,13265,1,2,1:2:0:0:
184,76,13374,6,0,P|177:125|170:154,1,75.000000298023,8|10,1:2|1:2,0:0:0:0:
79,183,13812,2,0,P|70:146|66:109,1,75.000000298023,10|2,1:2|1:2,0:0:0:0:
66,109,14141,1,0,1:1:0:0:
66,109,14250,2,0,L|21:87,3,37.5000001490115,2|8|2|2,1:2|2:2|1:2|1:2,0:0:0:0:
6,51,14688,2,0,L|23:8,3,37.5000001490115,10|10|10|10,2:2|2:2|2:2|2:2,0:0:0:0:
61,12,15126,6,0,P|123:27|128:28,1,63.7500014692543,6|2,1:2|2:2,0:0:0:0:
194,69,15564,2,0,P|256:54|261:53,1,63.7500014692543,2|2,1:2|2:2,0:0:0:0:
269,51,15892,1,2,2:2:0:0:
283,49,16002,2,0,P|304:72|309:105,1,63.7500014692543,2|2,1:2|2:2,0:0:0:0:
292,141,16330,1,2,2:2:0:0:
339,208,16549,2,0,P|376:203|409:200,1,63.7500014692543,2|2,2:2|2:2,0:0:0:0:
415,198,16878,6,0,B|409:116|437:158|431:65,1,127.500002938509,0|0,1:1|1:1,0:0:0:0:
373,13,17535,1,2,2:2:0:0:
315,72,17754,2,0,P|271:84|243:89,1,63.7500014692543,2|2,1:2|2:2,0:0:0:0:
244,98,18082,2,0,P|227:113|227:159,1,63.7500014692543,2|2,2:2|2:2,0:0:0:0:
258,227,18520,1,2,2:2:0:0:
267,237,18630,6,0,P|301:231|401:219,1,127.500002938509,0|2,1:1|1:2,0:0:0:0:
463,174,19287,1,2,2:2:0:0:
497,249,19505,2,0,P|502:288|489:321,1,63.7500014692543,2|2,1:2|2:2,0:0:0:0:
471,345,19834,1,2,2:2:0:0:
391,367,20053,2,0,P|351:361|321:355,1,63.7500014692543,2|2,2:2|2:2,0:0:0:0:
325,367,20381,6,0,P|264:365|233:344,2,95.6250022038815,0|0|0,1:1|0:0|0:0,0:0:0:0:
332,214,21476,2,0,P|296:220|263:226,1,63.7500014692543,2|2,2:2|1:2,0:0:0:0:
228,236,21805,1,2,2:2:0:0:
165,289,22024,1,2,2:2:0:0:
168,299,22133,6,0,P|154:345|79:362,1,127.500002938509,2|2,1:3|1:2,0:0:0:0:
42,352,22681,1,2,2:2:0:0:
8,276,22900,2,0,P|4:236|40:188,1,95.6250022038815,2|2,2:2|2:2,0:0:0:0:
47,187,23338,1,0,0:0:0:0:
61,183,23447,2,0,P|79:172|87:152,1,31.8750007346272,2|2,1:2|2:2,0:0:0:0:
155,206,23776,6,0,B|214:165|173:144|244:101,1,127.500002938509,2|2,2:2|2:2,0:0:0:0:
232,108,24323,1,2,1:2:0:0:
232,108,24432,1,2,2:2:0:0:
217,26,24651,2,0,P|165:33|116:40,1,95.6250022038815,2|2,2:2|2:3,0:0:0:0:
40,25,25199,2,0,P|30:40|29:54,3,31.8750007346272,2|2|2|2,1:2|2:2|2:2|2:2,0:0:0:0:
9,90,25637,6,0,P|22:133|29:166,1,63.7500014692543,0|2,1:1|2:2,0:0:0:0:
99,190,26075,2,0,P|106:159|116:128,1,63.7500014692543,2|2,1:2|2:2,0:0:0:0:
127,123,26403,2,0,P|169:124|190:176,1,95.6250022038815,2|2,2:2|2:2,0:0:0:0:
178,249,26951,1,2,1:2:0:0:
104,286,27170,1,2,2:2:0:0:
92,278,27279,6,0,P|48:273|34:324,1,95.6250022038815,2|10,2:2|2:2,0:0:0:0:
110,370,27827,1,10,1:2:0:0:
184,306,28046,2,0,L|195:263,2,37.5000001490115,10|10|8,2:2|2:3|1:2,0:0:0:0:
190,320,28374,1,4,2:3:0:0:
198,334,28484,1,6,2:3:0:0:
206,348,28593,1,2,1:2:0:0:
302,336,28812,1,2,1:2:0:0:
397,316,29031,6,0,P|414:349|495:348,1,112.500000447034,6|2,1:2|1:2,0:0:0:0:
497,260,29578,2,0,P|440:234|423:225,1,75.000000298023,14|2,1:2|2:2,0:0:0:0:
349,171,30016,2,0,P|305:175|288:203,1,75.000000298023,2|2,1:2|2:2,0:0:0:0:
285,209,30345,2,0,P|263:177|254:133,1,75.000000298023,2|2,2:2|2:2,0:0:0:0:
301,56,30783,1,2,2:2:0:0:
310,42,30892,6,0,P|271:41|190:23,1,112.500000447034,0|2,1:1|2:2,0:0:0:0:
193,36,31330,2,0,B|187:115|112:-57|136:133|73:58,1,150.000000596046,10|2,1:2|1:2,0:0:0:0:
19,141,31987,1,2,2:2:0:0:
24,152,32097,2,0,P|64:163|109:181,1,75.000000298023,2|2,2:2|2:2,0:0:0:0:
186,214,32535,1,2,2:2:0:0:
195,224,32644,6,0,P|244:188|248:94,1,150.000000596046,0|10,1:1|1:2,0:0:0:0:
282,10,33301,2,0,P|311:32|349:45,1,75.000000298023,2|2,2:2|1:2,0:0:0:0:
440,73,33739,1,2,2:2:0:0:
449,62,33849,2,0,P|483:64|512:98,2,75.000000298023,2|2|2,2:2|2:2|2:2,0:0:0:0:
333,152,34615,5,2,2:2:0:0:
400,222,34834,2,0,P|467:236|493:285,1,112.500000447034,10|0,1:2|0:0,0:0:0:0:
482,272,35272,2,0,P|468:306|460:357,1,75.000000298023,2|2,1:2|2:2,0:0:0:0:
365,364,35710,1,10,1:2:0:0:
355,364,35819,2,0,P|297:363|267:356,1,75.000000298023,2|2,2:2|2:2,0:0:0:0:
269,368,36148,6,0,P|224:349|208:328,2,75.000000298023,4|2|10,1:2|2:2|1:2,0:0:0:0:
291,324,36695,1,2,2:2:0:0:
256,232,36914,2,0,P|211:205|166:247,1,112.500000447034,2|2,2:2|2:2,0:0:0:0:
117,320,37462,1,10,1:2:0:0:
125,333,37571,1,2,2:2:0:0:
33,365,37790,6,0,B|12:294|35:321|31:243,1,112.500000447034,2|2,2:2|2:2,0:0:0:0:
24,246,38228,2,0,P|52:209|116:201,1,112.500000447034,2|2,2:2|2:3,0:0:0:0:
127,208,38666,2,0,P|135:149|145:93,1,112.500000447034,2|2,2:2|2:3,0:0:0:0:
78,24,39214,1,10,1:2:0:0:
72,37,39323,2,0,P|47:33|24:81,1,75.000000298023,2|2,2:2|2:2,0:0:0:0:
26,82,39651,6,0,P|79:95|108:103,1,75.000000298023,0|2,1:1|2:2,0:0:0:0:
144,96,39980,2,0,P|157:80|170:17,1,75.000000298023,2|2,2:2|2:2,0:0:0:0:
255,77,40418,2,0,P|242:93|229:156,1,75.000000298023,2|2,2:2|2:2,0:0:0:0:
233,162,40746,2,0,P|269:183|277:181,1,37.5000001490115,2|2,2:2|2:2,0:0:0:0:
356,193,41075,2,0,P|363:158|338:121,1,75.000000298023,2|2,2:2|2:2,0:0:0:0:
345,126,41403,1,2,1:3:0:0:
352,16,41622,6,0,L|406:27,1,37.5000001490115,10|0,2:2|0:0,0:0:0:0:
422,59,41841,2,0,L|465:45,3,37.5000001490115,10|0|10|10,1:2|0:0|2:2|2:2,0:0:0:0:
495,78,42279,2,0,L|509:121,3,37.5000001490115,2|8|10|8,1:2|2:2|2:2|2:3,0:0:0:0:
485,158,42717,2,0,P|462:148|442:143,1,37.5000001490115,10|2,2:2|1:2,0:0:0:0:
376,184,43046,6,0,P|333:162|320:152,1,63.7500014692543,6|2,1:2|1:2,0:0:0:0:
301,115,43374,1,2,2:3:0:0:
262,41,43593,2,0,P|230:39|188:34,1,63.7500014692543,10|2,2:2|1:2,0:0:0:0:
161,110,44031,2,0,P|111:107|84:69,1,95.6250022038815,2|2,1:2|1:2,0:0:0:0:
99,33,44469,1,8,2:2:0:0:
8,109,44688,5,2,1:2:0:0:
11,119,44797,1,2,1:2:0:0:
16,136,44907,2,0,P|51:159|69:179,1,63.7500014692543,0|2,0:0|2:2,0:0:0:0:
65,174,45235,1,2,1:2:0:0:
65,174,45345,2,0,P|113:170|129:168,2,63.7500014692543,10|2|2,2:2|1:2|1:2,0:0:0:0:
19,244,46002,5,10,2:2:0:0:
71,308,46221,1,8,2:2:0:0:
66,318,46330,2,0,L|56:357,2,31.8750007346272,2|2|2,2:2|2:2|2:2,0:0:0:0:
102,296,46659,6,0,P|161:319|171:318,1,63.7500014692543,2|2,1:2|1:2,0:0:0:0:
228,365,47097,2,0,P|253:353|277:318,1,63.7500014692543,10|2,2:2|1:2,0:0:0:0:
222,259,47535,1,2,1:2:0:0:
279,199,47754,1,2,2:2:0:0:
275,190,47863,2,0,P|271:162|266:118,1,63.7500014692543,2|2,1:2|2:2,0:0:0:0:
257,44,48301,6,0,P|296:33|329:43,1,63.7500014692543,2|2,1:2|1:2,0:0:0:0:
328,47,48630,2,0,P|355:37|363:26,1,31.8750007346272,2|2,2:2|1:2,0:0:0:0:
370,26,48849,2,0,P|378:74|386:99,2,63.7500014692543,10|2|2,2:2|1:2|1:2,0:0:0:0:
452,26,49505,5,10,2:2:0:0:
504,90,49724,1,10,2:2:0:0:
500,101,49834,1,2,1:2:0:0:
500,183,50053,6,0,B|447:199|472:219|408:240,1,95.6250022038815,6|2,1:2|1:3,0:0:0:0:
356,183,50600,1,10,1:2:0:0:
289,232,50819,1,2,2:2:0:0:
300,314,51038,2,0,P|313:359|359:373,1,95.6250022038815,2|2,1:2|2:2,0:0:0:0:
395,361,51476,1,8,1:2:0:0:
476,374,51695,2,0,P|489:350|494:333,1,31.8750007346272,2|2,2:3|2:2,0:0:0:0:
503,306,51914,6,0,P|490:280|483:237,1,63.7500014692543,0|2,1:1|2:2,0:0:0:0:
488,237,52243,1,2,2:2:0:0:
493,228,52352,2,0,P|461:241|426:227,1,63.7500014692543,10|2,1:2|2:2,0:0:0:0:
351,245,52790,2,0,P|317:218|308:195,1,63.7500014692543,2|10,1:2|2:2,0:0:0:0:
325,118,53228,1,10,1:2:0:0:
318,108,53338,2,0,L|325:69,2,31.8750007346272,2|2|2,2:2|2:2|2:2,0:0:0:0:
278,120,53666,6,0,P|245:107|216:103,1,63.7500014692543,2|2,1:2|2:2,0:0:0:0:
162,40,54104,2,0,P|130:44|101:56,1,63.7500014692543,10|2,1:2|2:2,0:0:0:0:
140,130,54542,1,2,1:2:0:0:
67,170,54761,1,2,2:2:0:0:
65,183,54870,2,0,P|38:195|7:180,1,63.7500014692543,2|2,2:2|2:2,0:0:0:0:
18,98,55308,5,2,2:2:0:0:
8,88,55418,2,0,P|3:60|0:42,1,37.5000001490115,10|10,1:2|1:2,0:0:0:0:
96,74,55746,2,0,P|91:46|88:28,2,37.5000001490115,0|0|0,1:1|3:3|3:3,0:0:0:0:
104,87,56075,2,0,L|149:94,1,37.5000001490115,10|10,1:2|1:2,0:0:0:0:
296,79,56732,1,2,2:2:0:0:
296,79,56951,1,2,2:2:0:0:
394,136,57170,6,0,P|426:157|494:100,1,129.375002981722,6|0,1:2|0:0,0:0:0:0:
484,56,57608,2,0,P|469:40|395:53,1,86.2500019878147,10|2,1:2|2:3,0:0:0:0:
379,81,57936,1,0,0:0:0:0:
381,137,58046,2,0,P|392:184|393:228,1,86.2500019878147,2|2,1:2|2:3,0:0:0:0:
489,296,58484,6,0,P|454:319|441:328,1,43.1250009939073,10|0,1:2|0:0,0:0:0:0:
414,360,58703,1,2,2:2:0:0:
303,379,58922,1,2,1:2:0:0:
213,312,59141,2,0,P|204:283|204:262,1,43.1250009939073,2|0,2:2|0:0,0:0:0:0:
251,241,59359,2,0,P|271:205|267:147,1,86.2500019878147,10|2,1:2|2:2,0:0:0:0:
244,110,59688,2,0,P|180:133|111:149,1,129.375002981722,2|10,2:2|1:2,0:0:0:0:
12,117,60235,1,10,1:2:0:0:
0,232,60454,1,2,2:2:0:0:
108,258,60673,6,0,P|150:283|149:332,1,86.2500019878147,2|2,1:2|2:3,0:0:0:0:
164,373,61002,2,0,P|114:364|66:360,1,86.2500019878147,2|0,2:2|0:0,0:0:0:0:
23,372,61330,1,2,2:2:0:0:
8,260,61549,6,0,P|16:208|26:158,1,86.2500019878147,2|2,1:2|2:3,0:0:0:0:
65,138,61878,2,0,P|56:92|51:42,1,86.2500019878147,2|0,2:2|0:0,0:0:0:0:
17,8,62206,1,2,2:2:0:0:
128,19,62425,6,0,P|164:44|215:41,1,86.2500019878147,2|2,1:2|2:2,0:0:0:0:
256,20,62754,1,2,2:2:0:0:
304,48,62863,2,0,P|282:92|271:129,1,86.2500019878147,10|2,1:2|2:2,0:0:0:0:
230,232,63301,1,2,1:2:0:0:
258,340,63520,6,0,P|271:318|301:317,1,43.1250009939073,14|0,1:2|0:0,0:0:0:0:
340,295,63739,2,0,P|372:310|424:324,1,86.2500019878147,14|10,1:2|2:2,0:0:0:0:
468,354,64068,1,8,2:2:0:0:
500,308,64177,6,0,P|492:240|481:167,1,129.375002981722,6|0,1:2|0:0,0:0:0:0:
443,139,64615,2,0,P|443:100|478:59,1,86.2500019878147,10|2,1:2|2:3,0:0:0:0:
445,12,64943,1,0,0:0:0:0:
390,25,65053,1,2,1:2:0:0:
339,124,65272,2,0,P|304:135|286:135,1,43.1250009939073,2|0,2:3|0:0,0:0:0:0:
254,171,65491,6,0,P|223:150|219:135,1,43.1250009939073,10|0,1:2|0:0,0:0:0:0:
216,90,65710,1,2,2:2:0:0:
120,30,65929,1,2,1:2:0:0:
27,93,66148,1,2,2:2:0:0:
27,93,66257,1,2,2:2:0:0:
27,93,66367,2,0,P|46:139|59:181,1,86.2500019878147,10|2,1:2|2:2,0:0:0:0:
105,202,66695,2,0,P|68:236|27:307,1,129.375002981722,2|10,2:2|1:2,0:0:0:0:
114,376,67243,1,10,1:2:0:0:
185,289,67462,1,2,2:2:0:0:
269,362,67681,6,0,P|304:346|310:252,1,129.375002981722,2|2,1:2|2:2,0:0:0:0:
229,120,68338,1,2,2:2:0:0:
246,231,68557,2,0,B|311:216|274:186|372:167,1,129.375002981722,2|2,1:2|2:2,0:0:0:0:
442,24,69214,2,0,P|430:56|421:82,1,43.1250009939073,2|0,2:2|0:0,0:0:0:0:
462,107,69432,6,0,P|474:145|472:207,1,86.2500019878147,2|2,1:2|2:2,0:0:0:0:
461,246,69761,1,2,2:2:0:0:
479,298,69870,2,0,P|470:353|433:368,1,86.2500019878147,12|2,1:2|2:3,0:0:0:0:
391,355,70199,1,2,2:2:0:0:
337,369,70308,1,2,1:2:0:0:
243,306,70527,1,10,2:2:0:0:
135,337,70746,2,0,L|148:378,3,43.1250009939073,10|8|10|8,1:2|2:2|2:2|2:2,0:0:0:0:
204,381,71184,6,0,P|218:308|215:249,1,129.375002981722,6|0,1:2|0:0,0:0:0:0:
221,197,71622,2,0,P|235:124|231:96,1,86.2500019878147,10|2,1:2|2:3,0:0:0:0:
190,75,71951,1,0,0:0:0:0:
144,108,72060,2,0,P|102:125|55:107,1,86.2500019878147,2|2,1:2|2:3,0:0:0:0:
22,9,72498,6,0,P|57:26|76:32,1,43.1250009939073,10|0,1:2|0:0,0:0:0:0:
113,9,72717,1,2,2:2:0:0:
223,0,72936,1,2,1:2:0:0:
303,78,73155,2,0,P|291:112|282:133,1,43.1250009939073,2|0,2:2|0:0,0:0:0:0:
253,163,73374,2,0,P|263:212|303:236,1,86.2500019878147,10|2,1:2|2:2,0:0:0:0:
344,248,73703,2,0,P|389:238|479:222,1,129.375002981722,2|10,2:2|1:2,0:0:0:0:
506,117,74250,1,10,1:2:0:0:
437,28,74469,1,2,2:2:0:0:
324,43,74688,6,0,P|349:92|362:133,1,86.2500019878147,2|2,1:2|2:3,0:0:0:0:
387,170,75016,2,0,P|381:211|328:238,1,86.2500019878147,2|0,2:2|0:0,0:0:0:0:
290,232,75345,1,2,2:2:0:0:
248,336,75564,6,0,P|199:345|159:363,1,86.2500019878147,2|2,1:2|2:3,0:0:0:0:
110,372,75892,2,0,P|92:320|77:274,1,86.2500019878147,2|0,2:2|0:0,0:0:0:0:
65,236,76221,1,2,2:2:0:0:
112,134,76440,6,0,P|199:152|202:154,1,86.2500019878147,2|2,1:2|2:2,0:0:0:0:
232,107,76768,1,2,2:2:0:0:
218,52,76878,2,0,P|174:47|127:26,1,86.2500019878147,10|2,1:2|2:2,0:0:0:0:
30,73,77316,1,2,1:2:0:0:
20,184,77535,6,0,P|38:207|65:216,1,43.1250009939073,14|0,1:2|0:0,0:0:0:0:
83,258,77754,2,0,P|126:269|152:305,1,86.2500019878147,14|10,1:2|2:2,0:0:0:0:
136,355,78082,1,8,2:2:0:0:
189,373,78192,6,0,P|231:370|258:295,1,129.375002981722,6|0,1:2|0:0,0:0:0:0:
236,244,78630,2,0,P|287:225|316:204,1,86.2500019878147,10|2,1:2|2:3,0:0:0:0:
368,217,78958,1,0,0:0:0:0:
397,169,79068,1,2,1:2:0:0:
499,214,79287,2,0,P|489:247|481:267,1,43.1250009939073,2|0,2:3|0:0,0:0:0:0:
496,309,79505,6,0,P|502:344|493:362,1,43.1250009939073,10|0,1:2|0:0,0:0:0:0:
445,366,79724,1,2,2:2:0:0:
333,374,79943,1,2,1:2:0:0:
272,279,80162,1,2,2:2:0:0:
272,279,80272,1,2,2:2:0:0:
272,279,80381,2,0,P|316:250|334:211,1,86.2500019878147,10|2,1:2|2:2,0:0:0:0:
373,183,80710,2,0,P|367:138|314:61,1,129.375002981722,2|10,2:2|1:2,0:0:0:0:
213,42,81257,1,10,1:2:0:0:
134,122,81476,1,2,2:2:0:0:
34,71,81695,6,0,P|44:33|125:32,1,129.375002981722,2|2,1:2|2:2,0:0:0:0:
241,148,82352,1,2,2:2:0:0:
179,242,82571,2,0,P|166:198|140:103,1,129.375002981722,2|2,1:2|2:2,0:0:0:0:
280,19,83228,2,0,P|319:32|339:36,1,43.1250009939073,2|0,2:2|0:0,0:0:0:0:
373,51,83447,5,2,1:2:0:0:
10,314,84323,1,10,1:2:0:0:
119,289,84542,1,10,1:2:0:0:
227,259,84761,1,10,1:2:0:0:
227,259,85199,6,0,P|176:278|132:298,1,86.2500019878147,6|10,1:2|2:2,0:0:0:0:
153,346,85527,2,0,P|204:365|248:385,1,86.2500019878147,6|10,1:2|2:2,0:0:0:0:
289,374,85856,2,0,P|306:334|320:293,1,86.2500019878147,6|10,1:2|2:2,0:0:0:0:
315,237,86184,2,0,L|299:181,2,43.1250009939073,6|0|0,1:2|0:0|1:1,0:0:0:0:
371,228,86513,1,14,2:2:0:0:
356,116,86732,5,2,1:3:0:0:
356,116,86841,1,2,2:3:0:0:
356,116,86951,2,0,L|381:18,2,86.2500019878147,8|10|10,1:2|2:2|1:2,0:0:0:0:
244,129,87608,5,10,1:2:0:0:
233,119,87717,2,0,L|187:131,4,43.1250009939073,0|2|8|2|0,1:1|1:2|2:2|2:2|1:1,0:0:0:0:
264,71,88265,2,0,L|248:20,1,43.1250009939073,10|2,2:2|2:2,0:0:0:0:
198,9,88484,1,6,1:2:0:0:
