osu file format v14

[General]
AudioFilename: audio.mp3
AudioLeadIn: 0
PreviewTime: 55882
Countdown: 0
SampleSet: Soft
StackLeniency: 0.3
Mode: 0
LetterboxInBreaks: 0
WidescreenStoryboard: 1

[Editor]
Bookmarks: 151138,151248,151357,151467,151576,151686,151795,151905,152014,152124,152233,152343,152452,152562,152671,152781,152890,153000,153109,153219,153328,153438,153547,153657,153766,153876,153985,154095,154204,154313,154423,154532,154642,154751,154861,154970,155080,155189,155299,155408,155518,155627,155737,155846,155956
DistanceSpacing: 1.5
BeatDivisor: 4
GridSize: 32
TimelineZoom: 2.1

[Metadata]
Title:Tokyo Shandy Rendez-vous feat. KAF, Tsumiki
TitleUnicode:トウキョウ・シャンディ・ランデヴ feat. 花譜, ツミキ
Artist:MAISONdes
ArtistUnicode:MAISONdes
Creator:Asahina Momoko
Version:Hard
Source:うる星やつら
Tags:urusei yatsura anime ending ed japanese pop jpop j-pop メゾン・デ mokori
BeatmapID:4253481
BeatmapSetID:1942294

[Difficulty]
HPDrainRate:4
CircleSize:4
OverallDifficulty:6
ApproachRate:8
SliderMultiplier:1.4
SliderTickRate:1

[Events]
//Background and Video events
0,0,"BG.jpg",0,0
//Break Periods
2,151138,155932
//Storyboard Layer 0 (Background)
//Storyboard Layer 1 (Fail)
//Storyboard Layer 2 (Pass)
//Storyboard Layer 3 (Foreground)
//Storyboard Layer 4 (Overlay)
//Storyboard Sound Samples

[TimingPoints]
-825,437.956204379562,4,2,1,40,1,0
926,-133.333333333333,4,2,1,40,0,0
2020,-133.333333333333,4,2,2,40,0,0
3116,-133.333333333333,4,2,1,40,0,0
5087,-133.333333333333,4,2,1,60,0,0
5306,-133.333333333333,4,2,1,80,0,0
7058,-76.9230769230769,4,2,1,70,0,0
7605,-76.9230769230769,4,2,1,40,0,0
7934,-100,4,2,1,70,0,1
8043,-100,4,2,1,70,0,0
14941,-117.647058823529,4,2,1,50,0,0
27423,-117.647058823529,4,2,1,70,0,0
28080,-100,4,2,1,70,0,0
56985,-83.3333333333333,4,2,1,70,0,1
69247,-83.3333333333333,4,2,1,70,0,0
70123,-83.3333333333333,4,2,1,70,0,1
70999,-100,4,2,1,70,0,0
77569,-100,4,2,1,50,0,0
79758,-117.647058823529,4,2,1,50,0,0
84029,-100,4,2,1,50,0,0
85233,-117.647058823529,4,2,1,50,0,0
88518,-117.647058823529,4,2,1,60,0,0
90269,-100,4,2,1,70,0,0
91912,-117.647058823529,4,2,1,70,0,0
92240,-117.647058823529,4,2,1,60,0,0
94649,-117.647058823529,4,2,1,70,0,0
95525,-117.647058823529,4,2,1,60,0,0
104503,-117.647058823529,4,2,1,70,0,0
106145,-100,4,2,1,70,0,0
120050,-83.3333333333333,4,2,1,70,0,1
132313,-100,4,2,1,70,0,0
149831,-117.647058823529,4,2,1,40,0,0
160342,-100,4,2,1,40,0,0
160560,-100,4,2,1,50,0,0
160780,-100,4,2,1,60,0,0
160998,-100,4,2,1,70,0,0
163846,-83.3333333333333,4,2,1,70,0,1
176109,-83.3333333333333,4,2,1,70,0,0
176985,-83.3333333333333,4,2,1,70,0,1
177861,-100,4,2,1,70,0,0

[Colours]
Combo1 : 255,128,255
Combo2 : 128,255,255
Combo3 : 255,103,30
Combo4 : 255,255,0
Combo5 : 11,244,163

[HitObjects]
83,95,379,6,0,L|74:45,2,35,0|0|2,2:0|1:0|2:0,2:0:0:0:
130,198,817,1,2,2:0:0:0:
130,198,926,6,0,P|103:201|78:208,2,52.5000000000001,0|0|8,3:0|2:0|2:0,2:0:0:0:
216,223,1583,1,0,3:0:0:0:
276,157,1802,2,0,P|286:118|289:79,1,78.7500000000002,0|0,3:0|2:0,2:0:0:0:
288,79,2240,1,0,2:0:0:0:
288,79,2350,1,0,2:0:0:0:
373,112,2569,6,0,P|375:151|386:188,1,78.7500000000002,0|0,3:0|3:0,2:0:0:0:
434,265,3116,1,8,2:0:0:0:
434,265,3226,2,0,L|470:271,2,26.2500000000001,0|0|0,2:0|3:0|2:0,2:0:0:0:
373,330,3664,1,8,2:0:0:0:
373,330,3773,1,0,3:0:0:0:
373,330,3883,1,0,2:0:0:0:
286,308,4102,1,0,3:0:0:0:
216,362,4320,1,0,3:0:0:0:
216,362,4430,6,0,P|203:326|198:260,1,105,0|8,3:0|2:0,2:0:0:0:
260,195,5087,1,0,3:0:0:0:
209,121,5306,2,0,L|184:128,1,26.2500000000001,0|0,2:0|2:0,2:0:0:0:
128,182,5525,5,0,3:0:0:0:
9,113,5744,1,2,1:2:0:0:
9,113,5853,1,2,2:0:0:0:
132,49,6072,1,2,1:2:0:0:
132,49,7058,6,0,P|149:63|159:83,1,45.5,0|0,1:2|2:0,2:0:0:0:
208,131,7277,2,0,P|227:118|248:112,1,45.5,0|0,1:2|2:0,2:0:0:0:
293,60,7496,2,0,P|347:59|442:96,1,136.5,2|0,2:0|2:0,2:0:0:0:
451,129,7934,6,0,P|435:120|383:113,1,70,4|0,3:2|2:0,2:0:0:0:
286,151,8372,1,0,1:0:0:0:
254,251,8591,1,0,2:0:0:0:
304,343,8810,2,0,P|339:328|396:331,1,70,0|0,3:0|2:0,2:0:0:0:
474,339,9247,1,0,1:0:0:0:
474,339,9357,1,0,2:0:0:0:
461,234,9576,6,0,P|426:219|369:222,1,70,0|0,2:0|2:0,2:0:0:0:
341,221,9904,2,0,L|312:228,3,23.3333333333333,0|0|0|0,2:0|2:0|2:0|1:0,2:0:0:0:
217,257,10342,2,0,P|202:222|205:165,1,70,0|0,2:0|3:0,2:0:0:0:
252,98,10780,1,8,2:3:0:0:
182,19,10999,1,8,1:3:0:0:
86,62,11218,1,0,2:0:0:0:
86,62,11328,1,0,2:0:0:0:
86,62,11437,6,0,L|97:117,3,35,0|0|0|0,3:0|2:0|2:0|2:0,2:0:0:0:
105,147,11875,1,0,1:0:0:0:
35,225,12094,1,0,2:0:0:0:
93,312,12313,2,0,P|145:315|196:329,1,105,0|0,3:0|2:0,2:0:0:0:
196,329,12751,1,0,1:0:0:0:
196,329,12861,1,0,2:0:0:0:
289,281,13080,1,0,1:0:0:0:
289,281,13189,5,0,3:0:0:0:
376,338,13408,2,0,L|402:343,3,23.3333333333333,0|0|0|0,1:0|2:0|2:0|1:0,2:0:0:0:
467,263,13846,1,0,3:0:0:0:
467,263,13956,1,0,1:0:0:0:
467,263,14065,2,0,L|460:220,3,35,0|0|0|0,3:0|1:0|1:0|3:0,2:0:0:0:
428,188,14503,2,0,L|435:144,3,35,0|0|0|0,3:0|3:0|3:0|3:0,2:0:0:0:
455,114,14941,6,0,L|391:121,1,59.5000000000002,4|0,3:2|2:0,2:0:0:0:
323,67,15379,1,0,3:0:0:0:
248,116,15598,1,0,2:0:0:0:
248,116,15707,1,0,2:0:0:0:
248,116,15817,2,0,P|241:153|239:184,1,59.5000000000002,0|0,3:0|2:0,2:0:0:0:
265,211,16145,1,0,2:0:0:0:
312,286,16364,1,0,2:0:0:0:
251,351,16583,1,0,2:0:0:0:
251,351,16693,6,0,P|193:337|112:335,1,119,0|0,3:0|3:0,2:0:0:0:
56,287,17350,1,0,2:0:0:0:
120,225,17569,2,0,P|123:195|134:167,1,59.5000000000002,0|0,3:0|2:0,2:0:0:0:
154,128,17897,2,0,P|118:141|93:144,1,59.5000000000002,0|0,2:0|2:0,2:0:0:0:
49,69,18335,1,0,2:0:0:0:
49,69,18445,6,0,P|103:49|175:43,1,119,0|0,3:0|3:0,2:0:0:0:
250,21,19102,1,0,2:0:0:0:
298,95,19320,2,0,P|289:123|272:147,1,59.5000000000002,0|0,3:0|2:0,2:0:0:0:
263,191,19649,2,0,P|291:182|315:165,1,59.5000000000002,0|0,2:0|2:0,2:0:0:0:
398,130,20087,1,0,2:0:0:0:
398,130,20196,6,0,L|425:250,2,119,0|0|0,3:0|3:0|3:0,2:0:0:0:
374,43,21291,1,2,2:0:0:0:
314,109,21510,1,2,3:2:0:0:
314,109,21620,1,2,2:0:0:0:
236,64,21839,6,0,P|200:56|175:55,1,59.5000000000002,2|0,2:0|2:0,2:0:0:0:
133,62,22167,1,2,2:0:0:0:
67,122,22386,1,0,3:0:0:0:
67,122,22496,1,2,2:0:0:0:
102,203,22715,2,0,P|138:195|163:194,1,59.5000000000002,2|0,2:0|2:0,2:0:0:0:
205,201,23043,1,2,2:0:0:0:
265,266,23262,1,0,3:0:0:0:
265,266,23372,1,2,2:0:0:0:
345,227,23591,6,0,P|352:255|357:285,1,59.5000000000002,2|0,2:0|2:0,2:0:0:0:
361,329,23919,2,0,L|398:319,3,29.7500000000001,2|2|0|2,2:0|2:0|3:0|2:0,2:0:0:0:
473,352,24466,1,2,2:0:0:0:
473,352,24576,2,0,P|474:322|481:293,1,59.5000000000002,0|0,3:0|2:0,2:0:0:0:
504,206,25014,1,0,3:0:0:0:
504,206,25123,1,2,2:0:0:0:
504,206,25233,1,2,2:0:0:0:
504,206,25342,6,0,P|463:213|406:213,1,89.2500000000003,2|2,2:0|2:0,2:0:0:0:
328,229,25890,1,0,3:2:0:0:
268,162,26109,1,2,2:0:0:0:
268,162,26218,2,0,L|276:96,1,59.5000000000002,2|0,2:0|2:0,2:0:0:0:
282,58,26547,1,2,2:0:0:0:
364,22,26766,1,0,3:2:0:0:
438,71,26985,1,2,2:0:0:0:
438,71,27094,2,0,L|430:130,1,59.5000000000002,2|0,2:0|2:0,2:0:0:0:
422,182,27423,5,0,1:0:0:0:
462,278,27642,1,0,1:0:0:0:
358,259,27861,1,0,3:0:0:0:
358,259,27970,1,0,1:0:0:0:
358,259,28080,2,0,P|313:267|277:280,1,70,0|0,1:0|3:0,2:0:0:0:
245,303,28408,1,4,1:3:0:0:
175,224,28627,1,4,1:3:0:0:
98,295,28846,6,0,P|80:265|73:231,1,70,4|0,3:1|2:0,2:0:0:0:
65,178,29174,1,0,3:0:0:0:
158,131,29393,2,0,P|192:138|222:155,1,70,0|0,1:0|2:0,2:0:0:0:
326,171,29831,2,0,P|320:127|311:100,1,70,0|0,3:0|2:0,2:0:0:0:
281,59,30160,1,0,2:0:0:0:
182,22,30379,1,0,2:0:0:0:
88,68,30598,1,0,2:0:0:0:
88,68,30707,6,0,P|71:139|66:227,1,140,0|0,3:0|1:0,2:0:0:0:
91,307,31364,1,0,2:0:0:0:
178,248,31583,2,0,P|212:237|252:235,1,70,0|0,3:0|2:0,2:0:0:0:
297,219,31912,1,0,2:0:0:0:
323,320,32131,1,0,2:0:0:0:
422,353,32350,1,0,2:0:0:0:
422,353,32459,6,0,L|441:201,1,140,0|0,3:0|1:0,2:0:0:0:
493,123,33116,1,0,2:0:0:0:
407,61,33335,2,0,P|372:64|337:70,1,70,0|0,3:0|2:0,2:0:0:0:
289,92,33664,2,0,L|278:183,1,70,0|0,2:0|2:0,2:0:0:0:
229,253,34102,1,0,2:0:0:0:
229,253,34211,6,0,P|137:266|64:285,2,140,0|0|0,3:0|1:0|3:0,2:0:0:0:
305,180,35306,1,2,2:0:0:0:
397,230,35525,1,2,1:2:0:0:
397,230,35634,1,2,2:0:0:0:
381,333,35853,6,0,P|331:313|264:307,1,105,2|2,2:0|2:0,2:0:0:0:
181,343,36401,1,0,1:0:0:0:
181,343,36510,1,2,2:0:0:0:
84,301,36729,2,0,P|64:251|58:184,1,105,2|2,2:0|2:0,2:0:0:0:
95,102,37277,1,0,1:0:0:0:
95,102,37386,1,2,2:0:0:0:
196,129,37605,6,0,P|176:179|170:246,1,105,2|2,2:0|2:0,2:0:0:0:
181,280,38043,2,0,P|220:295|258:298,1,70,2|2,2:0|2:0,2:0:0:0:
351,318,38481,1,2,2:0:0:0:
351,318,38591,2,0,P|345:251|339:235,1,70,0|0,3:0|2:0,2:0:0:0:
316,147,39029,1,2,1:2:0:0:
316,147,39138,1,0,2:0:0:0:
421,147,39357,6,0,P|404:104|358:55,1,105,2|2,2:0|2:0,2:0:0:0:
320,32,39795,1,2,2:0:0:0:
217,56,40014,1,2,2:0:0:0:
187,156,40233,2,0,P|213:243|213:278,1,105,2|2,2:0|2:0,2:0:0:0:
197,306,40671,1,2,2:0:0:0:
99,345,40890,1,2,2:0:0:0:
23,271,41109,1,2,2:0:0:0:
23,271,41218,6,0,P|30:223|44:193,1,70,0|0,3:0|1:0,2:0:0:0:
116,133,41656,1,0,1:0:0:0:
215,165,41875,1,0,3:0:0:0:
215,165,41985,1,0,1:0:0:0:
215,165,42094,2,0,L|218:119,3,35,0|0|0|0,3:0|3:0|1:0|3:0,2:0:0:0:
212,77,42532,2,0,L|250:72,1,35,0|0,1:0|3:0,2:0:0:0:
342,27,42861,5,4,2:1:0:0:
411,105,43080,2,0,L|419:181,1,70,0|0,3:0|2:0,2:0:0:0:
422,227,43408,1,0,1:0:0:0:
323,191,43627,1,0,3:0:0:0:
224,227,43846,2,0,L|216:303,1,70,0|0,3:0|2:0,2:0:0:0:
216,296,44174,1,0,3:0:0:0:
216,296,44284,1,0,1:0:0:0:
363,351,44612,6,0,L|370:281,1,70,0|0,3:0|2:0,2:0:0:0:
384,235,44941,1,0,3:0:0:0:
384,235,45050,1,0,2:0:0:0:
384,235,45160,1,0,1:0:0:0:
460,163,45379,2,0,L|386:153,1,70,0|0,3:0|3:0,2:0:0:0:
359,53,45817,1,8,2:3:0:0:
254,59,46036,1,8,1:3:0:0:
254,59,46145,2,0,L|248:20,2,35,0|0|0,2:0|2:0|2:0,2:0:0:0:
261,111,46474,5,0,3:0:0:0:
161,144,46693,1,0,2:0:0:0:
161,249,46912,1,0,1:0:0:0:
261,281,47131,1,0,2:0:0:0:
323,196,47350,2,0,L|364:189,2,35,0|0|0,3:0|2:0|2:0,2:0:0:0:
270,202,47678,2,0,L|229:195,2,35,0|0|0,2:0|1:0|2:0,2:0:0:0:
343,277,48116,6,0,L|441:261,1,70,0|0,2:0|2:0,2:0:0:0:
472,278,48445,1,0,2:0:0:0:
472,278,48554,1,0,2:0:0:0:
472,278,48664,1,0,1:0:0:0:
400,355,48883,2,0,L|303:347,1,70,0|0,2:0|3:0,2:0:0:0:
239,296,49320,1,8,2:3:0:0:
216,193,49539,1,8,1:3:0:0:
246,94,49758,5,0,2:0:0:0:
246,94,49868,2,0,P|207:90|131:91,1,105,4|0,3:2|2:0,2:0:0:0:
38,113,50415,1,0,1:0:0:0:
6,213,50634,1,0,3:0:0:0:
104,250,50853,2,0,P|159:240|194:237,1,70,0|0,3:0|2:0,2:0:0:0:
172,238,51182,1,0,3:0:0:0:
172,238,51291,1,0,1:0:0:0:
245,315,51510,5,0,3:0:0:0:
245,315,51620,2,0,P|300:325|342:325,1,70,0|0,3:0|3:0,2:0:0:0:
373,330,51948,1,0,2:0:0:0:
373,330,52058,1,0,2:0:0:0:
373,330,52167,1,0,1:0:0:0:
463,275,52386,2,0,P|451:219|436:192,1,70,0|0,3:0|3:0,2:0:0:0:
369,134,52824,1,8,2:3:0:0:
447,64,53043,1,8,1:3:0:0:
447,64,53153,2,0,L|486:69,2,35,0|0|0,2:0|2:0|2:0,2:0:0:0:
399,40,53481,5,0,3:0:0:0:
296,62,53700,1,0,3:0:0:0:
246,154,53919,1,0,1:0:0:0:
143,132,54138,1,0,3:0:0:0:
63,201,54357,2,0,P|50:237|48:285,1,70,0|0,3:0|2:0,2:0:0:0:
77,311,54685,2,0,P|111:308|144:295,1,70,0|0,2:0|2:0,2:0:0:0:
234,349,55123,1,0,2:0:0:0:
234,349,55233,6,0,P|249:294|251:212,1,140,8|0,2:0|3:0,2:0:0:0:
244,106,55890,1,8,2:0:0:0:
244,106,55999,1,8,2:0:0:0:
244,106,56109,2,0,P|253:156|225:105,1,140,2|2,2:0|2:0,2:0:0:0:
233,21,56766,1,2,2:0:0:0:
359,21,56985,6,0,P|389:70|408:146,1,126,4|0,3:1|2:0,2:0:0:0:
386,195,57423,2,0,P|323:205|267:232,1,126,0|0,1:0|2:0,2:0:0:0:
229,282,57861,1,0,3:0:0:0:
108,246,58080,1,0,2:0:0:0:
108,246,58189,1,0,2:0:0:0:
108,246,58299,6,0,P|105:206|109:177,1,42,2|0,1:2|2:0,2:0:0:0:
49,163,58518,2,0,P|86:147|116:143,1,42,2|0,2:0|2:0,2:0:0:0:
111,79,58737,2,0,P|138:110|152:136,1,42,2|0,3:2|2:0,2:0:0:0:
209,112,58956,2,0,P|189:147|168:168,1,42,2|0,2:0|2:0,2:0:0:0:
208,215,59174,2,0,P|169:207|143:193,1,42,2|0,1:2|2:0,2:0:0:0:
270,203,59393,1,2,2:0:0:0:
270,203,59503,2,0,L|287:303,1,84,2|0,2:0|2:0,2:0:0:0:
314,341,59831,1,8,2:3:0:0:
435,307,60050,2,0,L|451:213,1,84,8|0,1:3|3:0,2:0:0:0:
407,105,60488,6,0,B|368:119|368:119|361:161,1,84,2|0,3:2|2:0,2:0:0:0:
356,224,60817,2,0,L|259:255,1,84,2|0,2:0|2:0,2:0:0:0:
215,266,61145,1,2,3:2:0:0:
106,201,61364,2,0,P|109:152|132:115,1,84,2|0,3:2|2:0,2:0:0:0:
182,94,61693,2,0,L|270:107,1,84,2|0,2:0|2:0,2:0:0:0:
327,113,62021,1,2,3:2:0:0:
419,27,62240,5,0,3:0:0:0:
457,147,62459,1,2,3:2:0:0:
457,147,62569,1,2,3:2:0:0:
457,147,62678,2,0,P|482:188|513:211,2,84,0|0|0,1:0|2:0|3:0,2:0:0:0:
341,94,63335,1,8,3:0:0:0:
225,144,63554,1,8,3:0:0:0:
206,268,63773,1,0,2:0:0:0:
206,268,63883,1,0,2:0:0:0:
206,268,63992,6,0,P|138:248|82:220,1,126,4|0,3:1|2:0,2:0:0:0:
32,194,64430,2,0,P|28:140|93:76,1,126,0|0,1:0|2:0,2:0:0:0:
122,50,64868,1,0,3:0:0:0:
233,108,65087,1,0,2:0:0:0:
233,108,65196,1,0,2:0:0:0:
233,108,65306,2,0,P|238:128|239:152,1,42,2|0,1:2|2:0,2:0:0:0:
226,211,65525,1,2,2:0:0:0:
142,305,65744,5,2,3:2:0:0:
266,284,65963,1,2,2:0:0:0:
266,284,66072,1,2,2:0:0:0:
266,284,66182,2,0,P|270:304|276:324,1,42,2|0,1:2|2:0,2:0:0:0:
326,363,66401,1,2,2:0:0:0:
326,363,66510,2,0,P|399:344|425:344,1,84,2|0,2:0|2:0,2:0:0:0:
470,345,66839,1,0,2:0:0:0:
496,229,67058,2,0,P|423:210|397:210,1,84,0|0,1:0|2:0,2:0:0:0:
295,251,67496,6,0,L|317:145,1,84,0|0,3:0|2:0,2:0:0:0:
312,168,67824,1,0,2:0:0:0:
312,168,67934,1,0,1:0:0:0:
248,59,68153,1,0,2:0:0:0:
368,22,68372,2,0,L|390:128,1,84,0|0,3:0|2:0,2:0:0:0:
385,104,68700,1,0,2:0:0:0:
385,104,68810,1,0,1:0:0:0:
484,181,69029,1,0,3:0:0:0:
446,278,69247,5,4,1:0:0:0:
446,278,70123,2,0,L|393:290,1,42,4|0,1:0|2:0,2:0:0:0:
352,322,70342,2,0,L|368:270,1,42,4|0,1:0|2:0,2:0:0:0:
357,218,70561,2,0,L|393:257,1,42,4|0,1:0|2:0,2:0:0:0:
258,341,70999,6,0,P|228:323|194:314,1,70,4|0,3:2|2:0,2:0:0:0:
89,325,71437,1,0,1:0:0:0:
30,237,71656,1,0,2:0:0:0:
101,160,71875,2,0,P|113:127|116:92,1,70,0|0,3:0|2:0,2:0:0:0:
186,13,72313,1,0,1:0:0:0:
186,13,72423,1,0,2:0:0:0:
271,73,72642,6,0,P|274:107|286:140,1,70,0|0,2:0|2:0,2:0:0:0:
320,180,72970,2,0,L|349:173,3,23.3333333333333,0|0|0|0,2:0|2:0|2:0|1:0,2:0:0:0:
446,153,73408,2,0,L|456:247,1,70,0|0,2:0|3:0,2:0:0:0:
503,315,73846,1,8,2:3:0:0:
399,294,74065,1,8,1:3:0:0:
307,346,74284,1,0,2:0:0:0:
307,346,74393,1,0,2:0:0:0:
307,346,74503,6,0,P|301:322|287:292,3,35,0|0|0|0,3:0|2:0|2:0|2:0,2:0:0:0:
273,265,74941,1,0,1:0:0:0:
169,248,75160,1,0,2:0:0:0:
86,313,75379,2,0,P|82:260|68:209,1,105,0|0,3:0|2:0,2:0:0:0:
53,159,75817,1,0,1:0:0:0:
53,159,75926,2,0,P|86:177|132:179,1,70,0|0,2:0|1:0,2:0:0:0:
169,173,76255,5,0,3:0:0:0:
260,121,76474,2,0,L|255:95,3,23.3333333333333,0|0|0|0,1:0|2:0|2:0|1:0,2:0:0:0:
180,39,76912,1,0,2:0:0:0:
180,39,77021,1,0,1:0:0:0:
180,39,77131,2,0,L|137:46,3,35,0|0|0|0,3:0|1:0|2:0|3:0,2:0:0:0:
92,43,77569,6,0,P|66:103|116:144,1,140,0|0,1:0|2:0,2:0:0:0:
116,144,79758,6,0,L|190:150,1,59.5000000000002,4|0,3:2|2:0,2:0:0:0:
252,194,80196,2,0,L|263:144,3,29.7500000000001,0|0|0|0,3:0|2:0|2:0|2:0,2:0:0:0:
285,129,80634,1,0,3:0:0:0:
285,129,80744,2,0,L|346:121,1,59.5000000000002,2|2,2:0|2:0,2:0:0:0:
421,76,81182,1,0,2:0:0:0:
487,135,81401,6,0,P|495:169|485:215,1,59.5000000000002,0|0,2:0|2:0,2:0:0:0:
484,237,81729,1,0,2:0:0:0:
407,283,81948,2,0,P|377:279|350:266,1,59.5000000000002,0|0,3:0|2:0,2:0:0:0:
265,239,82386,2,0,L|272:326,1,59.5000000000002,0|0,3:0|2:0,2:0:0:0:
243,335,82715,2,0,P|215:347|186:351,1,59.5000000000002,2|2,2:0|2:0,2:0:0:0:
97,363,83153,1,0,2:0:0:0:
97,363,83262,6,0,L|90:325,3,29.7500000000001,0|0|0|0,3:0|2:0|2:0|2:0,2:0:0:0:
70,294,83700,2,0,L|82:221,1,59.5000000000002,0|0,3:0|2:0,2:0:0:0:
54,188,84029,2,0,L|123:196,1,70,0|2,2:0|2:0,2:0:0:0:
176,200,84357,1,2,2:0:0:0:
277,173,84576,2,0,P|292:132|295:100,2,70,2|2|0,3:2|2:0|3:2,2:0:0:0:
296,260,85233,2,0,P|300:284|315:265,1,59.5000000000002,0|0,2:0|3:0,2:0:0:0:
442,140,85890,5,0,3:0:0:0:
392,65,86109,1,2,2:0:0:0:
305,45,86328,2,0,L|271:49,3,29.7500000000001,0|0|0|0,3:0|2:0|2:0|2:0,2:0:0:0:
235,69,86766,1,0,3:0:0:0:
140,163,87094,5,0,2:0:0:0:
140,163,87204,1,0,3:0:0:0:
140,163,87313,1,0,2:0:0:0:
140,163,87423,1,0,2:0:0:0:
140,163,87532,2,0,P|152:210|155:277,1,89.2500000000003,0|2,3:0|2:0,2:0:0:0:
123,333,88080,1,10,3:2:0:0:
123,333,88299,1,0,2:0:0:0:
212,328,88518,6,0,P|256:334|291:347,1,59.5000000000002,0|0,2:0|2:0,2:0:0:0:
270,338,88846,1,0,2:0:0:0:
270,338,88956,1,8,2:0:0:0:
341,285,89174,1,0,2:0:0:0:
311,201,89393,2,0,P|266:207|231:220,1,59.5000000000002,0|2,2:0|2:0,2:0:0:0:
252,211,89722,1,2,2:0:0:0:
252,211,89831,1,8,2:0:0:0:
182,158,90050,1,0,2:0:0:0:
272,105,90269,6,0,P|279:60|294:20,1,70,4|0,1:0|1:0,2:0:0:0:
377,90,90707,2,0,P|410:80|445:76,1,70,0|0,1:0|1:0,2:0:0:0:
482,175,91145,1,0,2:0:0:0:
482,175,91912,6,0,P|428:161|368:160,1,89.2500000000003,4|0,1:0|2:0,2:0:0:0:
309,184,92459,1,0,1:0:0:0:
294,272,92678,1,0,2:0:0:0:
215,313,92897,2,0,L|156:304,1,59.5000000000002,0|0,3:0|2:0,2:0:0:0:
117,281,93226,2,0,P|108:250|108:204,1,59.5000000000002,0|0,2:0|2:0,2:0:0:0:
116,133,93664,6,0,L|32:141,2,59.5000000000002,0|0|0,2:0|2:0|2:0,2:0:0:0:
158,146,94211,1,0,1:0:0:0:
218,80,94430,1,0,2:0:0:0:
218,80,94539,1,0,2:0:0:0:
218,80,94649,2,0,L|306:88,1,89.2500000000003,2|0,3:2|2:0,2:0:0:0:
343,114,95087,2,0,L|255:122,1,89.2500000000003,2|0,1:2|2:0,2:0:0:0:
233,162,95525,5,0,3:0:0:0:
175,230,95744,1,0,2:0:0:0:
175,230,95853,1,0,2:0:0:0:
175,230,95963,1,0,1:0:0:0:
223,305,96182,1,0,2:0:0:0:
309,284,96401,2,0,P|350:278|377:279,1,59.5000000000002,0|0,3:0|2:0,2:0:0:0:
409,294,96729,2,0,L|419:236,1,59.5000000000002,0|0,2:0|2:0,2:0:0:0:
419,190,97058,1,0,2:0:0:0:
419,190,97167,6,0,P|378:196|351:195,1,59.5000000000002,2|2,2:0|2:0,2:0:0:0:
316,183,97496,1,2,2:0:0:0:
316,183,97605,1,2,2:0:0:0:
316,183,97715,2,0,L|318:131,3,29.7500000000001,0|2|2|2,1:2|2:0|2:0|2:0,2:0:0:0:
307,109,98153,1,0,3:2:0:0:
437,78,98481,2,0,L|474:82,2,29.7500000000001,0|2|2,2:0|1:2|2:0,2:0:0:0:
372,15,98919,6,0,L|278:28,1,89.2500000000003,0|0,2:0|2:0,2:0:0:0:
211,79,99466,2,0,L|205:119,2,29.7500000000001,0|0|0,1:0|2:0|2:0,2:0:0:0:
177,48,99795,2,0,L|104:35,1,59.5000000000002,0|0,2:0|2:0,2:0:0:0:
53,99,100233,1,0,2:0:0:0:
53,99,100342,2,0,P|39:133|33:171,1,59.5000000000002,0|0,1:0|2:0,2:0:0:0:
70,237,100780,6,0,L|117:246,3,29.7500000000001,0|0|0|0,3:0|2:0|2:0|2:0,2:0:0:0:
142,230,101218,1,0,1:0:0:0:
142,230,101328,1,0,2:0:0:0:
142,230,101437,1,0,2:0:0:0:
142,230,101547,2,0,P|154:270|160:305,1,59.5000000000002,0|0,2:0|2:0,2:0:0:0:
232,335,101985,1,0,2:0:0:0:
232,335,102094,2,0,L|279:344,3,29.7500000000001,0|0|0|0,1:0|2:0|2:0|2:0,2:0:0:0:
305,350,102532,5,0,3:0:0:0:
411,268,102861,1,0,2:0:0:0:
411,268,102970,2,0,L|454:276,2,29.7500000000001,0|0|0,1:0|2:0|2:0,2:0:0:0:
367,255,103299,2,0,L|286:269,1,59.5000000000002,0|0,2:0|2:0,2:0:0:0:
230,220,103737,1,0,2:0:0:0:
230,220,103846,2,0,P|222:168|222:148,1,59.5000000000002,0|0,1:0|2:0,2:0:0:0:
164,91,104284,5,0,2:0:0:0:
213,16,104503,1,0,1:0:0:0:
299,40,104722,1,0,1:0:0:0:
304,128,104941,1,0,3:0:0:0:
304,128,105050,1,0,1:0:0:0:
304,128,105160,2,0,L|355:121,3,29.7500000000001,0|0|0|0,3:0|3:0|1:0|3:0,2:0:0:0:
377,118,105598,2,0,L|370:156,1,29.7500000000001,0|0,1:0|3:0,2:0:0:0:
434,231,105926,5,4,2:1:0:0:
392,327,106145,2,0,P|351:330|316:319,1,70,0|0,3:0|2:0,2:0:0:0:
271,311,106474,1,0,1:0:0:0:
205,228,106693,1,0,3:0:0:0:
237,128,106912,2,0,P|204:119|169:123,1,70,0|0,3:0|2:0,2:0:0:0:
168,123,107240,1,0,3:0:0:0:
168,123,107350,1,0,1:0:0:0:
88,258,107678,6,0,B|73:182,1,70,0|0,3:0|3:0,2:0:0:0:
39,166,108007,1,0,3:0:0:0:
39,166,108116,1,0,2:0:0:0:
39,166,108226,1,0,1:0:0:0:
75,67,108445,1,0,3:0:0:0:
173,30,108664,2,0,B|208:25|208:25|238:42,1,70,0|8,3:0|2:3,2:0:0:0:
328,96,109102,1,8,1:3:0:0:
328,96,109211,2,0,L|334:57,2,35,0|0|0,2:0|2:0|2:0,2:0:0:0:
318,148,109539,5,0,3:0:0:0:
418,181,109758,1,0,2:0:0:0:
418,286,109977,1,0,1:0:0:0:
318,318,110196,1,0,2:0:0:0:
256,233,110415,2,0,L|215:226,2,35,0|0|0,3:0|2:0|2:0,2:0:0:0:
309,239,110744,2,0,L|350:232,2,35,0|0|0,2:0|1:0|2:0,2:0:0:0:
223,300,111182,6,0,P|188:306|155:318,1,70,0|0,2:0|2:0,2:0:0:0:
117,351,111510,1,0,2:0:0:0:
117,351,111620,1,0,2:0:0:0:
117,351,111729,1,0,1:0:0:0:
47,272,111948,2,0,P|71:222|78:200,1,70,0|0,2:0|3:0,2:0:0:0:
50,105,112386,1,8,2:3:0:0:
132,39,112605,1,8,1:3:0:0:
210,109,112824,5,0,2:0:0:0:
209,108,112934,2,0,P|226:113|244:113,1,35,4|0,3:2|2:0,2:0:0:0:
296,104,113153,2,0,P|330:97|361:81,1,70,0|0,3:0|2:0,2:0:0:0:
405,52,113481,1,0,1:0:0:0:
488,115,113700,1,0,3:0:0:0:
462,216,113919,2,0,P|471:267|474:303,1,70,0|0,3:0|2:0,2:0:0:0:
472,285,114247,1,0,3:0:0:0:
472,285,114357,1,0,1:0:0:0:
383,341,114576,5,0,3:0:0:0:
383,341,114685,2,0,P|373:307|355:277,1,70,0|0,3:0|3:0,2:0:0:0:
321,250,115014,1,0,2:0:0:0:
321,250,115123,1,0,2:0:0:0:
321,250,115233,1,0,1:0:0:0:
328,145,115452,2,0,P|361:134|395:135,1,70,0|0,3:0|3:0,2:0:0:0:
485,192,115890,1,8,2:3:0:0:
444,288,116109,1,8,1:3:0:0:
444,288,116218,2,0,L|457:330,2,35,0|0|0,2:0|2:0|2:0,2:0:0:0:
397,263,116547,6,0,L|362:268,1,35,0|0,1:0|1:0,2:0:0:0:
264,306,116875,2,0,L|276:273,1,35,0|0,1:0|1:0,2:0:0:0:
288,168,117204,2,0,L|310:194,1,35,0|0,1:0|1:0,2:0:0:0:
362,188,117423,2,0,L|408:180,3,35,0|0|0|0,1:0|1:0|1:0|1:0,2:0:0:0:
438,150,117861,1,0,1:0:0:0:
438,150,117970,1,0,1:0:0:0:
438,150,118080,1,0,1:0:0:0:
438,150,118189,1,0,1:0:0:0:
438,150,118299,6,0,L|446:99,1,35,4|0,3:1|3:0,2:0:0:0:
347,72,118627,1,0,3:0:0:0:
347,72,118737,2,0,L|355:21,3,35,0|0|0|0,3:0|3:0|3:0|3:0,2:0:0:0:
300,33,119174,2,0,P|233:38|162:54,1,140,2|2,2:0|2:1,2:0:0:0:
82,122,119831,1,0,2:0:0:0:
165,216,120050,6,0,P|215:197|259:257,1,126,4|0,3:1|2:0,2:0:0:0:
249,307,120488,2,0,P|323:291|380:305,1,126,0|0,1:0|2:0,2:0:0:0:
424,335,120926,1,0,3:0:0:0:
458,213,121145,1,0,2:0:0:0:
458,213,121255,1,0,2:0:0:0:
458,213,121364,6,0,P|444:175|429:150,1,42,2|0,1:2|2:0,2:0:0:0:
478,113,121583,2,0,P|437:113|408:121,1,42,2|0,2:0|2:0,2:0:0:0:
388,61,121802,2,0,P|375:100|373:129,1,42,2|0,3:2|2:0,2:0:0:0:
312,131,122021,2,0,P|344:154|372:165,1,42,2|0,2:0|2:0,2:0:0:0:
355,225,122240,2,0,P|387:201|405:178,1,42,2|0,1:2|2:0,2:0:0:0:
293,241,122459,1,2,2:0:0:0:
293,241,122569,2,0,L|202:219,1,84,2|0,2:0|2:0,2:0:0:0:
149,207,122897,1,8,2:3:0:0:
73,307,123116,2,0,L|155:292,1,84,8|0,1:3|3:0,2:0:0:0:
280,315,123554,6,0,P|311:339|367:342,1,84,2|0,3:2|2:0,2:0:0:0:
417,331,123883,2,0,L|401:246,1,84,2|0,2:0|2:0,2:0:0:0:
436,195,124211,1,2,3:2:0:0:
371,86,124430,2,0,P|303:71|275:73,1,84,2|0,3:2|2:0,2:0:0:0:
226,83,124758,2,0,L|208:177,1,84,2|0,2:0|2:0,2:0:0:0:
199,228,125087,1,2,3:2:0:0:
85,283,125306,5,0,3:0:0:0:
24,172,125525,1,2,3:2:0:0:
24,172,125634,1,2,3:2:0:0:
24,172,125744,2,0,P|31:124|51:91,2,84,0|0|0,1:0|2:0|3:0,2:0:0:0:
85,283,126401,1,8,3:0:0:0:
207,313,126620,1,8,3:0:0:0:
293,221,126839,1,0,2:0:0:0:
293,221,126948,1,0,2:0:0:0:
293,221,127058,6,0,P|328:282|339:353,1,126,4|0,3:1|2:0,2:0:0:0:
399,353,127496,2,0,P|448:320|451:255,1,126,0|0,1:0|2:0,2:0:0:0:
440,196,127934,1,0,3:0:0:0:
345,112,128153,1,0,2:0:0:0:
345,112,128262,1,0,2:0:0:0:
345,112,128372,2,0,P|325:107|262:100,1,84,2|2,1:2|2:0,2:0:0:0:
149,41,128810,5,2,3:2:0:0:
188,160,129029,1,2,2:0:0:0:
188,160,129138,1,2,2:0:0:0:
188,160,129247,2,0,P|182:179|176:199,1,42,2|0,1:2|2:0,2:0:0:0:
157,260,129466,1,2,2:0:0:0:
157,260,129576,2,0,P|111:251|50:246,1,84,2|0,2:0|2:0,2:0:0:0:
12,263,129904,1,0,2:0:0:0:
35,139,130123,2,0,P|75:127|116:122,1,84,0|0,1:0|2:0,2:0:0:0:
241,142,130561,6,0,L|252:58,1,84,0|0,3:0|2:0,2:0:0:0:
251,58,130890,1,0,2:0:0:0:
251,58,130999,1,0,1:0:0:0:
129,23,131218,1,0,2:0:0:0:
35,107,131437,1,0,3:0:0:0:
35,107,131547,1,0,1:0:0:0:
35,107,131656,1,0,1:0:0:0:
35,107,131766,1,0,1:0:0:0:
35,107,131875,2,0,L|23:164,3,42,0|0|0|0,1:0|2:0|1:0|1:0,2:0:0:0:
23,200,132313,6,0,P|61:253|147:218,1,140,4|0,3:1|1:0,2:0:0:0:
324,319,133189,1,0,3:0:0:0:
324,319,133299,1,2,2:0:0:0:
395,242,133518,2,0,P|349:241|322:234,1,70,2|2,2:0|2:0,2:0:0:0:
300,133,133956,1,2,2:0:0:0:
300,133,134065,6,0,P|298:95|309:61,1,70,0|2,3:0|2:0,2:0:0:0:
407,33,134503,1,0,1:0:0:0:
478,110,134722,1,2,2:0:0:0:
442,208,134941,2,0,L|392:200,1,35,0|2,2:0|2:0,2:0:0:0:
303,188,135269,1,2,2:0:0:0:
271,288,135488,1,2,2:0:0:0:
271,288,135598,1,2,2:0:0:0:
271,288,135707,1,2,2:0:0:0:
271,288,135817,6,0,L|318:281,1,35,0|2,3:0|2:0,2:0:0:0:
384,352,136145,2,0,P|391:317|393:282,1,70,2|2,2:0|2:0,2:0:0:0:
415,179,136583,1,2,2:0:0:0:
415,179,136693,2,0,L|326:194,1,70,0|2,3:0|2:0,2:0:0:0:
243,165,137131,1,2,1:2:0:0:
243,165,137240,2,0,P|235:123|236:87,1,70,2|2,2:0|2:0,2:0:0:0:
230,42,137569,6,0,L|147:31,1,70,0|2,3:0|2:0,2:0:0:0:
58,60,138007,1,0,1:0:0:0:
34,162,138226,1,2,2:0:0:0:
111,232,138445,2,0,L|145:225,1,35,2|2,3:2|2:0,2:0:0:0:
234,169,138773,1,2,2:0:0:0:
324,222,138992,2,0,L|329:267,3,35,2|2|2|4,2:0|2:0|2:0|3:1,2:0:0:0:
394,337,139539,5,2,2:0:0:0:
470,265,139758,2,0,P|475:230|475:195,1,70,2|0,1:2|2:0,2:0:0:0:
420,105,140196,1,2,3:2:0:0:
420,105,140306,2,0,L|517:91,2,70,2|2|2,2:0|2:0|2:0,2:0:0:0:
334,166,140963,1,2,2:0:0:0:
334,166,141072,2,0,L|259:151,1,70,0|2,3:0|2:0,2:0:0:0:
212,146,141401,2,0,P|222:211|224:247,1,70,2|2,2:0|2:0,2:0:0:0:
192,316,141839,1,2,2:0:0:0:
192,316,141948,2,0,P|147:301|77:289,1,105,0|0,3:0|2:0,2:0:0:0:
37,291,142386,2,0,L|34:266,5,23.3333333333333,2|2|2|2|2|2,1:2|2:0|2:0|2:0|2:0|2:0,2:0:0:0:
30,232,142824,5,0,3:0:0:0:
64,138,143043,1,2,2:0:0:0:
64,138,143153,1,2,2:0:0:0:
64,138,143262,2,0,P|95:116|129:101,1,70,2|0,1:2|2:0,2:0:0:0:
157,62,143591,1,0,2:0:0:0:
157,62,143700,2,0,P|209:64|265:84,1,105,2|0,3:2|2:0,2:0:0:0:
243,136,144138,5,2,1:2:0:0:
243,136,144247,1,2,2:0:0:0:
243,136,144357,2,0,P|231:169|239:203,1,70,2|0,2:0|3:0,2:0:0:0:
261,246,144685,5,2,2:0:0:0:
261,246,144795,1,2,2:0:0:0:
261,246,144904,2,0,P|283:273|316:283,1,70,2|0,2:0|2:0,2:0:0:0:
375,287,145233,5,2,2:0:0:0:
375,287,145342,1,2,2:0:0:0:
375,287,145452,2,0,P|408:281|434:257,1,70,2|8,3:2|2:3,2:0:0:0:
455,208,145780,1,2,2:0:0:0:
455,208,145890,2,0,L|449:164,3,35,8|2|2|2,1:3|2:0|2:0|2:0,2:0:0:0:
452,120,146328,6,0,L|330:104,1,105,2|2,3:2|2:0,2:0:0:0:
280,25,146875,1,2,2:0:0:0:
280,25,146985,2,0,L|189:44,1,70,2|0,2:0|3:0,2:0:0:0:
160,51,147313,1,2,2:0:0:0:
160,51,147423,1,2,2:0:0:0:
108,142,147642,2,0,L|103:184,3,35,2|2|2|2,1:2|2:0|2:0|2:0,2:0:0:0:
53,269,148189,6,0,P|85:282|119:285,1,70,2|2,2:0|2:0,2:0:0:0:
226,340,148627,1,2,2:0:0:0:
226,340,148737,1,2,3:2:0:0:
226,340,148846,1,2,3:2:0:0:
226,340,148956,2,0,P|254:309|283:208,1,140,2|2,1:0|2:0,2:0:0:0:
255,115,149612,1,0,3:0:0:0:
184,168,149831,6,0,P|125:159|50:157,2,119,0|0|0,2:0|2:0|2:0,2:0:0:0:
331,249,156839,6,0,P|390:258|465:260,2,119,4|0|0,3:1|3:0|3:0,2:0:0:0:
168,324,158153,2,0,P|161:277|158:244,1,59.5000000000002,0|0,3:0|2:0,2:0:0:0:
88,210,158591,5,0,3:0:0:0:
121,127,158810,1,0,2:0:0:0:
209,134,159029,2,0,L|244:126,1,29.7500000000001,0|0,3:0|2:0,2:0:0:0:
282,134,159247,1,0,2:0:0:0:
282,134,159357,2,0,L|297:37,1,89.2500000000003,0|0,2:0|2:0,2:0:0:0:
379,15,159904,1,0,3:0:0:0:
458,55,160123,1,0,2:0:0:0:
489,155,160342,6,0,L|475:229,1,70,0|0,3:0|3:0,2:0:0:0:
404,301,160780,2,0,L|390:227,1,70,0|0,3:0|3:0,2:0:0:0:
332,144,161218,1,0,3:0:0:0:
257,218,161437,1,0,3:0:0:0:
155,192,161656,1,0,3:0:0:0:
58,234,161875,1,0,3:0:0:0:
40,337,162094,5,8,2:0:0:0:
140,38,162751,2,0,L|92:29,2,35,0|0|0,3:0|3:0|2:0,2:0:0:0:
243,19,163189,2,0,L|248:61,1,35,2|0,2:1|2:0,2:0:0:0:
243,106,163408,2,0,P|290:82|365:79,1,105,2|0,2:1|2:0,2:0:0:0:
404,79,163846,6,0,P|430:126|447:201,1,126,4|0,3:1|2:0,2:0:0:0:
472,253,164284,2,0,P|409:240|360:294,1,126,0|0,1:0|2:0,2:0:0:0:
338,334,164722,1,0,3:0:0:0:
236,258,164941,1,0,2:0:0:0:
236,258,165050,1,0,2:0:0:0:
236,258,165160,6,0,P|197:266|167:266,1,42,2|0,1:2|2:0,2:0:0:0:
162,329,165379,2,0,P|140:294|131:265,1,42,2|0,2:0|2:0,2:0:0:0:
69,281,165598,2,0,P|95:248|119:230,1,42,2|0,3:2|2:0,2:0:0:0:
87,179,165817,2,0,P|124:192|148:210,1,42,2|0,2:0|2:0,2:0:0:0:
188,164,166036,2,0,P|186:203|175:231,1,42,2|0,1:2|2:0,2:0:0:0:
170,102,166255,1,2,2:0:0:0:
170,102,166364,2,0,L|265:114,1,84,2|0,2:0|2:0,2:0:0:0:
316,117,166693,1,8,2:3:0:0:
420,45,166912,2,0,P|438:100|446:151,1,84,8|0,1:3|3:0,2:0:0:0:
450,253,167350,6,0,B|409:269|409:269|344:262,1,84,2|0,3:2|2:0,2:0:0:0:
309,244,167678,2,0,L|326:147,1,84,2|0,3:2|2:0,2:0:0:0:
314,100,168007,1,2,3:2:0:0:
199,47,168226,2,0,L|109:62,1,84,2|0,3:2|2:0,2:0:0:0:
66,99,168554,2,0,P|51:165|49:210,1,84,2|0,2:0|2:0,2:0:0:0:
48,244,168883,1,2,3:2:0:0:
166,202,169102,5,0,3:0:0:0:
225,313,169320,1,2,3:2:0:0:
225,313,169430,1,2,3:2:0:0:
225,313,169539,2,0,P|271:299|319:295,2,84,0|0|0,1:0|2:0|3:0,2:0:0:0:
106,358,170196,1,8,3:0:0:0:
33,254,170415,1,8,3:0:0:0:
107,152,170634,1,0,2:0:0:0:
107,152,170744,1,0,2:0:0:0:
107,152,170853,6,0,P|169:151|214:101,1,126,4|0,3:1|2:0,2:0:0:0:
190,48,171291,2,0,P|242:72|325:74,1,126,0|0,1:0|2:0,2:0:0:0:
372,66,171729,1,0,3:0:0:0:
309,175,171948,1,0,2:0:0:0:
309,175,172058,1,0,2:0:0:0:
309,175,172167,2,0,P|304:195|298:266,1,84,2|2,1:2|2:0,2:0:0:0:
409,316,172605,5,2,3:2:0:0:
288,352,172824,1,2,2:0:0:0:
288,352,172934,1,2,2:0:0:0:
288,352,173043,2,0,P|268:348|248:342,1,42,2|0,1:2|2:0,2:0:0:0:
188,351,173262,1,2,2:0:0:0:
188,351,173372,2,0,P|169:278|169:252,1,84,2|0,2:0|2:0,2:0:0:0:
178,207,173700,1,0,2:0:0:0:
253,105,173919,2,0,P|213:91|171:86,1,84,0|0,1:0|2:0,2:0:0:0:
45,89,174357,6,0,L|34:193,1,84,0|0,3:0|2:0,2:0:0:0:
36,172,174685,1,0,2:0:0:0:
36,172,174795,1,0,1:0:0:0:
108,274,175014,1,0,2:0:0:0:
228,237,175233,2,0,L|343:254,1,84,0|0,3:0|2:0,2:0:0:0:
311,249,175561,1,0,2:0:0:0:
311,249,175671,1,0,1:0:0:0:
418,315,175890,2,0,P|429:300|436:264,1,42,0|0,3:0|2:0,2:0:0:0:
449,226,176109,5,4,1:0:0:0:
449,226,176985,2,0,L|437:173,1,42,4|0,1:0|2:0,2:0:0:0:
405,132,177204,2,0,L|457:148,1,42,4|0,1:0|2:0,2:0:0:0:
509,137,177423,2,0,L|470:173,1,42,4|0,1:0|2:0,2:0:0:0:
341,244,177861,6,0,P|306:244|273:253,1,70,4|0,1:0|3:0,2:0:0:0:
224,272,178189,2,0,P|213:238|194:209,1,70,4|0,1:0|3:0,2:0:0:0:
163,167,178518,2,0,P|190:145|212:118,1,70,4|0,1:0|3:0,2:0:0:0:
240,73,178846,2,0,P|269:92|301:104,1,70,4|4,2:3|2:3,2:0:0:0:
352,122,179174,2,0,P|342:155|340:189,1,70,4|0,1:0|3:0,2:0:0:0:
341,244,179503,1,0,3:0:0:0:
341,244,179612,5,0,3:0:0:0:
239,216,179831,1,0,1:0:0:0:
180,303,180050,1,0,1:0:0:0:
78,275,180269,1,0,3:0:0:0:
78,275,180379,1,0,3:0:0:0:
78,275,180488,2,0,L|66:227,3,35,0|0|0|0,3:0|1:0|2:0|3:0,2:0:0:0:
56,189,180926,1,0,3:0:0:0:
129,113,181145,5,4,1:0:0:0:
