osu file format v14

[General]
AudioFilename: audio.mp3
AudioLeadIn: 0
PreviewTime:55882
Countdown: 0
SampleSet: Soft
StackLeniency: 0.3
Mode: 0
LetterboxInBreaks: 0
WidescreenStoryboard: 1

[Editor]
Bookmarks:151138,151248,151357,151467,151576,151686,151795,151905,152014,152124,152233,152343,152452,152562,152671,152781,152890,153000,153109,153219,153328,153438,153547,153657,153766,153876,153985,154095,154204,154313,154423,154532,154642,154751,154861,154970,155080,155189,155299,155408,155518,155627,155737,155846,155956
DistanceSpacing: 0.2
BeatDivisor: 4
GridSize: 32
TimelineZoom: 2.1

[Metadata]
Title:Tokyo Shandy Rendez-vous feat. KAF, Tsumiki
TitleUnicode:トウキョウ・シャンディ・ランデヴ feat. 花譜, ツミキ
Artist:MAISONdes
ArtistUnicode:MAISONdes
Creator:Asahina Momoko
Version:Extra
Source:うる星やつら
Tags:urusei yatsura anime ending ed japanese pop jpop j-pop メゾン・デ mokori
BeatmapID:4048937
BeatmapSetID:1942294

[Difficulty]
HPDrainRate:5
CircleSize:4
OverallDifficulty:8
ApproachRate:9.2
SliderMultiplier:2.6
SliderTickRate:1

[Events]
//Background and Video events
0,0,"BG.jpg",0,0
//Break Periods
2,151138,155956
//Storyboard Layer 0 (Background)
//Storyboard Layer 1 (Fail)
//Storyboard Layer 2 (Pass)
//Storyboard Layer 3 (Foreground)
//Storyboard Layer 4 (Overlay)
//Storyboard Sound Samples

[TimingPoints]
-825,437.956204379562,4,2,1,40,1,0
379,-66.6666666666667,4,2,1,40,0,0
926,-200,4,2,1,40,0,0
2020,-200,4,2,2,40,0,0
3116,-200,4,2,1,40,0,0
4430,-133.333333333333,4,2,1,40,0,0
4648,-133.333333333333,4,2,1,20,0,0
4758,-133.333333333333,4,2,1,30,0,0
4868,-133.333333333333,4,2,1,40,0,0
4977,-133.333333333333,4,2,1,50,0,0
5087,-133.333333333333,4,2,1,60,0,0
5196,-133.333333333333,4,2,1,70,0,0
5306,-66.6666666666667,4,2,1,80,0,0
5525,-50,4,2,1,80,0,0
6291,-133.333333333333,4,2,1,50,0,0
7058,-40,4,2,1,70,0,0
7605,-200,4,2,1,40,0,0
7934,-50,4,2,1,70,0,1
8043,-50,4,2,1,70,0,0
8591,-66.6666666666667,4,2,1,70,0,0
14941,-200,4,2,1,50,0,0
27423,-50,4,2,1,70,0,0
28846,-100,4,2,1,70,0,0
41437,-50,4,2,1,70,0,0
42861,-66.6666666666667,4,2,1,70,0,0
43080,-133.333333333333,4,2,1,70,0,0
43408,-66.6666666666667,4,2,1,70,0,0
43846,-133.333333333333,4,2,1,70,0,0
45160,-66.6666666666667,4,2,1,70,0,0
45379,-133.333333333333,4,2,1,70,0,0
45817,-66.6666666666667,4,2,1,70,0,0
46693,-133.333333333333,4,2,1,70,0,0
49320,-66.6666666666667,4,2,1,70,0,0
50087,-133.333333333333,4,2,1,70,0,0
50634,-66.6666666666667,4,2,1,70,0,0
50853,-133.333333333333,4,2,1,70,0,0
51620,-100,4,2,1,70,0,0
52824,-66.6666666666667,4,2,1,70,0,0
55561,-133.333333333333,4,2,1,70,0,0
56109,-200,4,2,1,70,0,0
56985,-50,4,2,1,70,0,1
60488,-55.5555555555556,4,2,1,70,0,1
63335,-50,4,2,1,70,0,1
65306,-55.5555555555556,4,2,1,70,0,1
69247,-55.5555555555556,4,2,1,70,0,0
70123,-50,4,2,1,70,0,1
70999,-50,4,2,1,70,0,0
71656,-66.6666666666667,4,2,1,70,0,0
73846,-50,4,2,1,70,0,0
74503,-66.6666666666667,4,2,1,70,0,0
77569,-200,4,2,1,50,0,0
84029,-100,4,2,1,50,0,0
84357,-66.6666666666667,4,2,1,50,0,0
84576,-100,4,2,1,50,0,0
84795,-200,4,2,1,50,0,0
87532,-133.333333333333,4,2,1,50,0,0
88080,-100,4,2,1,50,0,0
88518,-79.9999999999999,4,2,1,60,0,0
88956,-66.6666666666667,4,2,1,60,0,0
89393,-57.1428571428571,4,2,1,60,0,0
89831,-50,4,2,1,60,0,0
90269,-44.4444444444445,4,2,1,70,0,0
91912,-66.6666666666667,4,2,1,70,0,0
92240,-66.6666666666667,4,2,1,60,0,0
92459,-133.333333333333,4,2,1,60,0,0
94649,-133.333333333333,4,2,1,70,0,0
94758,-100,4,2,1,70,0,0
95525,-100,4,2,1,60,0,0
96401,-133.333333333333,4,2,1,60,0,0
104503,-50,4,2,1,70,0,0
105926,-66.6666666666667,4,2,1,70,0,0
106145,-133.333333333333,4,2,1,70,0,0
106474,-66.6666666666667,4,2,1,70,0,0
106912,-133.333333333333,4,2,1,70,0,0
108226,-66.6666666666667,4,2,1,70,0,0
108445,-133.333333333333,4,2,1,70,0,0
108883,-66.6666666666667,4,2,1,70,0,0
109758,-133.333333333333,4,2,1,70,0,0
112386,-66.6666666666667,4,2,1,70,0,0
113153,-133.333333333333,4,2,1,70,0,0
113700,-66.6666666666667,4,2,1,70,0,0
113919,-133.333333333333,4,2,1,70,0,0
114685,-100,4,2,1,70,0,0
115890,-66.6666666666667,4,2,1,70,0,0
119174,-200,4,2,1,70,0,0
120050,-50,4,2,1,70,0,1
123554,-55.5555555555556,4,2,1,70,0,1
126401,-50,4,2,1,70,0,1
128372,-55.5555555555556,4,2,1,70,0,1
132313,-55.5555555555556,4,2,1,70,0,0
142386,-83.3333333333333,4,2,1,70,0,0
142824,-55.5555555555556,4,2,1,70,0,0
149831,-200,4,2,1,40,0,0
160342,-133.333333333333,4,2,1,40,0,0
160561,-100,4,2,1,50,0,0
160780,-80,4,2,1,60,0,0
160999,-66.6666666666667,4,2,1,70,0,0
163408,-200,4,2,1,70,0,0
163846,-50,4,2,1,70,0,1
167350,-55.5555555555556,4,2,1,70,0,1
170196,-50,4,2,1,70,0,1
172167,-55.5555555555556,4,2,1,70,0,1
176109,-55.5555555555556,4,2,1,70,0,0
176985,-50,4,2,1,70,0,1
177861,-50,4,2,1,70,0,0

[Colours]
Combo1 : 255,128,255
Combo2 : 128,255,255
Combo3 : 255,103,30
Combo4 : 255,255,0
Combo5 : 11,244,163

[HitObjects]
287,299,379,6,0,L|280:372,2,48.74999999999997,0|0|0,2:0|2:0|1:0,2:0:0:0:
292,220,598,1,2,2:0:0:0:
78,109,817,1,2,2:0:0:0:
78,109,926,6,0,P|101:119|123:123,1,32.5,0|0,3:0|2:0,2:0:0:0:
200,93,1145,2,0,P|207:78|212:63,1,32.5,0|0,2:0|3:0,2:0:0:0:
127,29,1364,1,8,2:0:0:0:
178,185,1583,2,0,L|225:180,1,32.5,0|0,3:0|2:0,2:0:0:0:
258,305,1802,6,0,P|228:290|197:282,1,65,0|8,3:0|2:0,2:0:0:0:
66,233,2131,2,0,L|58:214,2,16.25,0|0|0,2:0|2:0|2:0,2:0:0:0:
80,332,2350,2,0,P|90:320|104:311,1,32.5,0|0,2:0|3:0,2:0:0:0:
197,282,2569,6,0,L|290:294,1,65,0|0,3:0|2:0,2:0:0:0:
337,299,2897,1,0,3:0:0:0:
428,189,3116,1,8,2:0:0:0:
416,172,3226,1,0,2:0:0:0:
412,191,3335,1,0,3:0:0:0:
408,210,3445,1,0,2:0:0:0:
471,349,3664,5,8,2:0:0:0:
467,330,3773,1,0,3:0:0:0:
463,311,3883,2,0,L|412:318,1,32.5,0|8,2:0|2:0,2:0:0:0:
331,332,4102,2,0,L|280:339,1,32.5,0|0,3:0|2:0,2:0:0:0:
200,351,4320,1,0,3:0:0:0:
80,244,4430,6,0,L|183:265,1,97.50000000000024,0|0,3:0|2:0,2:0:0:0:
261,232,4758,1,0,2:0:0:0:
265,199,4868,1,8,2:0:0:0:
269,167,4977,1,0,3:0:0:0:
273,135,5087,1,0,3:0:0:0:
278,103,5196,1,8,2:0:0:0:
279,67,5306,2,0,L|339:56,3,48.74999999999997,0|0|0|0,2:0|2:0|2:0|2:0,2:0:0:0:
357,26,5525,6,0,L|507:42,1,130,0|0,3:0|2:0,2:0:0:0:
338,260,5744,1,2,1:2:0:0:
293,181,5853,2,0,L|422:167,1,130,2|0,2:0|2:0,2:0:0:0:
502,158,6072,5,2,1:2:0:0:
104,200,6291,2,0,L|36:207,2,48.75000000000013,2|0|2,2:0|2:0|2:0,2:0:0:0:
201,191,6620,5,2,3:2:0:0:
403,326,6839,2,0,P|410:344|392:336,1,48.75000000000013,2|0,3:2|2:0,2:0:0:0:
299,340,7058,6,0,P|308:259|289:181,1,162.5,0|0,1:2|2:0,2:0:0:0:
478,264,7277,2,0,P|419:221|359:106,1,162.5,0|0,1:2|2:0,2:0:0:0:
286,73,7496,5,2,2:0:0:0:
189,114,7605,2,0,P|152:108|125:92,1,65,0|0,2:0|2:0,2:0:0:0:
51,161,7934,6,0,P|115:142|181:134,1,130,4|0,3:2|2:0,2:0:0:0:
370,146,8153,1,0,2:0:0:0:
211,33,8372,5,0,1:0:0:0:
311,229,8591,2,0,P|356:246|408:249,1,97.49999999999994,0|0,2:0|2:0,2:0:0:0:
430,339,8810,2,0,P|453:333|475:322,6,48.74999999999997,0|0|0|0|0|0|0,3:0|2:0|2:0|2:0|2:0|2:0|2:0,2:0:0:0:
477,213,9247,5,0,1:0:0:0:
404,249,9357,2,0,P|355:252|310:269,1,97.49999999999994,0|0,2:0|2:0,2:0:0:0:
219,346,9576,6,0,B|205:333|205:333|214:241,1,97.49999999999994,0|0,2:0|3:0,2:0:0:0:
232,29,9795,1,0,2:0:0:0:
225,108,9904,2,0,L|219:172,3,64.99999999999996,0|0|0|0,2:0|2:0|2:0|1:0,2:0:0:0:
212,254,10342,1,0,2:0:0:0:
336,41,10561,1,0,3:0:0:0:
85,62,10780,6,0,P|101:79|114:100,1,48.74999999999997,8|0,2:3|2:0,2:0:0:0:
308,187,10999,2,0,P|320:165|337:148,1,48.74999999999997,8|0,1:3|2:0,2:0:0:0:
466,52,11218,1,0,2:0:0:0:
466,52,11328,1,0,2:0:0:0:
466,52,11437,6,0,L|481:149,1,97.49999999999994,0|0,3:0|2:0,2:0:0:0:
373,326,11656,2,0,L|388:229,1,97.49999999999994,0|0,2:0|2:0,2:0:0:0:
309,90,11875,5,0,1:0:0:0:
387,229,12094,2,0,L|236:260,1,97.49999999999994,0|0,2:0|2:0,2:0:0:0:
78,281,12313,2,0,P|104:290|139:327,6,48.74999999999997,0|0|0|0|0|0|0,3:0|2:0|2:0|2:0|2:0|2:0|2:0,2:0:0:0:
189,354,12751,6,0,P|200:294|220:259,1,97.49999999999994,0|0,1:0|2:0,2:0:0:0:
247,125,12970,1,0,3:0:0:0:
247,125,13080,1,0,1:0:0:0:
247,125,13189,6,0,P|190:147|150:149,1,97.49999999999994,0|0,3:0|1:0,2:0:0:0:
55,76,13408,2,0,P|37:49|32:16,3,64.99999999999996,0|0|0|0,1:0|2:0|2:0|1:0,2:0:0:0:
334,61,13846,1,0,3:0:0:0:
334,61,13956,1,0,1:0:0:0:
334,61,14065,5,0,3:0:0:0:
360,112,14174,1,0,1:0:0:0:
339,167,14284,1,0,1:0:0:0:
296,207,14393,1,0,3:0:0:0:
294,265,14503,1,0,3:0:0:0:
337,303,14612,1,0,3:0:0:0:
395,303,14722,1,0,3:0:0:0:
431,257,14831,1,0,3:0:0:0:
429,197,14941,6,0,L|497:206,1,65,4|0,3:2|2:0,2:0:0:0:
231,198,15379,2,0,L|295:206,1,65,0|0,3:0|2:0,2:0:0:0:
380,359,15707,1,0,2:0:0:0:
401,276,15817,6,0,L|336:284,1,65,0|0,3:0|2:0,2:0:0:0:
157,333,16145,2,0,L|221:324,2,65,0|0|0,2:0|2:0|2:0,2:0:0:0:
259,243,16693,2,0,P|195:230|139:198,1,130,0|0,3:0|3:0,2:0:0:0:
139,198,17350,5,0,2:0:0:0:
39,237,17569,2,0,P|43:222|50:207,1,32.5,0|0,3:0|2:0,2:0:0:0:
89,117,17788,1,0,2:0:0:0:
89,117,17897,2,0,P|79:88|48:45,2,65,0|0|0,2:0|2:0|2:0,2:0:0:0:
250,133,18445,2,0,P|314:120|370:88,1,130,0|0,3:0|3:0,2:0:0:0:
369,88,19102,5,0,2:0:0:0:
422,262,19320,2,0,P|426:242|436:217,1,32.5,0|0,3:0|2:0,2:0:0:0:
269,199,19539,1,0,2:0:0:0:
269,199,19649,2,0,P|308:180|349:175,1,65,0|0,2:0|2:0,2:0:0:0:
477,128,20087,1,0,2:0:0:0:
477,128,20196,6,0,P|413:117|333:72,2,130,0|0|0,3:0|3:0|3:0,2:0:0:0:
265,33,21291,2,0,L|259:75,1,32.5,2|0,2:0|2:0,2:0:0:0:
167,84,21510,1,2,3:2:0:0:
167,84,21620,2,0,L|173:126,1,32.5,2|0,2:0|2:0,2:0:0:0:
185,256,21839,6,0,P|137:239|109:235,1,65,2|0,2:0|2:0,2:0:0:0:
45,236,22167,1,2,2:0:0:0:
274,346,22386,1,0,3:0:0:0:
332,291,22496,2,0,P|330:274|321:250,1,32.5,2|0,2:0|2:0,2:0:0:0:
251,133,22715,2,0,L|243:213,1,65,2|0,2:0|2:0,2:0:0:0:
244,197,23043,6,0,P|269:191|295:189,1,32.5,2|0,2:0|2:0,2:0:0:0:
379,151,23262,1,0,3:0:0:0:
379,151,23372,2,0,P|391:161|402:173,1,32.5,2|0,2:0|2:0,2:0:0:0:
440,294,23591,2,0,P|449:251|474:214,1,65,2|0,2:0|2:0,2:0:0:0:
329,347,23919,5,2,2:0:0:0:
329,347,24029,1,2,2:0:0:0:
329,347,24138,1,0,3:0:0:0:
329,347,24247,2,0,L|323:307,1,32.5,2|0,2:0|2:0,2:0:0:0:
278,216,24466,2,0,L|298:109,1,97.5,2|0,2:0|2:0,2:0:0:0:
467,89,25014,5,0,3:0:0:0:
467,89,25123,1,2,2:0:0:0:
467,89,25233,1,2,2:0:0:0:
467,89,25342,2,0,P|442:114|406:127,1,65,2|0,2:0|2:0,2:0:0:0:
300,104,25671,1,2,2:0:0:0:
349,198,25890,1,0,3:2:0:0:
443,250,26109,5,2,2:0:0:0:
370,283,26218,2,0,P|337:281|306:271,1,65,2|0,2:0|2:0,2:0:0:0:
241,224,26547,1,2,2:0:0:0:
201,356,26766,6,0,P|193:334|188:303,1,32.5,0|0,3:2|2:0,2:0:0:0:
162,251,26985,1,2,2:0:0:0:
38,303,27094,6,0,P|53:274|81:248,1,65,2|0,2:0|2:0,2:0:0:0:
72,138,27423,6,0,L|144:147,1,65,0|0,1:0|2:0,2:0:0:0:
424,179,27642,2,0,L|359:170,1,65,0|0,1:0|2:0,2:0:0:0:
252,161,27861,1,0,3:0:0:0:
239,87,27970,2,0,L|228:22,2,65,0|0|0,1:0|1:0|1:0,2:0:0:0:
266,236,28189,2,0,L|288:374,1,130,0|0,2:0|3:0,2:0:0:0:
375,340,28408,6,0,P|390:307|420:274,1,65,4|0,1:3|2:0,2:0:0:0:
173,201,28627,2,0,P|158:168|128:135,1,65,4|0,1:3|2:0,2:0:0:0:
457,62,28846,6,0,P|387:42|368:114,1,130,4|0,3:1|2:0,2:0:0:0:
375,155,29174,1,0,3:0:0:0:
249,66,29393,2,0,P|229:100|226:145,1,65,0|0,1:0|2:0,2:0:0:0:
377,327,29612,2,0,P|370:295|352:268,1,65,0|0,2:0|2:0,2:0:0:0:
212,206,29831,6,0,P|169:211|137:226,1,65,0|0,3:0|2:0,2:0:0:0:
269,340,30050,1,0,2:0:0:0:
269,340,30160,2,0,P|243:320|214:305,1,65,0|0,2:0|1:0,2:0:0:0:
72,234,30379,2,0,P|131:244|210:265,1,130,0|0,2:0|2:0,2:0:0:0:
112,336,30707,5,0,3:0:0:0:
105,337,30817,1,0,2:0:0:0:
98,339,30926,1,0,2:0:0:0:
91,341,31036,1,0,2:0:0:0:
85,344,31145,1,0,1:0:0:0:
308,363,31364,6,0,P|320:339|350:311,1,65,0|0,2:0|2:0,2:0:0:0:
337,166,31583,2,0,P|363:165|402:178,1,65,0|0,3:0|2:0,2:0:0:0:
484,242,31802,1,0,2:0:0:0:
484,242,31912,2,0,P|455:257|423:260,1,65,0|0,2:0|1:0,2:0:0:0:
258,267,32131,2,0,P|216:217|201:154,1,130,0|0,2:0|2:0,2:0:0:0:
241,43,32459,5,0,3:0:0:0:
248,44,32569,1,0,2:0:0:0:
255,46,32678,1,0,2:0:0:0:
262,48,32788,1,0,2:0:0:0:
268,51,32897,1,0,1:0:0:0:
30,61,33116,5,0,2:0:0:0:
170,115,33335,2,0,L|157:189,1,65,0|0,3:0|2:0,2:0:0:0:
65,278,33554,1,0,2:0:0:0:
65,278,33664,2,0,L|52:204,1,65,0|0,2:0|1:0,2:0:0:0:
266,348,33883,2,0,L|253:274,1,65,0|0,2:0|2:0,2:0:0:0:
241,197,34102,1,0,2:0:0:0:
241,197,34211,5,0,3:0:0:0:
209,202,34320,1,0,2:0:0:0:
186,225,34430,1,0,2:0:0:0:
175,255,34539,1,0,2:0:0:0:
157,282,34649,1,0,1:0:0:0:
127,295,34758,1,0,2:0:0:0:
94,294,34868,1,0,2:0:0:0:
65,278,34977,1,0,2:0:0:0:
43,246,35087,6,0,L|32:334,1,65,0|0,3:0|2:0,2:0:0:0:
195,140,35306,2,0,L|184:228,1,65,2|0,2:0|2:0,2:0:0:0:
330,246,35525,1,2,1:2:0:0:
330,246,35634,2,0,L|319:334,1,65,2|0,2:0|2:0,2:0:0:0:
232,356,35853,6,0,P|213:275|185:220,1,130,2|0,2:0|2:0,2:0:0:0:
280,120,36182,2,0,P|312:125|342:135,1,65,2|0,2:0|2:0,2:0:0:0:
479,225,36401,1,0,1:0:0:0:
392,230,36510,2,0,P|359:235|329:245,1,65,2|0,2:0|2:0,2:0:0:0:
114,179,36729,6,0,P|141:125|200:139,1,130,2|0,2:0|2:0,2:0:0:0:
192,233,37058,1,2,2:0:0:0:
352,38,37277,1,0,1:0:0:0:
402,102,37386,2,0,P|429:97|463:80,1,65,2|0,2:0|2:0,2:0:0:0:
479,179,37605,6,0,P|389:155|331:154,1,130,2|0,2:0|2:0,2:0:0:0:
265,81,37934,1,2,2:0:0:0:
265,81,38043,2,0,L|254:171,1,65,2|0,2:0|1:0,2:0:0:0:
241,296,38262,2,0,L|248:231,1,65,2|0,2:0|2:0,2:0:0:0:
159,129,38481,1,2,2:0:0:0:
159,129,38591,6,0,P|76:127|47:74,1,130,0|0,3:0|2:0,2:0:0:0:
377,243,39029,1,2,1:2:0:0:
377,243,39138,2,0,L|384:155,1,65,0|0,2:0|2:0,2:0:0:0:
276,30,39357,6,0,L|290:170,1,130,2|0,2:0|2:0,2:0:0:0:
144,213,39685,1,2,2:0:0:0:
143,213,39795,2,0,P|128:241|107:266,1,65,2|0,2:0|1:0,2:0:0:0:
213,323,40014,2,0,P|180:325|149:334,1,65,2|0,2:0|2:0,2:0:0:0:
17,269,40233,6,0,P|96:279|165:304,1,130,2|0,2:0|2:0,2:0:0:0:
290,241,40561,1,2,2:0:0:0:
290,241,40671,2,0,L|303:329,1,65,2|0,2:0|1:0,2:0:0:0:
200,188,40890,2,0,L|209:123,1,65,2|0,2:0|2:0,2:0:0:0:
226,33,41109,1,2,2:0:0:0:
226,33,41218,1,0,3:0:0:0:
393,110,41437,6,0,L|320:96,1,65,0|0,1:0|2:0,2:0:0:0:
41,47,41656,2,0,L|104:59,1,65,0|0,1:0|2:0,2:0:0:0:
219,168,41875,1,0,3:0:0:0:
219,168,41985,1,0,1:0:0:0:
219,168,42094,5,0,3:0:0:0:
238,235,42204,1,0,3:0:0:0:
212,301,42313,1,0,1:0:0:0:
152,337,42423,1,0,3:0:0:0:
81,328,42532,1,0,1:0:0:0:
33,276,42642,1,0,3:0:0:0:
149,40,42861,6,0,P|204:58|262:61,1,97.49999999999994,4|0,2:1|2:0,2:0:0:0:
444,88,43080,6,0,P|419:48|373:51,1,97.50000000000024,0|0,3:0|2:0,2:0:0:0:
361,160,43408,6,0,P|315:176|266:181,1,97.49999999999994,0|0,1:0|2:0,2:0:0:0:
133,203,43627,1,0,3:0:0:0:
306,358,43846,6,0,L|318:255,1,97.50000000000024,0|0,3:0|2:0,2:0:0:0:
320,238,44174,1,0,3:0:0:0:
208,274,44284,1,0,1:0:0:0:
443,327,44503,1,0,3:0:0:0:
474,248,44612,6,0,P|448:227|374:204,1,97.50000000000024,0|0,3:0|2:0,2:0:0:0:
308,146,44941,1,0,3:0:0:0:
308,146,45050,1,0,2:0:0:0:
308,146,45160,6,0,P|351:118|404:109,1,97.49999999999994,0|0,1:0|2:0,2:0:0:0:
462,17,45379,6,0,L|475:94,1,48.75000000000013,0|0,3:0|2:0,2:0:0:0:
382,254,45598,2,0,L|392:163,1,48.75000000000013,0|0,3:0|2:0,2:0:0:0:
395,108,45817,6,0,L|324:97,1,48.74999999999997,8|0,2:3|2:0,2:0:0:0:
121,66,46036,1,8,1:3:0:0:
201,52,46145,2,0,L|311:31,2,97.49999999999994,0|0|0,2:0|2:0|2:0,2:0:0:0:
42,80,46474,5,0,3:0:0:0:
191,243,46693,2,0,P|193:260|178:246,1,48.75000000000013,0|0,2:0|2:0,2:0:0:0:
178,151,46912,6,0,P|202:154|225:163,1,48.75000000000013,0|0,1:0|2:0,2:0:0:0:
184,342,47131,2,0,P|160:339|138:331,1,48.75000000000013,0|0,2:0|2:0,2:0:0:0:
46,240,47350,5,0,3:0:0:0:
33,225,47459,1,0,2:0:0:0:
27,244,47569,1,0,2:0:0:0:
43,319,47678,5,0,2:0:0:0:
56,334,47788,1,0,1:0:0:0:
62,315,47897,1,0,2:0:0:0:
367,280,48116,6,0,L|379:209,1,48.75000000000013,0|0,2:0|3:0,2:0:0:0:
410,39,48335,1,0,2:0:0:0:
410,39,48445,1,0,2:0:0:0:
410,39,48554,1,0,2:0:0:0:
410,39,48664,2,0,L|434:181,2,97.50000000000024,0|0|0,1:0|2:0|3:0,2:0:0:0:
253,109,49320,6,0,P|276:114|298:124,1,48.74999999999997,8|0,2:3|2:0,2:0:0:0:
440,296,49539,1,8,1:3:0:0:
479,217,49649,1,0,3:0:0:0:
260,328,49868,6,0,L|152:308,1,97.49999999999994,4|0,3:2|2:0,2:0:0:0:
41,331,50087,6,0,B|33:282|33:282|61:243,1,97.50000000000024,0|0,3:0|2:0,2:0:0:0:
164,310,50415,1,0,1:0:0:0:
302,231,50634,6,0,B|309:182|309:182|281:143,1,97.49999999999994,0|0,3:0|2:0,2:0:0:0:
228,38,50853,6,0,L|348:59,1,97.50000000000024,0|0,3:0|2:0,2:0:0:0:
470,77,51182,1,0,3:0:0:0:
398,17,51291,1,0,1:0:0:0:
390,230,51510,5,0,3:0:0:0:
390,230,51620,2,0,P|424:213|468:209,1,65,0|0,3:0|2:0,2:0:0:0:
362,346,51839,1,0,3:0:0:0:
336,339,51948,1,0,3:0:0:0:
314,323,52058,1,0,2:0:0:0:
294,305,52167,2,0,P|224:279|161:274,2,130,0|0|0,1:0|3:0|3:0,2:0:0:0:
246,170,52824,6,0,P|213:176|193:188,1,48.74999999999997,8|0,2:3|2:0,2:0:0:0:
35,248,53043,1,8,1:3:0:0:
47,157,53153,2,0,P|51:133|91:67,2,97.49999999999994,0|0|0,2:0|2:0|2:0,2:0:0:0:
60,333,53481,5,0,3:0:0:0:
281,237,53700,2,0,P|313:242|290:247,1,97.49999999999994,0|0,3:0|2:0,2:0:0:0:
203,339,53919,6,0,P|188:292|180:244,1,97.49999999999994,0|0,1:0|2:0,2:0:0:0:
392,205,54138,2,0,P|406:158|414:110,1,97.49999999999994,0|0,3:0|2:0,2:0:0:0:
221,62,54357,6,0,P|269:55|316:42,1,97.49999999999994,0|0,3:0|2:0,2:0:0:0:
93,114,54576,1,0,2:0:0:0:
173,149,54685,2,0,P|219:161|268:168,1,97.49999999999994,0|0,2:0|1:0,2:0:0:0:
458,294,54904,2,0,P|409:300|362:313,1,97.49999999999994,0|0,2:0|2:0,2:0:0:0:
224,347,55123,1,0,2:0:0:0:
250,273,55233,5,8,2:0:0:0:
129,298,55342,1,8,2:0:0:0:
257,69,55561,2,0,L|242:-7,2,48.75000000000013,0|0|0,3:0|3:0|3:0,2:0:0:0:
278,172,55890,5,8,2:0:0:0:
399,197,55999,1,8,2:0:0:0:
439,124,56109,6,0,P|408:69|419:29,1,97.5,2|0,2:0|2:0,2:0:0:0:
500,60,56547,1,2,2:0:0:0:
500,60,56766,1,2,2:0:0:0:
461,261,56985,6,0,P|269:244|277:61,1,390,4|0,3:1|2:0,2:0:0:0:
89,142,57423,2,0,P|235:245|357:114,1,390,0|0,1:0|2:0,2:0:0:0:
338,12,57861,1,0,3:0:0:0:
167,314,58080,1,0,2:0:0:0:
167,314,58189,1,0,2:0:0:0:
167,314,58299,6,0,B|132:340|75:330|75:330|75:306|85:294,1,130,2|0,1:2|2:0,2:0:0:0:
158,103,58518,2,0,B|170:61|222:36|222:36|236:55|236:71,1,130,2|0,2:0|2:0,2:0:0:0:
289,268,58737,2,0,B|303:309|276:359|276:359|254:352|244:339,1,130,2|0,3:2|2:0,2:0:0:0:
86,211,58956,2,0,B|49:186|42:129|42:129|64:121|79:126,1,130,2|0,2:0|2:0,2:0:0:0:
283,137,59174,2,0,B|326:135|366:177|366:177|352:196|337:201,1,130,2|0,1:2|2:0,2:0:0:0:
247,342,59393,1,2,2:0:0:0:
247,342,59503,2,0,B|320:267|458:258|458:258|423:279,1,260,2|0,2:0|2:0,2:0:0:0:
369,354,59831,6,0,L|357:257,1,65,8|0,2:3|2:0,2:0:0:0:
176,57,60050,2,0,L|169:122,1,65,8|0,1:3|2:0,2:0:0:0:
152,278,60269,1,0,3:0:0:0:
16,134,60488,6,0,P|152:147|269:217,1,233.99999999999983,2|0,3:2|2:0,2:0:0:0:
434,267,60817,2,0,P|339:247|389:228,1,233.99999999999983,2|0,2:0|2:0,2:0:0:0:
423,155,61145,1,2,3:2:0:0:
155,29,61364,6,0,P|253:130|322:47,1,233.99999999999983,2|0,3:2|2:0,2:0:0:0:
344,243,61693,2,0,P|431:133|423:1,1,233.99999999999983,2|0,2:0|2:0,2:0:0:0:
237,51,62021,1,2,3:2:0:0:
291,314,62240,6,0,P|344:349|405:353,1,116.99999999999991,0|0,3:0|2:0,2:0:0:0:
485,277,62459,1,2,3:2:0:0:
457,164,62569,1,2,3:2:0:0:
357,103,62678,2,0,P|266:118|143:206,2,233.99999999999983,0|0|0,1:0|2:0|3:0,2:0:0:0:
485,58,63335,6,0,P|459:41|414:22,1,65,8|0,3:0|2:0,2:0:0:0:
366,251,63554,2,0,P|352:221|334:194,1,65,8|0,3:0|2:0,2:0:0:0:
261,32,63773,1,0,2:0:0:0:
261,32,63883,1,0,2:0:0:0:
261,32,63992,6,0,B|88:55|195:277|-1:301,1,390,4|0,3:1|2:0,2:0:0:0:
30,181,64430,2,0,B|205:130|193:376|362:329,1,390,0|0,1:0|2:0,2:0:0:0:
475,286,64868,1,0,3:0:0:0:
384,121,65087,1,0,2:0:0:0:
384,121,65196,1,0,2:0:0:0:
384,121,65306,6,0,P|378:181|319:223,1,116.99999999999991,2|0,1:2|2:0,2:0:0:0:
210,162,65525,2,0,P|214:104|255:65,1,116.99999999999991,2|0,2:0|2:0,2:0:0:0:
355,17,65744,5,2,3:2:0:0:
228,287,65963,1,2,2:0:0:0:
115,306,66072,1,2,2:0:0:0:
231,310,66182,2,0,P|287:293|337:264,1,116.99999999999991,2|0,1:2|2:0,2:0:0:0:
445,94,66401,5,2,2:0:0:0:
493,189,66510,2,0,P|430:287|331:357,1,233.99999999999983,2|0,2:0|2:0,2:0:0:0:
115,306,66839,1,0,2:0:0:0:
321,137,67058,6,0,P|260:136|205:111,1,116.99999999999991,0|0,1:0|2:0,2:0:0:0:
81,36,67277,1,0,2:0:0:0:
69,337,67496,6,0,B|87:262|87:262|94:261|94:261|130:103,1,233.99999999999983,0|0,3:0|2:0,2:0:0:0:
159,315,67824,1,0,2:0:0:0:
26,184,67934,1,0,1:0:0:0:
312,123,68153,2,0,B|328:115|328:115|346:14,1,116.99999999999991,0|0,2:0|2:0,2:0:0:0:
345,17,68372,6,0,L|371:165,1,116.99999999999991,0|0,3:0|2:0,2:0:0:0:
465,305,68591,1,0,2:0:0:0:
475,213,68700,2,0,P|419:219|354:248,1,116.99999999999991,0|0,2:0|1:0,2:0:0:0:
113,273,69029,2,0,P|90:301|123:275,1,116.99999999999991,0|0,3:0|2:0,2:0:0:0:
191,185,69247,5,4,1:0:0:0:
131,94,69466,5,2,2:0:0:0:
131,94,69576,1,2,2:0:0:0:
30,150,69795,5,2,2:0:0:0:
30,150,69904,1,2,2:0:0:0:
30,150,70014,1,2,2:0:0:0:
30,150,70123,6,0,L|205:118,1,130,4|0,1:0|2:0,2:0:0:0:
496,206,70342,6,0,L|321:174,1,130,4|0,1:0|2:0,2:0:0:0:
251,52,70561,6,0,B|277:76|282:108|282:108|299:80|332:68,1,130,4|0,1:0|2:0,2:0:0:0:
331,68,70999,6,0,P|266:92|164:99,1,130,4|0,3:2|2:0,2:0:0:0:
84,71,71218,1,0,2:0:0:0:
216,240,71437,5,0,1:0:0:0:
54,291,71656,2,0,P|119:315|207:321,1,97.49999999999994,0|0,2:0|2:0,2:0:0:0:
325,346,71875,2,0,P|337:325|344:302,6,48.74999999999997,0|0|0|0|0|0|0,3:0|2:0|2:0|2:0|2:0|2:0|2:0,2:0:0:0:
329,200,72313,5,0,1:0:0:0:
433,248,72423,2,0,P|448:200|454:127,1,97.49999999999994,0|0,2:0|2:0,2:0:0:0:
337,15,72642,6,0,P|352:63|358:136,1,97.49999999999994,0|0,2:0|3:0,2:0:0:0:
255,246,72861,1,0,2:0:0:0:
195,174,72970,2,0,P|193:143|201:110,3,64.99999999999996,0|0|0|0,2:0|2:0|2:0|1:0,2:0:0:0:
263,46,73408,1,0,2:0:0:0:
48,110,73627,1,0,3:0:0:0:
193,312,73846,6,0,P|180:287|153:258,1,65,8|0,2:3|2:0,2:0:0:0:
48,110,74065,2,0,P|70:120|114:126,1,65,8|0,1:3|2:0,2:0:0:0:
321,158,74284,1,0,2:0:0:0:
321,158,74393,1,0,2:0:0:0:
321,158,74503,6,0,B|327:112|327:112|323:108|323:108|335:21,1,97.49999999999994,0|0,3:0|2:0,2:0:0:0:
221,137,74722,2,0,L|115:152,1,97.49999999999994,0|0,2:0|2:0,2:0:0:0:
50,29,74941,5,0,1:0:0:0:
13,253,75160,2,0,L|119:268,1,97.49999999999994,0|0,2:0|2:0,2:0:0:0:
286,294,75379,2,0,P|298:316|310:355,6,48.74999999999997,0|0|0|0|0|0|0,3:0|2:0|2:0|2:0|2:0|2:0|2:0,2:0:0:0:
380,283,75817,6,0,P|391:223|411:188,1,97.49999999999994,0|0,1:0|2:0,2:0:0:0:
234,139,76036,1,0,3:0:0:0:
234,139,76145,1,0,1:0:0:0:
234,139,76255,6,0,P|282:134|327:115,1,97.49999999999994,0|0,3:0|1:0,2:0:0:0:
453,26,76474,2,0,P|439:49|434:92,3,64.99999999999996,0|0|0|0,1:0|2:0|2:0|1:0,2:0:0:0:
484,272,76912,1,0,2:0:0:0:
484,272,77021,1,0,1:0:0:0:
484,272,77131,5,0,3:0:0:0:
442,215,77240,1,0,1:0:0:0:
372,221,77350,1,0,2:0:0:0:
341,283,77459,1,0,3:0:0:0:
374,339,77569,6,0,P|423:305|492:310,1,130,0|0,1:0|2:0,2:0:0:0:
490,309,79758,6,0,L|402:295,1,65,4|0,3:2|2:0,2:0:0:0:
332,226,80196,1,0,3:0:0:0:
350,221,80306,1,0,2:0:0:0:
367,211,80415,1,0,2:0:0:0:
379,196,80525,1,0,2:0:0:0:
386,178,80634,5,0,3:0:0:0:
418,110,80744,2,0,L|476:119,1,32.5,2|0,2:0|2:0,2:0:0:0:
334,58,80963,2,0,L|276:67,1,32.5,2|0,2:0|3:0,2:0:0:0:
217,39,81182,5,0,2:0:0:0:
276,217,81401,2,0,L|284:170,1,32.5,0|0,2:0|3:0,2:0:0:0:
176,237,81620,1,0,2:0:0:0:
176,237,81729,2,0,L|184:190,1,32.5,0|0,2:0|2:0,2:0:0:0:
143,97,81948,2,0,L|151:144,1,32.5,0|0,3:0|2:0,2:0:0:0:
43,77,82167,2,0,L|51:124,1,32.5,0|0,2:0|2:0,2:0:0:0:
36,208,82386,5,0,3:0:0:0:
176,331,82605,1,0,2:0:0:0:
176,331,82715,2,0,P|133:319|106:319,2,65,2|2|0,2:0|2:0|2:0,2:0:0:0:
279,310,83262,5,0,3:0:0:0:
276,294,83372,1,0,2:0:0:0:
273,278,83481,1,0,2:0:0:0:
270,262,83591,1,0,2:0:0:0:
267,246,83700,2,0,L|330:257,1,32.5,0|0,3:0|2:0,2:0:0:0:
386,268,83919,1,0,2:0:0:0:
462,158,84029,6,0,L|391:169,1,65,0|0,2:0|3:0,2:0:0:0:
245,85,84247,1,2,2:0:0:0:
313,36,84357,6,0,L|422:56,1,97.49999999999994,2|0,2:0|2:0,2:0:0:0:
450,258,84576,6,0,L|379:269,1,65,2|2,3:2|2:0,2:0:0:0:
257,170,84795,6,0,L|320:181,1,32.5,2|0,2:0|2:0,2:0:0:0:
397,167,85014,5,0,3:2:0:0:
270,320,85233,2,0,B|259:337|243:345|243:345|254:333|253:319,1,65,0|0,2:0|3:0,2:0:0:0:
201,237,85671,1,0,2:0:0:0:
201,237,85780,1,0,2:0:0:0:
201,237,85890,6,0,L|148:248,1,32.5,0|2,3:0|2:0,2:0:0:0:
32,283,86109,2,0,L|85:294,1,32.5,2|2,2:0|2:0,2:0:0:0:
135,352,86328,1,0,3:0:0:0:
142,348,86437,1,0,2:0:0:0:
148,343,86547,1,0,2:0:0:0:
152,336,86656,1,0,2:0:0:0:
153,328,86766,1,0,3:0:0:0:
51,120,87094,5,0,2:0:0:0:
51,120,87204,1,0,3:0:0:0:
51,120,87313,1,0,2:0:0:0:
51,120,87423,1,0,2:0:0:0:
51,120,87532,2,0,L|117:112,1,48.75000000000013,0|0,3:0|3:0,2:0:0:0:
319,44,87751,5,0,2:0:0:0:
319,44,87861,1,2,2:0:0:0:
319,44,87970,1,0,2:0:0:0:
319,44,88080,2,0,P|331:89|331:126,1,65,10|0,3:2|2:0,2:0:0:0:
198,71,88299,5,0,2:0:0:0:
198,71,88408,1,0,2:0:0:0:
198,71,88518,2,0,P|186:116|186:157,1,81.2500000000001,0|0,2:0|2:0,2:0:0:0:
409,171,88737,5,0,2:0:0:0:
409,171,88846,1,0,2:0:0:0:
409,171,88956,2,0,P|366:197|308:203,1,97.49999999999994,8|0,2:0|2:0,2:0:0:0:
104,222,89174,5,0,2:0:0:0:
104,222,89284,1,0,2:0:0:0:
104,222,89393,2,0,P|147:248|220:257,1,113.75000000000007,0|2,2:0|2:0,2:0:0:0:
439,291,89612,5,2,2:0:0:0:
439,291,89722,1,2,2:0:0:0:
439,291,89831,2,0,P|395:317|309:328,1,130,8|0,2:0|2:0,2:0:0:0:
87,341,90050,1,0,2:0:0:0:
87,341,90160,1,0,2:0:0:0:
87,341,90269,6,0,P|134:299|230:278,1,146.24999999999983,4|0,1:0|2:0,2:0:0:0:
132,114,90488,2,0,P|179:156|275:177,1,146.24999999999983,0|0,1:0|2:0,2:0:0:0:
412,350,90707,2,0,P|406:287|447:197,1,146.24999999999983,0|0,1:0|2:0,2:0:0:0:
257,177,90926,2,0,P|318:164|393:100,1,146.24999999999983,0|0,1:0|3:0,2:0:0:0:
486,23,91145,5,0,2:0:0:0:
259,75,91364,1,8,2:0:0:0:
259,75,91474,1,8,2:0:0:0:
34,121,91693,1,0,1:0:0:0:
163,269,91912,6,0,B|143:281|143:281|160:188,1,97.49999999999994,4|0,1:0|2:0,2:0:0:0:
277,334,92240,1,0,2:0:0:0:
277,334,92350,1,0,2:0:0:0:
277,334,92459,2,0,L|269:280,1,48.75000000000013,0|0,1:0|2:0,2:0:0:0:
254,182,92678,1,0,2:0:0:0:
436,281,92897,5,0,3:0:0:0:
484,144,93116,1,0,2:0:0:0:
484,144,93226,2,0,L|397:123,1,48.75000000000013,0|0,2:0|1:0,2:0:0:0:
320,85,93445,1,0,2:0:0:0:
320,85,93554,1,0,2:0:0:0:
320,85,93664,6,0,L|407:64,1,48.75000000000013,0|0,2:0|3:0,2:0:0:0:
464,56,93883,1,0,2:0:0:0:
206,101,94102,1,0,2:0:0:0:
203,112,94211,1,0,1:0:0:0:
201,124,94320,1,0,2:0:0:0:
198,136,94430,1,0,2:0:0:0:
196,148,94539,1,0,2:0:0:0:
213,233,94649,5,2,3:2:0:0:
284,289,94758,2,0,P|337:293|416:263,1,130,2|0,2:0|2:0,2:0:0:0:
482,319,95087,5,2,1:2:0:0:
396,347,95196,2,0,P|343:334|277:281,1,130,2|0,2:0|2:0,2:0:0:0:
213,233,95525,5,0,3:0:0:0:
164,332,95744,1,0,2:0:0:0:
164,332,95853,1,0,2:0:0:0:
164,332,95963,1,0,1:0:0:0:
53,314,96182,1,0,2:0:0:0:
36,205,96401,6,0,L|102:199,1,48.75000000000013,0|0,3:0|2:0,2:0:0:0:
128,111,96620,1,0,2:0:0:0:
128,111,96729,2,0,L|202:123,1,48.75000000000013,0|0,2:0|1:0,2:0:0:0:
247,206,96948,1,0,2:0:0:0:
247,206,97058,1,0,2:0:0:0:
247,205,97167,6,0,P|258:183|266:160,1,48.75000000000013,2|0,2:0|3:0,2:0:0:0:
284,40,97386,1,2,2:0:0:0:
287,88,97496,1,2,2:0:0:0:
311,130,97605,1,2,2:0:0:0:
351,157,97715,1,0,1:2:0:0:
399,164,97824,1,2,2:0:0:0:
445,150,97934,1,2,2:0:0:0:
481,118,98043,1,2,2:0:0:0:
499,73,98153,1,0,3:2:0:0:
435,285,98481,5,0,2:0:0:0:
435,285,98591,1,2,1:2:0:0:
435,285,98700,2,0,P|425:263|417:240,1,48.75000000000013,2|0,2:0|2:0,2:0:0:0:
391,61,98919,5,0,2:0:0:0:
289,171,99138,1,0,2:0:0:0:
289,171,99247,2,0,P|261:180|232:179,1,48.75000000000013,0|0,2:0|2:0,2:0:0:0:
117,95,99466,1,0,1:0:0:0:
117,95,99576,1,0,2:0:0:0:
117,95,99685,1,0,2:0:0:0:
117,95,99795,6,0,P|145:104|174:103,1,48.75000000000013,0|0,2:0|3:0,2:0:0:0:
275,47,100014,1,0,2:0:0:0:
233,281,100233,1,0,2:0:0:0:
233,281,100342,2,0,L|299:272,1,48.75000000000013,0|0,1:0|2:0,2:0:0:0:
399,258,100561,1,0,2:0:0:0:
384,242,100671,5,0,2:0:0:0:
379,265,100780,1,0,3:0:0:0:
374,288,100890,1,0,2:0:0:0:
369,312,100999,1,0,2:0:0:0:
365,336,101109,5,0,2:0:0:0:
387,328,101218,1,0,1:0:0:0:
410,320,101328,1,0,2:0:0:0:
433,312,101437,1,0,2:0:0:0:
457,305,101547,5,0,2:0:0:0:
419,115,101766,2,0,L|342:103,1,48.75000000000013,0|0,2:0|2:0,2:0:0:0:
266,35,101985,1,0,2:0:0:0:
285,66,102094,5,0,1:0:0:0:
248,69,102204,1,0,2:0:0:0:
212,73,102313,1,0,2:0:0:0:
175,77,102423,1,0,2:0:0:0:
135,77,102532,2,0,L|58:65,1,48.75000000000013,0|0,3:0|2:0,2:0:0:0:
36,336,102861,5,0,2:0:0:0:
72,337,102970,1,0,1:0:0:0:
104,320,103080,1,0,2:0:0:0:
124,290,103189,1,0,2:0:0:0:
122,251,103299,6,0,P|117:229|97:199,1,48.75000000000013,0|0,2:0|3:0,2:0:0:0:
231,339,103518,2,0,P|236:315|249:294,1,48.75000000000013,0|0,2:0|2:0,2:0:0:0:
334,242,103737,1,0,2:0:0:0:
370,240,103846,1,0,1:0:0:0:
402,257,103956,1,0,2:0:0:0:
422,287,104065,1,0,2:0:0:0:
496,176,104284,5,0,2:0:0:0:
339,330,104503,2,0,L|255:323,1,65,0|0,1:0|2:0,2:0:0:0:
121,215,104722,2,0,L|185:209,1,65,0|0,1:0|2:0,2:0:0:0:
335,191,104941,1,0,3:0:0:0:
335,191,105050,1,0,1:0:0:0:
335,191,105160,5,0,3:0:0:0:
309,119,105269,1,0,3:0:0:0:
345,53,105379,1,0,1:0:0:0:
419,36,105488,1,0,3:0:0:0:
481,78,105598,1,0,1:0:0:0:
491,153,105707,1,0,3:0:0:0:
407,345,105926,6,0,P|423:299|428:250,1,97.49999999999994,4|0,2:1|2:0,2:0:0:0:
294,324,106145,6,0,P|248:308|207:283,1,97.50000000000024,0|0,3:0|2:0,2:0:0:0:
339,180,106474,6,0,P|293:196|244:201,1,97.49999999999994,0|0,1:0|2:0,2:0:0:0:
98,155,106693,1,0,3:0:0:0:
249,15,106912,6,0,L|268:139,1,97.50000000000024,0|0,3:0|2:0,2:0:0:0:
270,145,107240,1,0,3:0:0:0:
153,87,107350,1,0,1:0:0:0:
418,27,107569,1,0,3:0:0:0:
453,106,107678,6,0,P|432:132|409:206,1,97.50000000000024,0|0,3:0|2:0,2:0:0:0:
336,333,108007,1,0,3:0:0:0:
336,333,108116,1,0,2:0:0:0:
336,333,108226,6,0,P|326:282|295:238,1,97.49999999999994,0|0,1:0|2:0,2:0:0:0:
94,264,108445,6,0,P|78:301|73:348,1,48.75000000000013,0|0,3:0|2:0,2:0:0:0:
234,347,108664,2,0,P|226:323|216:301,1,48.75000000000013,0|0,3:0|2:0,2:0:0:0:
175,187,108883,6,0,L|223:194,1,48.74999999999997,8|0,2:3|2:0,2:0:0:0:
456,228,109102,1,8,1:3:0:0:
391,146,109211,2,0,P|438:133|486:131,2,97.49999999999994,0|0|0,2:0|2:0|2:0,2:0:0:0:
223,194,109539,5,0,3:0:0:0:
66,117,109758,2,0,P|70:93|80:70,1,48.75000000000013,0|0,2:0|2:0,2:0:0:0:
242,29,109977,6,0,P|251:51|256:75,1,48.75000000000013,0|0,1:0|2:0,2:0:0:0:
313,224,110196,2,0,L|361:230,1,48.75000000000013,0|0,2:0|2:0,2:0:0:0:
465,330,110415,5,0,3:0:0:0:
480,317,110525,1,0,2:0:0:0:
461,311,110634,1,0,2:0:0:0:
386,327,110744,5,0,2:0:0:0:
371,340,110853,1,0,1:0:0:0:
390,346,110963,1,0,2:0:0:0:
361,230,111182,6,0,L|312:236,1,48.75000000000013,0|0,2:0|3:0,2:0:0:0:
114,264,111401,1,0,2:0:0:0:
114,264,111510,1,0,2:0:0:0:
114,264,111620,1,0,2:0:0:0:
114,264,111729,2,0,P|160:277|204:299,2,97.50000000000024,0|0|0,1:0|2:0|3:0,2:0:0:0:
26,146,112386,6,0,P|53:134|88:129,1,48.74999999999997,8|0,2:3|2:0,2:0:0:0:
287,83,112605,1,8,1:3:0:0:
189,31,112715,1,0,3:0:0:0:
233,301,112934,6,0,B|245:310|245:310|347:304,1,97.49999999999994,4|0,3:2|2:0,2:0:0:0:
478,188,113153,6,0,L|363:174,1,97.50000000000024,0|0,3:0|2:0,2:0:0:0:
286,166,113481,1,0,1:0:0:0:
412,351,113700,6,0,B|437:311|437:311|415:265,1,97.49999999999994,0|0,3:0|2:0,2:0:0:0:
286,166,113919,6,0,L|171:152,1,97.50000000000024,0|0,3:0|2:0,2:0:0:0:
199,235,114247,1,0,3:0:0:0:
89,145,114357,1,0,1:0:0:0:
276,34,114576,1,0,3:0:0:0:
276,34,114685,6,0,P|296:63|303:103,1,65,0|0,3:0|2:0,2:0:0:0:
448,92,114904,1,0,3:0:0:0:
448,92,115014,1,0,3:0:0:0:
448,92,115123,1,0,2:0:0:0:
448,92,115233,6,0,P|413:98|380:121,1,65,0|0,1:0|2:0,2:0:0:0:
275,184,115452,2,0,P|263:217|266:257,1,65,0|0,3:0|2:0,2:0:0:0:
454,352,115671,6,0,P|454:319|442:289,1,65,0|0,3:0|2:0,2:0:0:0:
397,219,115890,6,0,L|337:226,1,48.74999999999997,8|0,2:3|2:0,2:0:0:0:
118,244,116109,1,8,1:3:0:0:
57,177,116218,2,0,P|64:130|85:76,2,97.49999999999994,0|0|0,2:0|2:0|2:0,2:0:0:0:
24,294,116547,5,0,1:0:0:0:
24,294,116656,1,0,1:0:0:0:
185,196,116875,5,0,1:0:0:0:
207,246,116985,1,0,1:0:0:0:
419,189,117204,5,0,1:0:0:0:
384,268,117313,1,0,1:0:0:0:
348,349,117423,1,0,1:0:0:0:
334,350,117532,1,0,1:0:0:0:
320,352,117642,1,0,1:0:0:0:
306,354,117751,1,0,1:0:0:0:
292,355,117861,1,0,1:0:0:0:
278,357,117970,1,0,1:0:0:0:
265,359,118080,1,0,1:0:0:0:
251,361,118189,1,0,1:0:0:0:
184,320,118299,6,0,B|82:308,1,97.49999999999994,4|0,3:1|3:0,2:0:0:0:
319,130,118627,1,0,3:0:0:0:
319,130,118737,1,0,3:0:0:0:
319,130,118846,1,0,3:0:0:0:
319,130,118956,2,0,B|312:176|312:176|345:237,1,97.49999999999994,0|0,3:0|3:0,2:0:0:0:
369,303,119174,6,0,P|406:276|456:271,1,97.5,2|0,2:0|2:0,2:0:0:0:
437,352,119612,1,2,2:1:0:0:
437,352,119831,1,0,2:0:0:0:
290,120,120050,6,0,B|257:157|264:217|264:217|263:263|221:294|221:294|174:285|151:245|151:245|133:188|80:173,1,390,4|0,3:1|2:0,2:0:0:0:
30,290,120488,2,0,P|198:196|391:200,1,390,0|0,1:0|2:0,2:0:0:0:
492,257,120926,1,0,3:0:0:0:
312,64,121145,1,0,2:0:0:0:
312,64,121255,1,0,2:0:0:0:
312,64,121364,6,0,B|281:53|260:24|260:24|250:58|227:78,1,130,2|0,1:2|2:0,2:0:0:0:
194,292,121583,2,0,B|212:318|212:354|212:354|240:332|270:329,1,130,2|0,2:0|2:0,2:0:0:0:
424,176,121802,2,0,B|424:143|445:114|445:114|409:115|384:100,1,130,2|0,3:2|2:0,2:0:0:0:
169,136,122021,2,0,B|149:161|115:172|115:172|144:193|156:220,1,130,2|0,2:0|2:0,2:0:0:0:
351,317,122240,2,0,B|381:307|416:318|416:318|404:284|410:255,1,130,2|0,1:2|2:0,2:0:0:0:
430,36,122459,1,2,2:0:0:0:
430,36,122569,2,0,P|372:174|279:156,1,260,2|0,2:0|2:0,2:0:0:0:
241,54,122897,6,0,P|209:47|176:45,1,65,8|0,2:3|2:0,2:0:0:0:
52,274,123116,2,0,P|84:271|116:265,1,65,8|0,1:3|2:0,2:0:0:0:
285,161,123335,1,0,3:0:0:0:
104,158,123554,6,0,B|251:190|152:237|302:268,1,233.99999999999983,2|0,3:2|2:0,2:0:0:0:
479,301,123883,2,0,P|401:330|375:200,1,233.99999999999983,2|0,2:0|2:0,2:0:0:0:
427,107,124211,1,2,3:2:0:0:
220,61,124430,6,0,P|203:176|170:299,1,233.99999999999983,2|0,3:2|2:0,2:0:0:0:
420,257,124758,2,0,P|304:274|191:303,1,233.99999999999983,2|0,2:0|2:0,2:0:0:0:
72,348,125087,1,2,3:2:0:0:
17,123,125306,6,0,P|77:153|135:202,1,116.99999999999991,0|0,3:0|2:0,2:0:0:0:
191,302,125525,1,2,3:2:0:0:
292,358,125634,1,2,3:2:0:0:
405,327,125744,2,0,P|456:250|475:100,2,233.99999999999983,0|0|0,1:0|2:0|3:0,2:0:0:0:
391,114,126401,6,0,P|389:82|376:37,1,65,8|0,3:0|2:0,2:0:0:0:
146,20,126620,2,0,P|138:51|136:83,1,65,8|0,3:0|2:0,2:0:0:0:
87,186,126839,1,0,2:0:0:0:
87,186,126948,1,0,2:0:0:0:
87,186,127058,6,0,B|243:65|361:158|361:157|377:270|294:288,1,390,4|0,3:1|2:0,2:0:0:0:
253,311,127496,2,0,B|264:366|364:374|363:374|482:282|403:101,1,390,0|0,1:0|2:0,2:0:0:0:
361,18,127934,1,0,3:0:0:0:
194,235,128153,1,0,2:0:0:0:
194,235,128262,1,0,2:0:0:0:
194,235,128372,2,0,P|199:170|251:109,1,116.99999999999991,2|0,1:2|2:0,2:0:0:0:
52,95,128591,2,0,P|116:88|175:40,1,116.99999999999991,2|0,2:0|2:0,2:0:0:0:
271,21,128810,5,2,3:2:0:0:
395,254,129029,1,2,2:0:0:0:
482,180,129138,1,2,2:0:0:0:
409,270,129247,2,0,P|359:301|304:319,1,116.99999999999991,2|0,1:2|2:0,2:0:0:0:
123,342,129466,5,2,2:0:0:0:
177,245,129576,2,0,P|210:132|200:11,1,233.99999999999983,2|0,2:0|2:0,2:0:0:0:
293,184,129904,1,0,2:0:0:0:
34,199,130123,6,0,P|84:171|120:125,1,116.99999999999991,0|0,1:0|2:0,2:0:0:0:
202,17,130342,1,0,2:0:0:0:
468,113,130561,6,0,B|393:131|393:131|392:138|392:138|234:174,1,233.99999999999983,0|0,3:0|2:0,2:0:0:0:
446,203,130890,1,0,2:0:0:0:
315,70,130999,1,0,1:0:0:0:
151,244,131218,2,0,B|119:189|119:189|137:114,1,116.99999999999991,0|0,2:0|2:0,2:0:0:0:
180,52,131437,5,0,3:0:0:0:
247,55,131547,1,0,1:0:0:0:
315,70,131656,1,0,1:0:0:0:
382,92,131766,1,0,1:0:0:0:
444,122,131875,1,0,1:0:0:0:
180,52,132094,2,0,P|110:67|52:97,1,116.99999999999991,0|0,1:0|1:0,2:0:0:0:
29,278,132313,6,0,P|114:354|202:186,1,350.9999999999998,4|0,3:1|2:0,2:0:0:0:
69,86,132751,2,0,P|31:150|13:213,1,116.99999999999991,0|0,1:0|2:0,2:0:0:0:
128,264,132970,2,0,P|120:206|125:148,1,116.99999999999991,0|0,2:0|2:0,2:0:0:0:
239,45,133189,5,0,3:0:0:0:
239,45,133299,2,0,P|297:49|353:66,1,116.99999999999991,2|0,2:0|2:0,2:0:0:0:
287,246,133518,2,0,P|319:197|362:157,1,116.99999999999991,2|0,2:0|1:0,2:0:0:0:
495,294,133737,2,0,P|469:241|456:184,1,116.99999999999991,2|0,2:0|2:0,2:0:0:0:
477,32,133956,1,2,2:0:0:0:
430,108,134065,6,0,L|274:93,1,116.99999999999991,0|0,3:0|2:0,2:0:0:0:
111,179,134284,2,0,L|267:164,1,116.99999999999991,2|0,2:0|2:0,2:0:0:0:
362,157,134503,1,0,1:0:0:0:
140,25,134722,1,2,2:0:0:0:
38,277,134941,5,0,2:0:0:0:
113,337,135050,2,0,P|182:319|227:273,1,116.99999999999991,2|0,2:0|2:0,2:0:0:0:
345,349,135269,2,0,P|372:283|362:219,1,116.99999999999991,2|0,2:0|1:0,2:0:0:0:
421,73,135488,1,2,2:0:0:0:
442,88,135598,1,2,2:0:0:0:
456,109,135707,1,2,2:0:0:0:
460,134,135817,5,0,3:0:0:0:
436,217,135926,2,0,P|378:202|308:197,1,116.99999999999991,2|0,2:0|2:0,2:0:0:0:
210,33,136145,2,0,P|268:48|338:53,1,116.99999999999991,2|0,2:0|1:0,2:0:0:0:
225,236,136364,2,0,P|240:178|245:108,1,116.99999999999991,2|0,2:0|2:0,2:0:0:0:
64,38,136583,1,2,2:0:0:0:
64,38,136693,6,0,P|121:194|132:295,1,233.99999999999983,0|2,3:0|2:0,2:0:0:0:
379,215,137131,1,2,1:2:0:0:
319,289,137240,2,0,P|242:308|179:337,1,116.99999999999991,2|0,2:0|2:0,2:0:0:0:
70,151,137459,1,2,2:0:0:0:
130,225,137569,6,0,P|207:244|270:273,1,116.99999999999991,0|0,3:0|2:0,2:0:0:0:
396,340,137788,1,2,2:0:0:0:
449,147,138007,1,0,1:0:0:0:
270,183,138226,2,0,B|240:130|240:130|252:75,1,116.99999999999991,2|0,2:0|2:0,2:0:0:0:
376,23,138445,5,2,3:2:0:0:
468,58,138554,2,0,P|427:100|372:116,1,116.99999999999991,2|8,2:0|2:3,2:0:0:0:
367,237,138773,2,0,P|310:223|269:182,1,116.99999999999991,2|8,2:0|1:3,2:0:0:0:
175,45,138992,1,2,2:0:0:0:
164,46,139102,1,2,2:0:0:0:
154,49,139211,1,2,2:0:0:0:
144,54,139320,5,4,3:1:0:0:
17,201,139539,2,0,P|84:200|143:228,1,116.99999999999991,2|0,2:0|2:0,2:0:0:0:
301,351,139758,2,0,P|273:202|164:301,1,350.9999999999998,2|0,1:2|2:0,2:0:0:0:
216,359,140196,5,2,3:2:0:0:
248,285,140306,2,0,P|295:248|359:217,1,116.99999999999991,2|0,2:0|2:0,2:0:0:0:
496,339,140525,2,0,P|470:284|427:228,1,116.99999999999991,2|0,2:0|1:0,2:0:0:0:
362,106,140744,2,0,P|348:162|345:221,1,116.99999999999991,2|0,2:0|2:0,2:0:0:0:
380,324,140963,1,2,2:0:0:0:
438,239,141072,6,0,P|451:182|454:123,1,116.99999999999991,0|0,3:0|2:0,2:0:0:0:
437,44,141291,1,2,2:0:0:0:
437,44,141401,2,0,P|380:30|321:27,1,116.99999999999991,2|0,2:0|1:0,2:0:0:0:
260,91,141620,2,0,P|246:147|243:206,1,116.99999999999991,2|0,2:0|2:0,2:0:0:0:
401,319,141839,1,2,2:0:0:0:
401,319,141948,2,0,P|252:289|137:287,1,233.99999999999983,0|0,3:0|2:0,2:0:0:0:
100,58,142386,6,0,L|20:67,2,52.000000000000014,2|2|2,1:2|2:0|2:0,2:0:0:0:
202,115,142605,2,0,L|268:110,2,52.000000000000014,2|2|2,2:0|2:0|2:0,2:0:0:0:
105,180,142824,6,0,P|73:232|77:285,1,116.99999999999991,0|0,3:0|2:0,2:0:0:0:
271,341,143043,1,2,2:0:0:0:
271,341,143153,1,2,2:0:0:0:
271,341,143262,2,0,P|327:244|255:144,1,233.99999999999983,2|0,1:2|2:0,2:0:0:0:
105,180,143591,5,0,2:0:0:0:
89,272,143700,2,0,P|188:360|326:215,1,350.9999999999998,2|0,3:2|2:0,2:0:0:0:
400,104,144138,5,2,1:2:0:0:
328,48,144247,1,2,2:0:0:0:
236,43,144357,2,0,P|155:106|150:237,1,233.99999999999983,2|0,2:0|3:0,2:0:0:0:
324,313,144685,5,2,2:0:0:0:
413,253,144795,1,2,2:0:0:0:
422,147,144904,2,0,P|348:59|235:42,1,233.9999999999998,2|0,2:0|2:0,2:0:0:0:
67,113,145233,5,2,2:0:0:0:
70,220,145342,1,2,2:0:0:0:
158,282,145452,2,0,P|260:280|343:178,1,233.99999999999983,2|8,3:2|2:3,2:0:0:0:
436,101,145780,1,2,2:0:0:0:
392,47,145890,1,8,1:3:0:0:
328,20,145999,1,2,2:0:0:0:
259,26,146109,1,2,2:0:0:0:
200,64,146218,1,2,2:0:0:0:
167,125,146328,6,0,P|134:211|17:161,1,233.99999999999983,2|0,3:2|2:0,2:0:0:0:
92,145,146656,2,0,P|112:201|121:258,1,116.99999999999991,2|0,2:0|1:0,2:0:0:0:
202,348,146875,1,2,2:0:0:0:
265,299,146985,2,0,P|273:241|293:186,1,116.99999999999991,2|0,2:0|2:0,2:0:0:0:
472,111,147204,5,0,3:0:0:0:
472,111,147313,1,2,2:0:0:0:
472,111,147423,1,2,2:0:0:0:
408,291,147642,1,2,1:2:0:0:
408,291,147751,1,2,2:0:0:0:
408,291,147861,1,2,2:0:0:0:
408,291,147970,1,2,2:0:0:0:
408,291,148080,5,0,3:0:0:0:
355,39,148299,1,0,1:0:0:0:
103,92,148518,1,0,1:0:0:0:
156,344,148737,1,0,3:0:0:0:
156,344,148846,1,0,3:0:0:0:
156,344,148956,6,0,L|181:231,1,116.99999999999991,0|0,1:0|2:0,2:0:0:0:
173,30,149174,2,0,L|259:107,1,116.99999999999991,0|0,3:0|1:0,2:0:0:0:
437,201,149393,1,0,3:0:0:0:
409,210,149503,1,0,3:0:0:0:
382,219,149612,1,0,3:0:0:0:
354,228,149722,1,0,3:0:0:0:
324,237,149831,6,0,P|304:295|303:375,2,130,0|0|0,2:0|2:0|2:0,2:0:0:0:
106,230,156620,5,0,3:0:0:0:
188,147,156839,6,0,P|208:89|209:9,2,130,4|0|0,3:1|3:0|3:0,2:0:0:0:
51,254,158153,6,0,L|59:316,1,32.5,0|0,3:0|2:0,2:0:0:0:
131,273,158372,2,0,L|139:335,1,32.5,0|0,2:0|2:0,2:0:0:0:
204,179,158591,6,0,L|212:117,1,32.5,0|0,3:0|2:0,2:0:0:0:
284,160,158810,2,0,L|292:98,1,32.5,0|0,2:0|2:0,2:0:0:0:
364,243,159029,6,0,L|372:305,1,32.5,0|0,3:0|2:0,2:0:0:0:
444,262,159247,1,0,2:0:0:0:
444,262,159357,2,0,L|456:340,1,65,0|0,2:0|2:0,2:0:0:0:
301,348,159685,1,0,2:0:0:0:
301,348,159795,1,0,2:0:0:0:
301,348,159904,2,0,L|291:283,1,65,0|0,3:0|2:0,2:0:0:0:
438,149,160342,6,0,P|458:121|470:108,1,48.75000000000013,0|0,3:0|2:0,2:0:0:0:
360,112,160561,6,0,P|368:78|385:48,1,65,0|0,3:0|2:0,2:0:0:0:
266,113,160780,6,0,P|262:78|272:32,1,81.25,0|0,3:0|2:0,2:0:0:0:
181,139,160999,6,0,P|165:108|157:41,1,97.49999999999994,0|0,3:0|2:0,2:0:0:0:
108,201,161218,5,0,3:0:0:0:
96,192,161328,1,0,3:0:0:0:
85,182,161437,1,0,3:0:0:0:
76,170,161547,1,0,3:0:0:0:
67,157,161656,1,0,3:0:0:0:
60,144,161766,1,0,3:0:0:0:
54,130,161875,1,0,3:0:0:0:
49,116,161985,1,0,3:0:0:0:
46,101,162094,5,8,2:0:0:0:
87,294,162751,1,0,3:0:0:0:
87,294,162861,1,0,3:0:0:0:
87,294,162970,2,0,P|125:265|155:219,1,97.49999999999994,0|0,2:0|2:0,2:0:0:0:
226,352,163189,2,0,P|218:304|230:251,1,97.49999999999994,2|0,2:1|2:0,2:0:0:0:
254,165,163408,6,0,P|290:201|342:215,1,97.5,2|0,2:1|2:0,2:0:0:0:
452,216,163846,6,0,P|262:212|209:30,1,390,4|0,3:1|2:0,2:0:0:0:
418,46,164284,2,0,P|309:139|383:20,1,390,0|0,1:0|2:0,2:0:0:0:
360,88,164722,1,0,3:0:0:0:
135,139,164941,1,0,2:0:0:0:
135,139,165050,1,0,2:0:0:0:
135,139,165160,6,0,B|102:139|76:161|76:161|88:193|117:211,1,130,2|0,1:2|2:0,2:0:0:0:
292,327,165379,2,0,B|318:345|352:343|352:343|362:310|348:278,1,130,2|0,2:0|2:0,2:0:0:0:
275,85,165598,2,0,B|264:54|235:36|235:36|208:57|200:90,1,130,2|0,3:2|2:0,2:0:0:0:
145,290,165817,2,0,B|135:320|148:352|148:352|182:351|208:329,1,130,2|0,2:0|2:0,2:0:0:0:
371,198,166036,2,0,B|396:178|405:145|405:145|376:126|342:128,1,130,2|0,1:2|2:0,2:0:0:0:
153,180,166255,1,2,2:0:0:0:
152,180,166364,2,0,P|274:136|368:47,1,260,2|0,2:0|2:0,2:0:0:0:
271,22,166693,6,0,P|258:60|257:108,1,65,8|0,2:3|2:0,2:0:0:0:
192,321,166912,2,0,P|179:283|178:235,1,65,8|0,1:3|2:0,2:0:0:0:
50,111,167131,1,0,3:0:0:0:
33,272,167350,6,0,P|148:204|302:204,1,233.99999999999983,2|0,3:2|2:0,2:0:0:0:
200,31,167678,2,0,P|269:145|405:217,1,233.99999999999983,2|0,3:2|2:0,2:0:0:0:
474,239,168007,1,2,3:2:0:0:
308,299,168226,6,0,P|359:365|366:261,1,233.99999999999983,2|0,3:2|2:0,2:0:0:0:
318,142,168554,2,0,P|210:228|126:195,1,233.99999999999983,2|0,2:0|2:0,2:0:0:0:
45,126,168883,1,2,3:2:0:0:
386,50,169102,6,0,P|421:102|428:163,1,116.99999999999991,0|0,3:0|2:0,2:0:0:0:
395,289,169320,1,2,3:2:0:0:
287,331,169430,1,2,3:2:0:0:
180,284,169539,2,0,P|140:200|141:49,2,233.99999999999983,0|0|0,1:0|2:0|3:0,2:0:0:0:
246,86,170196,6,0,P|232:115|224:146,1,65,8|0,3:0|2:0,2:0:0:0:
490,288,170415,2,0,P|481:256|467:227,1,65,8|0,3:0|2:0,2:0:0:0:
462,94,170634,1,0,2:0:0:0:
462,94,170744,1,0,2:0:0:0:
462,94,170853,6,0,B|411:49|336:68|312:123|312:123|363:165|346:257|262:271|216:213,1,390,4|0,3:1|2:0,2:0:0:0:
146,246,171291,2,0,P|310:319|418:173,1,390,0|0,1:0|2:0,2:0:0:0:
383,27,171729,1,0,3:0:0:0:
124,117,171948,1,0,2:0:0:0:
124,117,172058,1,0,2:0:0:0:
124,117,172167,6,0,P|176:146|236:151,1,116.99999999999991,2|0,1:2|2:0,2:0:0:0:
454,60,172386,2,0,P|396:65|345:94,1,116.99999999999991,2|0,2:0|2:0,2:0:0:0:
253,46,172605,5,2,3:2:0:0:
350,292,172824,1,2,2:0:0:0:
463,311,172934,1,2,2:0:0:0:
347,315,173043,2,0,P|291:298|241:269,1,116.99999999999991,2|0,1:2|2:0,2:0:0:0:
198,93,173262,5,2,2:0:0:0:
107,135,173372,2,0,P|51:237|38:358,1,233.99999999999983,2|0,2:0|2:0,2:0:0:0:
159,267,173700,1,0,2:0:0:0:
363,360,173919,2,0,P|345:304|314:254,1,116.99999999999991,0|0,1:0|2:0,2:0:0:0:
249,155,174138,1,0,2:0:0:0:
26,213,174357,6,0,B|101:195|101:195|102:188|102:188|260:152,1,233.99999999999983,0|0,3:0|2:0,2:0:0:0:
48,123,174685,1,0,2:0:0:0:
179,256,174795,1,0,1:0:0:0:
367,25,175014,2,0,L|326:157,1,116.99999999999991,0|0,2:0|2:0,2:0:0:0:
285,270,175233,6,0,P|264:215|229:168,1,116.99999999999991,0|0,3:0|2:0,2:0:0:0:
325,361,175452,1,0,2:0:0:0:
388,286,175561,2,0,P|426:242|476:211,1,116.99999999999991,0|0,2:0|1:0,2:0:0:0:
476,211,175890,2,0,L|350:224,1,116.99999999999991,0|0,3:0|2:0,2:0:0:0:
229,168,176109,5,4,1:0:0:0:
310,61,176328,5,2,2:0:0:0:
310,61,176437,1,2,2:0:0:0:
441,115,176656,5,2,2:0:0:0:
441,115,176766,1,2,2:0:0:0:
441,115,176875,1,2,2:0:0:0:
441,115,176985,6,0,P|366:111|303:61,1,130,4|0,1:0|2:0,2:0:0:0:
280,262,177204,6,0,P|234:201|232:121,1,130,4|0,1:0|2:0,2:0:0:0:
68,237,177423,6,0,P|84:163|145:110,1,130,4|0,1:0|2:0,2:0:0:0:
230,17,177861,6,0,P|179:44|81:47,1,130,4|0,1:0|2:0,2:0:0:0:
81,218,178080,1,0,3:0:0:0:
81,218,178189,2,0,P|108:269|111:367,1,130,4|0,1:0|2:0,2:0:0:0:
282,367,178408,1,0,3:0:0:0:
282,367,178518,2,0,P|333:340|431:337,1,130,4|0,1:0|2:0,2:0:0:0:
431,166,178737,5,0,3:0:0:0:
413,138,178846,1,4,2:3:0:0:
401,108,178956,1,4,2:3:0:0:
396,76,179065,1,4,2:3:0:0:
396,43,179174,1,4,1:0:0:0:
232,123,179393,1,0,3:0:0:0:
232,123,179503,1,0,3:0:0:0:
232,123,179612,5,0,3:0:0:0:
341,167,179831,1,0,1:0:0:0:
333,283,180050,1,0,1:0:0:0:
219,313,180269,1,0,3:0:0:0:
219,313,180379,1,0,3:0:0:0:
219,313,180488,5,0,3:0:0:0:
173,292,180598,1,0,1:0:0:0:
154,315,180707,1,0,2:0:0:0:
129,304,180817,1,0,3:0:0:0:
114,316,180926,1,0,3:0:0:0:
57,161,181145,6,0,B|68:110|68:110|72:107|72:107|88:25,1,130,4|0,1:0|2:0,2:0:0:0:
