osu file format v14

[General]
AudioFilename: audio.mp3
AudioLeadIn: 0
PreviewTime: 37429
Countdown: 0
SampleSet: Soft
StackLeniency: 0.4
Mode: 0
LetterboxInBreaks: 0
WidescreenStoryboard: 1

[Editor]
Bookmarks: 51859,61733,76163
DistanceSpacing: 0.5
BeatDivisor: 4
GridSize: 8
TimelineZoom: 1.7

[Metadata]
Title:I Wanna Muchu feat. asmi, Three (TV Size)
TitleUnicode:アイワナムチュー feat. asmi, すりぃ (TV Size)
Artist:MAISONdes
ArtistUnicode:MAISONdes
Creator:MianYa
Version:Yua's Extra
Source:うる星やつら
Tags:japanese pop anime jpop j-pop Yua -Yua arronchu1207 Kyle_Y Kyle Y LeeGod op2 opening muchuu Love Trap ラム Lum Urusei Yatsura 2022 girl iii0303 Surii
BeatmapID:4204571
BeatmapSetID:2012993

[Difficulty]
HPDrainRate:5.6
CircleSize:4.2
OverallDifficulty:8.8
ApproachRate:9.2
SliderMultiplier:1.8
SliderTickRate:1

[Events]
//Background and Video events
0,0,"BG.jpg",0,0
Video,0,"video.mp4"
//Break Periods
//Storyboard Layer 0 (Background)
//Storyboard Layer 1 (Fail)
//Storyboard Layer 2 (Pass)
//Storyboard Layer 3 (Foreground)
//Storyboard Layer 4 (Overlay)
//Storyboard Sound Samples

[TimingPoints]
1733,379.746835443038,4,2,1,55,1,0
1733,-125,4,2,1,55,0,0
7808,-83.3333333333333,4,2,1,75,0,0
11036,-83.3333333333333,4,2,1,50,0,0
11226,-83.3333333333333,4,2,1,55,0,0
11416,-83.3333333333333,4,2,1,60,0,0
11606,-83.3333333333333,4,2,1,65,0,0
11796,-83.3333333333333,4,2,1,70,0,0
11986,-83.3333333333333,4,2,1,75,0,0
12176,-83.3333333333333,4,2,1,80,0,0
12365,-100,4,2,1,50,0,0
13505,-100,4,2,1,60,0,0
13884,-83.3333333333333,4,2,1,80,0,0
23378,-125,4,2,1,80,0,0
23758,-83.3333333333333,4,2,1,80,0,0
24517,-83.3333333333333,4,2,1,70,0,0
25277,-71.4285714285714,4,2,1,70,0,0
26036,-125,4,2,1,60,0,0
31163,-125,4,2,1,65,0,0
32112,-111.111111111111,4,2,1,70,0,0
36669,-83.3333333333333,4,2,1,70,0,0
37429,-83.3333333333333,4,2,1,80,0,0
38188,-100,4,2,1,65,0,0
38473,-100,4,2,1,5,0,0
38568,-125,4,2,1,65,0,0
38853,-125,4,2,1,5,0,0
38948,-166.666666666667,4,2,1,65,0,0
39707,-71.4285714285714,4,2,1,65,0,0
40372,-71.4285714285714,4,2,1,5,0,0
40467,-62.5,4,2,1,65,0,0
40751,-62.5,4,2,1,5,0,0
40846,-100,4,2,1,65,0,0
41606,-83.3333333333333,4,2,1,65,0,0
41891,-83.3333333333333,4,2,1,5,0,0
41986,-62.5,4,2,1,65,0,0
42176,-83.3333333333333,4,2,1,65,0,0
42365,-125,4,2,1,65,0,0
42650,-125,4,2,1,5,0,0
42745,-71.4285714285714,4,2,1,65,0,0
43410,-71.4285714285714,4,2,1,5,0,0
43505,-71.4285714285714,4,2,1,65,0,0
44264,-100,4,2,1,65,0,0
44549,-100,4,2,1,5,0,0
44644,-125,4,2,1,65,0,0
44929,-125,4,2,1,5,0,0
45024,-166.666666666667,4,2,1,65,0,0
45783,-71.4285714285714,4,2,1,65,0,0
46448,-71.4285714285714,4,2,1,5,0,0
46543,-62.5,4,2,1,65,0,0
46827,-62.5,4,2,1,5,0,0
46922,-100,4,2,1,65,0,0
48062,-83.3333333333333,4,2,1,65,0,0
48821,-62.5,4,2,1,80,0,0
49581,-55.5555555555556,4,2,1,80,0,0
50340,-83.3333333333333,4,2,1,60,0,0
50720,-125,4,2,1,60,0,0
51100,-83.3333333333333,4,2,1,60,0,0
51479,-50,4,2,1,60,0,0
51859,-62.5,4,2,1,90,0,0
54897,-71.4285714285714,4,2,1,90,0,0
56416,-83.3333333333333,4,2,1,90,0,0
57365,-62.5,4,2,1,90,0,0
60973,-83.3333333333333,4,2,1,90,0,0
62492,-71.4285714285714,4,2,1,100,0,0
62872,-62.5,4,2,1,100,0,0
63441,-62.5,4,2,1,90,0,0
63631,-50,4,2,1,90,0,0
64011,-62.5,4,2,1,90,0,0
67049,-83.3333333333333,4,2,1,90,0,0
67429,-71.4285714285714,4,2,1,90,0,0
68378,-62.5,4,2,1,90,0,0
69707,-71.4285714285714,4,2,1,90,0,0
73505,-100,4,2,1,90,0,0
74074,-71.4285714285714,4,2,1,90,0,0
74454,-83.3333333333333,4,2,1,90,0,0
74644,-83.3333333333333,4,2,1,100,0,0
75593,-83.3333333333333,4,2,1,90,0,0
75783,-45.4545454545455,4,2,1,90,0,0
76163,-62.5,4,2,1,85,0,0
77302,-83.3333333333333,4,2,1,85,0,0
79201,-62.5,4,2,1,85,0,0
80340,-83.3333333333333,4,2,1,85,0,0
82239,-62.5,4,2,1,85,0,0
83378,-83.3333333333333,4,2,1,85,0,0
85277,-71.4285714285714,4,2,1,85,0,0
86036,-62.5,4,2,1,85,0,0
86796,-62.5,4,2,1,50,0,0
87555,-125,4,2,1,50,0,0

[Colours]
Combo1 : 255,255,106
Combo2 : 117,255,2
Combo3 : 1,248,255
Combo4 : 255,166,253
Combo5 : 255,66,248

[HitObjects]
53,297,1733,6,0,P|97:252|147:253,1,108,2|0,3:2|0:0,0:0:0:0:
203,301,2112,2,0,L|190:346,3,36,10|0|0|0,0:0|0:0|0:0|0:0,0:0:0:0:
266,235,2492,2,0,P|214:207|214:142,2,108,2|0|0,3:2|3:2|3:2,0:0:0:0:
283,220,3157,1,0,3:2:0:0:
283,220,3251,6,0,L|417:197,1,108,2|0,3:2|0:0,0:0:0:0:
469,149,3631,1,10,0:0:0:0:
463,120,3725,1,0,0:0:0:0:
458,93,3820,1,2,0:0:0:0:
453,65,3915,1,0,0:0:0:0:
445,35,4011,2,0,P|394:78|343:69,2,108,2|0|0,3:2|3:2|3:2,0:0:0:0:
272,48,4770,6,0,B|278:94|278:94|275:102|275:102|285:182,1,108,0|0,3:2|0:0,0:0:0:0:
256,232,5150,1,10,0:0:0:0:
259,243,5245,1,0,0:0:0:0:
262,254,5340,1,2,0:0:0:0:
265,265,5435,1,0,0:0:0:0:
268,275,5530,2,0,B|319:288|319:288|378:247,2,108,2|0|0,3:2|3:2|3:2,0:0:0:0:
258,290,6195,1,0,3:2:0:0:
258,290,6289,6,0,P|219:302|205:356,1,72,2|2,3:2|0:0,0:0:0:0:
70,371,6669,2,0,L|78:322,1,36,10|0,0:0|0:0,0:0:0:0:
106,237,6859,1,2,0:0:0:0:
117,223,6954,1,0,0:0:0:0:
130,214,7049,2,0,P|69:196|64:148,1,108,2|0,3:2|3:2,0:0:0:0:
45,149,7429,2,0,P|64:125|91:121,1,36,8|0,0:0|0:0,0:0:0:0:
127,55,7619,2,0,L|120:26,2,18,2|0|0,3:2|0:0|3:2,0:0:0:0:
206,108,7808,6,0,B|274:114|240:68|337:78,1,107.999996704102,6|0,3:1|0:0,0:0:0:0:
460,24,8188,2,0,B|420:79|477:73|420:152,1,107.999996704102,10|0,0:0|0:0,0:0:0:0:
405,285,8568,2,0,B|376:223|353:275|313:186,1,107.999996704102,2|2,3:2|0:0,0:0:0:0:
216,189,8853,1,0,0:0:0:0:
172,258,8948,2,0,P|209:298|202:363,1,107.999996704102,10|0,0:0|0:0,0:0:0:0:
3,299,9327,6,0,P|51:286|86:231,1,107.999996704102,2|2,3:2|0:0,0:0:0:0:
50,155,9612,1,0,0:0:0:0:
45,166,9707,2,0,L|-10:183,1,53.9999983520508,10|0,0:0|0:0,0:0:0:0:
116,90,9897,2,0,L|59:77,1,53.9999983520508,2|0,0:0|0:0,0:0:0:0:
219,24,10087,5,2,3:2:0:0:
225,55,10181,1,0,0:0:0:0:
246,78,10276,1,2,0:0:0:0:
277,88,10371,1,0,0:0:0:0:
302,78,10467,2,0,P|361:69|403:192,1,215.999993408203,10|0,0:0|3:2,0:0:0:0:
363,368,11036,2,0,L|350:292,1,53.9999983520508,10|8,0:1|0:1,0:0:0:0:
287,238,11226,5,10,0:1:0:0:
248,228,11320,1,8,0:1:0:0:
210,240,11415,1,10,0:1:0:0:
183,270,11510,1,8,0:1:0:0:
177,309,11606,5,10,0:1:0:0:
126,350,11700,1,8,0:1:0:0:
62,339,11795,1,10,0:1:0:0:
29,282,11890,1,8,0:1:0:0:
52,221,11986,5,10,0:1:0:0:
122,188,12080,1,8,0:1:0:0:
132,111,12175,1,10,0:1:0:0:
72,62,12270,1,8,0:1:0:0:
0,86,12365,6,0,P|21:127|77:136,1,90,2|2,0:0|0:0,0:0:0:0:
132,111,12650,1,0,3:0:0:0:
144,105,12745,2,0,L|197:110,1,45,2|0,0:0|0:0,0:0:0:0:
249,51,12935,2,0,L|302:56,1,45,2|0,0:0|0:0,0:0:0:0:
340,160,13125,5,2,0:0:0:0:
413,17,13315,1,0,3:0:0:0:
192,199,13505,5,10,0:1:0:0:
229,236,13599,1,10,0:1:0:0:
281,240,13694,1,10,3:1:0:0:
325,210,13789,1,10,0:1:0:0:
340,160,13884,6,0,L|307:351,1,161.999995056153,6|2,0:0|0:0,0:0:0:0:
233,357,14264,2,0,P|218:329|180:312,1,53.9999983520508,10|0,0:0|0:0,0:0:0:0:
126,279,14454,2,0,P|94:277|60:302,1,53.9999983520508,2|0,0:0|0:0,0:0:0:0:
16,357,14644,1,2,3:2:0:0:
16,357,14739,2,0,P|67:334|57:261,1,107.999996704102,8|0,0:1|0:0,0:0:0:0:
0,172,15024,2,0,P|3:198|18:220,1,53.9999983520508,10|0,0:0|0:0,0:0:0:0:
35,49,15214,2,0,P|14:65|3:90,1,53.9999983520508,2|0,0:0|0:0,0:0:0:0:
117,20,15403,2,0,P|188:34|203:129,2,161.999995056153,2|2|2,3:2|0:0|0:0,0:0:0:0:
83,178,16163,1,2,3:2:0:0:
83,178,16258,1,8,0:1:0:0:
83,178,16353,2,0,L|150:168,1,53.9999983520508
253,269,16543,5,10,0:0:0:0:
202,286,16637,1,2,0:0:0:0:
153,267,16732,1,2,0:0:0:0:
127,221,16827,1,2,0:0:0:0:
135,169,16922,6,0,P|188:126|271:181,1,161.999995056153,2|2,3:2|0:0,0:0:0:0:
323,224,17302,2,0,P|358:230|395:209,1,53.9999983520508,10|0,0:0|0:0,0:0:0:0:
444,176,17492,2,0,P|466:148|467:106,1,53.9999983520508,2|0,0:0|0:0,0:0:0:0:
458,50,17682,1,2,3:0:0:0:
458,50,17777,2,0,P|404:54|371:3,1,107.999996704102,8|0,0:1|0:0,0:0:0:0:
259,38,18062,2,0,P|272:15|295:0,1,53.9999983520508,10|0,0:0|0:0,0:0:0:0:
144,22,18251,2,0,P|167:35|183:58,1,53.9999983520508,2|0,0:0|0:0,0:0:0:0:
72,64,18441,2,0,P|37:135|28:218,2,161.999995056153,2|2|2,3:0|0:0|0:0,0:0:0:0:
155,174,19201,2,0,P|114:198|93:197,1,53.9999983520508,2|8,3:0|0:1,0:0:0:0:
238,283,19391,2,0,P|196:259|187:240,1,53.9999983520508
371,131,19581,5,10,0:1:0:0:
361,184,19675,1,10,0:1:0:0:
352,237,19770,1,10,0:1:0:0:
345,290,19865,1,10,0:1:0:0:
339,344,19960,6,0,B|420:357|420:357|507:284,1,161.999995056153,6|2,3:2|0:0,0:0:0:0:
512,228,20340,2,0,P|477:199|447:202,1,53.9999983520508,10|0,0:0|0:0,0:0:0:0:
387,187,20530,2,0,P|344:202|332:230,1,53.9999983520508,2|0,0:0|0:0,0:0:0:0:
287,279,20720,1,2,3:0:0:0:
287,279,20815,2,0,P|214:278|185:215,1,107.999996704102,8|0,0:1|0:0,0:0:0:0:
226,123,21100,2,0,P|231:149|222:175,1,53.9999983520508,10|0,0:0|0:0,0:0:0:0:
152,16,21290,2,0,P|177:25|194:46,1,53.9999983520508,2|0,0:0|0:0,0:0:0:0:
100,95,21479,2,0,P|226:54|282:44,2,161.999995056153,2|2|2,3:0|0:0|0:0,0:0:0:0:
31,228,22239,1,2,3:0:0:0:
31,228,22334,1,8,0:1:0:0:
31,228,22429,2,0,P|47:263|43:297,1,53.9999983520508
179,358,22619,5,10,0:0:0:0:
196,307,22713,1,2,0:0:0:0:
233,268,22808,1,2,0:0:0:0:
283,248,22903,1,2,0:0:0:0:
336,250,22998,6,0,L|163:212,1,161.999995056153,0|2,3:0|0:0,0:0:0:0:
107,182,23378,6,0,L|243:151,1,108,10|0,0:0|0:0,0:0:0:0:
280,109,23758,5,2,3:0:0:0:
280,109,23853,2,0,P|319:107|355:170,1,107.999996704102,8|2,0:1|0:0,0:0:0:0:
336,250,24138,2,0,L|249:231,1,53.9999983520508,8|0,0:0|0:0,0:0:0:0:
440,338,24327,1,10,0:1:0:0:
492,326,24421,1,8,0:1:0:0:
486,340,24516,5,2,3:2:0:0:
486,340,24897,6,0,P|472:308|475:283,1,53.9999983520508,10|8,0:3|0:1,0:0:0:0:
498,186,25087,1,10,0:1:0:0:
498,186,25182,1,8,0:1:0:0:
498,186,25277,6,0,P|511:95|457:14,2,188.999994232178,2|2|2,3:0|3:0|3:0,0:0:0:0:
486,340,26036,6,0,B|391:332|457:278|334:282,1,144,6|0,0:0|3:0,0:0:0:0:
242,318,26606,1,2,0:0:0:0:
242,318,26796,2,0,P|266:280|267:243,1,72,2|2,3:0|0:0,0:0:0:0:
224,181,27081,1,2,0:0:0:0:
214,191,27176,2,0,L|123:216,1,72,0|2,3:0|0:0,0:0:0:0:
11,163,27555,6,0,B|60:149|60:149|60:93|114:52,1,144,2|0,3:0|3:0,0:0:0:0:
185,13,28125,1,2,0:0:0:0:
185,13,28315,2,0,P|210:52|246:55,1,72,2|2,3:0|0:0,0:0:0:0:
317,25,28600,1,2,0:0:0:0:
324,38,28695,2,0,P|316:75|309:122,1,72,0|2,3:0|0:0,0:0:0:0:
393,221,29074,6,0,B|429:185|468:181|468:181|508:234,1,144,2|0,3:0|3:0,0:0:0:0:
459,310,29644,1,2,0:0:0:0:
459,310,29834,2,0,L|372:324,1,72,2|2,3:0|0:0,0:0:0:0:
310,359,30119,1,2,0:0:0:0:
296,365,30214,2,0,L|312:271,1,72,0|2,3:0|0:0,0:0:0:0:
220,189,30593,6,0,P|179:229|72:236,1,144,2|0,3:0|3:0,0:0:0:0:
47,173,31163,1,2,0:0:0:0:
47,173,31353,1,2,3:0:0:0:
0,92,31543,1,2,0:0:0:0:
6,77,31638,1,2,0:0:0:0:
128,15,31922,2,0,P|149:40|164:46,1,36,2|0,0:0|0:0,0:0:0:0:
308,34,32112,6,0,P|246:42|233:144,1,161.999995056153,4|8,3:2|0:1,0:0:0:0:
358,196,32682,1,2,0:0:0:0:
371,195,32777,1,0,0:0:0:0:
383,193,32872,2,0,L|402:96,1,80.9999975280763,2|0,3:0|0:0,0:0:0:0:
472,45,33157,1,2,0:0:0:0:
484,56,33251,2,0,L|503:153,1,80.9999975280763,8|2,0:1|0:0,0:0:0:0:
505,320,33631,6,0,B|475:310|460:293|460:293|345:352,1,161.999995056153,2|8,3:0|0:1,0:0:0:0:
248,234,34201,1,2,0:0:0:0:
236,224,34296,1,0,0:0:0:0:
223,224,34391,2,0,P|185:253|184:298,1,80.9999975280763,2|2,3:0|0:0,0:0:0:0:
120,359,34676,1,2,0:0:0:0:
110,349,34770,2,0,L|17:329,1,80.9999975280763,8|2,0:1|0:0,0:0:0:0:
8,167,35150,6,0,P|64:170|86:59,1,161.999995056153,2|8,3:0|0:1,0:0:0:0:
240,21,35720,1,2,0:0:0:0:
229,29,35815,1,0,0:0:0:0:
225,41,35910,2,0,P|243:79|308:82,1,80.9999975280763,2|2,3:0|0:0,0:0:0:0:
377,43,36195,1,2,0:0:0:0:
384,53,36289,2,0,P|367:103|361:140,1,80.9999975280763,8|2,0:1|0:0,0:0:0:0:
291,338,36669,5,2,3:0:0:0:
244,261,36859,1,0,0:0:0:0:
85,316,37049,2,0,L|103:392,1,53.9999983520508,8|0,0:1|0:0,0:0:0:0:
167,212,37239,1,8,0:1:0:0:
173,185,37333,1,8,0:1:0:0:
179,159,37429,6,0,P|250:140|269:98,1,107.999996704102,10|0,0:1|0:0,0:0:0:0:
226,36,37714,6,0,P|155:55|136:97,1,107.999996704102,10|0,0:1|0:0,0:0:0:0:
94,156,37998,6,0,P|77:163|89:153,1,53.9999983520508,10|0,0:1|0:0,0:0:0:0:
15,110,38188,6,0,P|47:145|51:246,1,135,4|0,3:2|0:0,0:0:0:0:
33,266,38568,2,0,P|86:274|84:337,1,108,2|0,0:0|0:0,0:0:0:0:
75,351,38948,2,0,L|190:327,1,107.999996704102,10|2,0:0|0:0,0:0:0:0:
180,328,39517,1,6,0:3:0:0:
276,357,39707,5,2,0:0:0:0:
351,255,39897,2,0,B|363:263|379:270|379:270|365:267|344:272,1,62.9999980773926,6|0,3:0|0:0,0:0:0:0:
263,268,40087,2,0,B|227:244|181:224|181:224|222:232|283:218,1,188.999994232178,2|0,3:0|0:0,0:0:0:0:
347,172,40467,6,0,P|347:85|291:164,1,216,10|0,0:0|0:0,0:0:0:0:
347,172,40846,6,0,L|407:163,1,45,2|0,3:0|0:0,0:0:0:0:
483,105,41036,2,0,L|447:99,2,22.5,6|4|4,0:3|0:3|0:3,0:0:0:0:
312,44,41226,6,0,L|252:53,1,45,2|0,3:0|0:0,0:0:0:0:
176,111,41416,2,0,L|212:116,2,22.5,6|4|4,0:3|0:3|0:3,0:0:0:0:
73,55,41606,6,0,B|24:52|2:14|2:14|20:57|55:86,1,161.999995056153,2|0,0:0|0:0,0:0:0:0:
105,133,41986,6,0,P|71:159|63:212,1,72,10|0,0:0|0:0,0:0:0:0:
0,249,42176,6,0,P|0:275|12:298,1,53.9999983520508,2|0,0:0|0:0,0:0:0:0:
94,354,42365,6,0,P|155:338|219:324,1,108,2|0,0:0|0:0,0:0:0:0:
257,264,42745,5,2,0:0:0:0:
322,103,42935,2,0,B|304:95|294:85|294:85|301:96|299:125,1,62.9999980773926,6|0,3:0|0:0,0:0:0:0:
312,193,43125,2,0,B|359:221|377:255|377:255|361:219|383:143,1,188.999994232178,2|0,3:0|0:0,0:0:0:0:
419,88,43505,5,10,0:0:0:0:
236,18,43695,1,0,3:0:0:0:
110,201,43884,5,4,0:3:0:0:
322,103,44074,2,0,P|336:103|321:104,1,62.9999980773926,4|0,3:3|0:0,0:0:0:0:
236,18,44264,6,0,P|205:61|195:156,1,135,6|0,0:0|0:0,0:0:0:0:
228,168,44644,2,0,P|192:199|206:256,1,108,2|0,0:0|0:0,0:0:0:0:
231,285,45024,2,0,P|176:297|116:323,1,107.999996704102,10|2,0:0|0:0,0:0:0:0:
128,316,45593,1,6,0:3:0:0:
47,262,45783,5,2,0:0:0:0:
34,130,45973,2,0,P|11:121|23:144,1,62.9999980773926,6|0,3:0|0:0,0:0:0:0:
113,83,46163,2,0,P|144:22|83:66,1,188.999994232178,6|0,3:0|0:0,0:0:0:0:
113,165,46543,6,0,B|167:166|210:122|210:122|203:177|276:230,1,216,10|0,0:0|0:0,0:0:0:0:
325,158,46922,6,0,P|331:125|339:100,1,45,6|0,3:0|0:0,0:0:0:0:
418,51,47112,2,0,P|422:74|427:91,2,22.5,6|4|4,0:3|0:3|0:3,0:0:0:0:
474,205,47302,6,0,P|468:238|460:263,1,45,2|0,3:0|0:0,0:0:0:0:
381,312,47492,2,0,P|376:288|371:271,2,22.5,6|4|4,0:3|0:3|0:3,0:0:0:0:
325,158,47682,5,2,0:0:0:0:
167,236,47872,1,2,0:0:0:0:
247,76,48062,6,0,P|234:139|238:193,1,107.999996704102,10|0,0:0|0:0,0:0:0:0:
167,236,48346,6,0,P|120:210|31:201,1,107.999996704102,2|0,0:0|0:0,0:0:0:0:
8,138,48631,6,0,B|7:110|7:110|45:144,1,53.9999983520508,2|0,0:0|0:0,0:0:0:0:
67,199,48821,6,0,B|121:202|167:236|167:236|142:240|120:263,1,144,10|0,0:1|0:0,0:0:0:0:
25,354,49106,6,0,B|0:305|7:248|7:248|23:268|53:276,1,144,8|0,0:1|0:0,0:0:0:0:
154,331,49391,6,0,B|139:353|112:365|112:365|117:353|113:337,1,72,8|0,0:1|0:0,0:0:0:0:
237,290,49581,6,0,B|281:317|324:290|324:290|370:284|400:337,1,161.999995056153,10|0,0:1|0:0,0:0:0:0:
282,222,49865,6,0,B|327:197|325:146|325:146|343:103|404:104,1,161.999995056153,10|0,0:1|0:0,0:0:0:0:
245,149,50150,6,0,B|245:123|223:111|223:111|209:92|224:66,1,80.9999975280763,10|0,0:1|0:0,0:0:0:0:
312,14,50340,6,0,P|303:50|306:14,1,107.999996704102,2|0,3:0|0:0,0:0:0:0:
378,106,50625,1,0,0:0:0:0:
393,116,50720,6,0,P|431:106|480:96,1,72,2|2,0:0|0:0,0:0:0:0:
324,26,51005,1,0,0:0:0:0:
306,14,51100,6,0,P|234:32|143:51,1,161.999995056153,2|0,0:0|0:0,0:0:0:0:
67,18,51479,6,0,P|152:31|134:133,1,180,6|0,3:3|0:0,0:0:0:0:
36,284,51859,6,0,P|114:268|124:193,1,144,6|0,3:2|0:0,0:0:0:0:
6,132,52144,1,0,0:0:0:0:
19,147,52239,2,0,P|90:137|183:98,1,144,10|0,0:1|0:0,0:0:0:0:
459,57,52619,6,0,P|424:65|392:95,1,72,2|8,3:2|0:1,0:0:0:0:
439,166,52808,2,0,P|474:158|506:128,1,72,2|0,0:0|0:0,0:0:0:0:
256,57,52998,2,0,P|342:71|450:111,1,144,10|0,0:1|0:0,0:0:0:0:
490,302,53378,6,0,P|442:312|403:335,1,72,2|0,3:0|0:0,0:0:0:0:
286,181,53568,2,0,P|334:171|373:148,1,72,2|0,0:0|0:0,0:0:0:0:
319,369,53758,6,0,P|309:322|283:278,1,72,10|0,0:1|0:0,0:0:0:0:
191,133,53948,2,0,P|181:180|155:224,1,72,2|0,0:0|0:0,0:0:0:0:
23,338,54138,5,2,3:0:0:0:
9,327,54233,2,0,P|50:262|116:304,1,144,8|0,0:1|0:0,0:0:0:0:
226,322,54517,2,0,P|157:341|92:372,1,144,10|0,0:1|0:0,0:0:0:0:
0,152,54897,5,0,3:0:0:0:
202,52,55087,1,2,0:0:0:0:
106,23,55277,5,10,0:1:0:0:
308,123,55467,1,2,0:0:0:0:
186,173,55657,1,2,3:0:0:0:
178,170,55751,1,8,0:1:0:0:
170,166,55846,1,0,0:0:0:0:
358,45,56036,2,0,L|322:243,1,188.999994232178,10|0,0:1|0:0,0:0:0:0:
209,322,56416,6,0,L|147:344,1,53.9999983520508,2|0,3:0|0:0,0:0:0:0:
242,241,56606,2,0,L|191:198,1,53.9999983520508,2|0,0:0|0:0,0:0:0:0:
376,299,56796,6,0,L|437:276,1,53.9999983520508,10|0,0:1|0:0,0:0:0:0:
325,231,56986,2,0,L|336:166,1,53.9999983520508,2|0,0:0|0:0,0:0:0:0:
309,357,57176,5,2,3:0:0:0:
115,252,57365,2,0,P|77:280|39:282,1,72,4|0,0:1|0:0,0:0:0:0:
9,103,57555,1,8,0:1:0:0:
34,37,57649,1,8,0:1:0:0:
100,16,57744,1,10,0:1:0:0:
163,40,57839,1,8,0:1:0:0:
241,42,57935,6,0,P|177:66|98:86,1,144,6|0,3:2|0:0,0:0:0:0:
0,193,58220,1,0,0:0:0:0:
12,182,58315,2,0,P|76:235|53:318,1,144,10|0,0:1|0:0,0:0:0:0:
255,365,58695,6,0,P|277:329|320:317,1,72,2|8,3:2|0:1,0:0:0:0:
394,317,58884,2,0,P|433:312|465:271,1,72,2|0,0:0|0:0,0:0:0:0:
480,100,59074,2,0,P|429:170|348:149,1,144,10|0,0:1|0:0,0:0:0:0:
218,19,59454,6,0,P|232:48|220:100,1,72,2|0,3:0|0:0,0:0:0:0:
308,127,59644,2,0,P|289:154|238:169,1,72,2|0,0:0|0:0,0:0:0:0:
34,175,59834,6,0,P|52:147|103:132,1,72,10|0,0:1|0:0,0:0:0:0:
82,43,60024,2,0,P|114:45|153:82,1,72,2|0,0:0|0:0,0:0:0:0:
308,127,60214,5,2,3:0:0:0:
297,115,60308,2,0,P|234:147|261:240,1,144,8|0,0:1|0:0,0:0:0:0:
352,314,60593,2,0,B|312:314|288:282|288:282|291:330|260:358,1,144,10|0,0:1|0:0,0:0:0:0:
398,194,60973,6,0,P|404:147|434:66,1,107.999996704102,0|2,3:0|0:0,0:0:0:0:
211,33,61353,2,0,P|264:22|315:4,1,107.999996704102,10|2,0:1|0:0,0:0:0:0:
66,100,61733,1,2,3:0:0:0:
56,113,61827,2,0,P|116:113|135:158,1,107.999996704102,8|2,0:1|0:0,0:0:0:0:
101,229,62112,2,0,P|41:229|22:184,1,107.999996704102,8|2,0:1|0:0,0:0:0:0:
184,227,62397,1,0,0:0:0:0:
184,227,62492,6,0,P|174:260|164:314,1,62.9999980773926,14|0,0:1|0:0,0:0:0:0:
237,363,62682,2,0,P|227:329|217:276,1,62.9999980773926,8|0,0:1|0:0,0:0:0:0:
330,132,62872,6,0,P|320:165|310:219,1,72,8|0,0:1|0:0,0:0:0:0:
376,373,63062,2,0,P|366:339|356:286,1,72,8|0,0:1|0:0,0:0:0:0:
488,85,63251,6,0,P|494:154|428:125,1,144,8|2,0:1|3:0,0:0:0:0:
381,36,63536,1,0,0:0:0:0:
433,157,63631,2,0,P|357:130|241:105,1,180,6|2,3:1|0:0,0:0:0:0:
37,59,64011,6,0,B|65:54|83:31|83:31|160:104|76:193,1,216,4|0,3:2|3:0,0:0:0:0:
29,239,64391,2,0,P|57:263|66:307,1,72,8|0,0:1|0:0,0:0:0:0:
136,362,64581,2,0,P|158:320|194:307,1,72,2|0,3:0|0:0,3:0:0:0:
342,353,64770,2,0,B|428:328|371:292|475:273,1,144,2|0,0:0|3:0,0:0:0:0:
512,350,65055,1,0,0:0:0:0:
455,265,65150,2,0,L|478:173,1,72,8|0,0:1|0:0,0:0:0:0:
439,106,65340,2,0,P|402:97|377:60,1,72,2|0,0:0|0:0,0:0:0:0:
271,7,65530,6,0,B|226:62|150:61|150:61|130:19|77:8,1,216,2|0,3:0|3:0,0:0:0:0:
66,102,65910,2,0,P|56:118|66:109,1,72,10|0,0:1|0:0,0:0:0:0:
177,217,66100,2,0,P|187:174|208:115,1,72,2|0,3:0|0:0,0:0:0:0:
29,287,66289,2,0,B|102:301|57:360|172:371,1,144,2|0,0:0|3:0,0:0:0:0:
241,318,66574,1,0,0:0:0:0:
152,358,66669,2,0,P|169:251|195:147,1,216,10|0,0:1|0:0,0:0:0:0:
241,78,67049,6,0,B|280:60|301:25|301:25|304:71|259:110,1,161.999995056153,2|0,3:0|3:0,0:0:0:0:
195,146,67429,2,0,P|252:127|361:106,1,125.999996154785,10|0,0:1|3:0,0:0:0:0:
406,119,67714,1,0,0:0:0:0:
394,136,67808,2,0,P|413:189|502:162,2,125.999996154785,2|0|10,0:0|3:0|0:1,0:0:0:0:
508,87,68378,6,0,P|436:223|430:373,1,288,6|2,0:0|0:0,0:0:0:0:
331,224,68853,1,0,0:0:0:0:
341,242,68948,2,0,P|290:301|206:306,1,144,14|2,0:1|3:0,0:0:0:0:
90,362,69327,6,0,P|81:327|68:293,1,72,2|0,0:0|0:0,0:0:0:0:
32,88,69517,2,0,P|26:69|30:90,1,72,4|0,3:1|0:0,0:0:0:0:
29,178,69707,2,0,B|138:165|74:103|199:97,1,188.999994232178,12|0,0:1|0:0,0:0:0:0:
270,53,70087,6,0,B|238:40|228:16|228:16|247:157,1,188.999994232178,6|0,3:2|0:0,0:0:0:0:
303,231,70467,2,0,B|280:328|280:328|247:291,1,125.999996154785,10|0,0:1|0:0,0:0:0:0:
188,221,70751,1,8,0:1:0:0:
245,146,70846,2,0,P|278:138|326:124,1,62.9999980773926,2|0,3:0|0:0,0:0:0:0:
441,80,71036,2,0,P|410:72|380:64,1,62.9999980773926,2|0,3:0|0:0,0:0:0:0:
303,231,71226,2,0,P|386:224|376:329,1,188.999994232178,10|0,0:1|0:0,0:0:0:0:
330,368,71606,6,0,P|310:360|285:315,1,62.9999980773926,2|0,3:0|0:0,0:0:0:0:
317,174,71796,2,0,P|320:195|293:239,1,62.9999980773926,2|0,3:0|0:0,0:0:0:0:
156,283,71986,6,0,P|172:269|224:270,1,62.9999980773926,10|0,0:1|0:0,0:0:0:0:
31,335,72176,2,0,P|47:348|99:347,1,62.9999980773926,2|0,3:0|0:0,0:0:0:0:
230,183,72365,6,0,P|203:125|224:52,1,125.999996154785,2|2,0:0|3:0,0:0:0:0:
87,29,72650,1,0,0:0:0:0:
53,93,72745,2,0,B|67:118|88:129|88:129|74:267,1,188.999994232178,10|0,0:1|0:0,0:0:0:0:
31,335,73125,5,0,3:0:0:0:
257,286,73315,1,2,3:0:0:0:
116,184,73505,6,0,B|85:177|51:149|51:149|79:179|94:228,1,135,12|8,0:1|0:1,0:0:0:0:
136,259,73884,2,0,L|222:242,1,45,2|0,3:0|0:0,0:0:0:0:
400,127,74074,5,10,0:1:0:0:
368,136,74169,1,8,0:1:0:0:
348,152,74264,2,0,L|262:135,1,62.9999980773926,2|8,3:0|3:0,0:0:0:0:
150,79,74454,5,10,3:0:0:0:
150,79,74549,1,0,0:0:0:0:
150,79,74644,2,0,L|161:139,1,53.9999983520508,14|0,0:1|0:0,0:0:0:0:
188,379,74834,2,0,L|214:323,1,53.9999983520508,10|0,0:1|0:0,0:0:0:0:
333,113,75024,2,0,L|279:143,1,53.9999983520508,10|0,0:1|0:0,0:0:0:0:
60,243,75214,2,0,L|121:250,1,53.9999983520508,10|0,0:1|0:0,0:0:0:0:
357,299,75403,2,0,L|312:257,1,53.9999983520508,10|0,0:1|0:0,0:0:0:0:
211,213,75593,1,0,3:0:0:0:
217,221,75688,1,0,3:0:0:0:
222,229,75783,6,0,B|222:262|222:262|173:259|163:229|162:175|219:146|270:175|285:216|266:248|238:278|199:257,1,297.000009063721,4|0,0:1|0:0,0:0:0:0:
193,275,76163,6,0,P|223:140|194:37,1,216,6|0,3:2|0:0,0:0:0:0:
134,27,76543,2,0,P|235:120|339:146,1,216,10|0,0:1|0:0,0:0:0:0:
392,105,76922,1,2,3:0:0:0:
442,29,77112,1,2,3:0:0:0:
488,202,77302,2,0,P|434:203|391:234,1,107.999996704102,10|0,0:1|0:0,0:0:0:0:
286,363,77682,5,0,3:0:0:0:
382,331,77872,1,2,3:0:0:0:
206,252,78062,1,10,0:1:0:0:
397,334,78251,1,2,3:0:0:0:
305,159,78441,1,2,0:0:0:0:
308,168,78536,1,8,0:1:0:0:
308,179,78631,1,2,3:0:0:0:
253,95,78821,2,0,L|290:280,1,161.999995056153,10|0,0:1|0:0,0:0:0:0:
249,338,79201,6,0,B|209:324|193:277|193:277|108:288|70:360,1,216,2|0,3:0|0:0,0:0:0:0:
11,291,79581,2,0,P|16:194|138:180,1,216,10|0,0:1|0:0,0:0:0:0:
205,202,79960,1,2,3:0:0:0:
289,166,80150,1,2,3:0:0:0:
259,25,80340,2,0,P|228:63|158:81,1,107.999996704102,10|0,0:1|0:0,0:0:0:0:
26,19,80720,5,0,3:0:0:0:
79,89,80910,1,2,3:0:0:0:
28,239,81100,1,10,0:1:0:0:
85,79,81289,1,2,3:0:0:0:
241,169,81479,1,2,0:0:0:0:
232,166,81574,1,8,0:1:0:0:
220,165,81669,1,2,3:0:0:0:
28,239,81859,2,0,L|16:186,1,53.9999983520508,10|0,0:1|0:0,0:0:0:0:
76,335,82049,1,10,0:1:0:0:
96,317,82144,1,8,0:1:0:0:
138,304,82239,6,0,B|177:315|210:302|210:302|249:343|249:343|286:327|359:343,1,216,2|0,3:0|0:0,0:0:0:0:
419,369,82619,2,0,B|434:305|408:272|390:269|373:276|322:237|371:150,1,216,10|0,0:1|0:0,0:0:0:0:
412,112,82998,1,2,3:0:0:0:
485,155,83188,1,2,3:0:0:0:
348,28,83378,2,0,P|296:43|271:126,1,107.999996704102,10|0,0:1|0:0,0:0:0:0:
189,261,83758,5,0,3:0:0:0:
262,218,83948,1,2,3:0:0:0:
115,131,84138,1,10,0:1:0:0:
274,224,84327,1,2,3:0:0:0:
42,282,84517,1,2,0:0:0:0:
42,271,84612,1,8,0:1:0:0:
39,262,84707,1,2,3:0:0:0:
0,125,84897,6,0,P|29:116|62:119,1,53.9999983520508,10|0,0:1|0:0,0:0:0:0:
175,191,85086,1,8,0:1:0:0:
163,204,85181,1,8,0:1:0:0:
158,217,85277,6,0,P|180:282|294:282,1,188.999994232178,0|0,3:0|0:0,0:0:0:0:
355,229,85657,2,0,P|317:205|267:221,1,62.9999980773926,8|0,0:1|0:0,0:0:0:0:
396,335,85846,2,0,P|435:314|446:262,1,62.9999980773926,2|8,0:0|0:1,0:0:0:0:
498,154,86036,6,0,P|505:205|511:240,1,72,2|0,3:0|0:0,0:0:0:0:
345,80,86226,1,10,0:1:0:0:
358,59,86321,1,8,0:1:0:0:
369,43,86416,6,0,P|374:78|379:114,1,72,10|8,0:1|0:3,0:0:0:0:
294,322,86606,2,0,P|288:286|283:250,1,72,10|0,0:3|0:0,0:0:0:0:
189,96,86796,5,2,0:0:0:0:
116,131,86986,1,2,0:0:0:0:
177,258,87175,5,2,0:0:0:0:
183,177,87365,1,2,0:0:0:0:
42,166,87555,6,0,L|184:186,1,144,2|2,0:0|0:0,0:0:0:0:
