osu file format v14

[General]
AudioFilename: audio.mp3
AudioLeadIn: 0
PreviewTime: 37429
Countdown: 0
SampleSet: Soft
StackLeniency: 0.5
Mode: 0
LetterboxInBreaks: 0
WidescreenStoryboard: 1

[Editor]
Bookmarks: 13884,51859,61733,76163
DistanceSpacing: 1.1
BeatDivisor: 2
GridSize: 4
TimelineZoom: 1.8

[Metadata]
Title:I Wanna Muchu feat. asmi, Three (TV Size)
TitleUnicode:アイワナムチュー feat. asmi, すりぃ (TV Size)
Artist:MAISONdes
ArtistUnicode:MAISONdes
Creator:MianYa
Version:Normal
Source:うる星やつら
Tags:japanese pop anime jpop j-pop Yua -Yua arronchu1207 Kyle_Y Kyle Y LeeGod op2 opening muchuu Love Trap ラム Lum Urusei Yatsura 2022 girl iii0303 Surii
BeatmapID:4190185
BeatmapSetID:2012993

[Difficulty]
HPDrainRate:4
CircleSize:4
OverallDifficulty:4
ApproachRate:5
SliderMultiplier:0.999999999999999
SliderTickRate:1

[Events]
//Background and Video events
0,0,"BG.jpg",0,0
Video,0,"video.mp4"
//Break Periods
//Storyboard Layer 0 (Background)
//Storyboard Layer 1 (Fail)
//Storyboard Layer 2 (Pass)
//Storyboard Layer 3 (Foreground)
//Storyboard Layer 4 (Overlay)
//Storyboard Sound Samples

[TimingPoints]
1733,379.746835443038,4,2,1,55,1,0
1733,-100,4,2,1,55,0,0
7808,-100,4,2,1,75,0,0
11036,-100,4,2,1,50,0,0
11226,-100,4,2,1,55,0,0
11416,-100,4,2,1,60,0,0
11606,-100,4,2,1,65,0,0
11796,-100,4,2,1,70,0,0
11986,-100,4,2,1,75,0,0
12176,-100,4,2,1,80,0,0
12365,-100,4,2,1,50,0,0
13505,-100,4,2,1,60,0,0
13884,-100,4,2,1,80,0,0
24517,-100,4,2,1,70,0,0
26036,-100,4,2,1,60,0,0
31163,-100,4,2,1,65,0,0
32112,-100,4,2,1,70,0,0
37429,-100,4,2,1,80,0,0
38188,-100,4,2,1,65,0,0
48821,-100,4,2,1,80,0,0
50340,-100,4,2,1,60,0,0
51859,-100,4,2,1,90,0,0
62492,-100,4,2,1,100,0,0
63441,-100,4,2,1,90,0,0
74644,-100,4,2,1,100,0,0
75593,-100,4,2,1,90,0,0
76163,-100,4,2,1,85,0,0
86796,-100,4,2,1,50,0,0

[Colours]
Combo1 : 255,255,106
Combo2 : 117,255,2
Combo3 : 1,248,255
Combo4 : 255,166,253
Combo5 : 255,66,248

[HitObjects]
25,49,1733,6,0,P|78:32|126:56,1,99.9999999999999,2|10,3:2|0:0,0:0:0:0:
168,133,2492,2,0,P|182:95|211:53,2,74.9999999999999,2|0|0,3:2|3:2|3:2,0:0:0:0:
147,178,3251,1,2,3:2:0:0:
192,267,3631,1,10,0:0:0:0:
120,336,4011,2,0,P|87:318|40:309,2,74.9999999999999,2|0|0,3:2|3:2|3:2,0:0:0:0:
156,370,4770,6,0,P|208:353|270:347,1,99.9999999999999,0|10,3:2|0:0,0:0:0:0:
325,278,5530,2,0,P|351:314|358:366,2,74.9999999999999,2|0|0,3:2|3:2|3:2,0:0:0:0:
286,245,6289,1,2,3:2:0:0:
337,159,6669,1,10,0:0:0:0:
284,74,7049,2,0,P|319:57|363:60,2,74.9999999999999,2|0|2,3:2|3:2|3:2,0:0:0:0:
247,108,7808,6,0,L|125:91,1,99.9999999999999,6|10,3:1|0:0,0:0:0:0:
93,9,8568,2,0,P|73:27|57:53,1,50,2|2,3:2|0:0,0:0:0:0:
34,89,8948,1,10,0:0:0:0:
107,156,9327,2,0,L|97:207,1,50,2|2,3:2|0:0,0:0:0:0:
63,241,9707,2,0,L|88:345,1,99.9999999999999,10|2,0:0|3:2,0:0:0:0:
121,381,10277,1,2,0:0:0:0:
121,381,10467,1,10,0:0:0:0:
207,330,10846,6,0,P|256:320|309:338,1,99.9999999999999,0|10,3:2|0:1,0:0:0:0:
346,369,11416,1,10,0:1:0:0:
346,369,11606,2,0,L|360:307,1,50,10|10,0:1|0:1,0:0:0:0:
382,276,11986,2,0,L|371:214,1,50,10|10,0:1|0:1,0:0:0:0:
380,177,12365,2,0,B|275:197|314:89|181:121,1,200,2|2,0:0|0:0,0:0:0:0:
141,36,13505,2,0,P|120:62|112:92,1,50,10|10,0:1|3:1,0:0:0:0:
93,128,13884,5,6,0:0:0:0:
21,211,14264,2,0,L|47:322,1,99.9999999999999,10|2,0:0|3:2,0:0:0:0:
63,364,14834,1,2,0:0:0:0:
63,364,15024,2,0,L|117:352,1,50,10|2,0:0|0:0,0:0:0:0:
165,340,15403,2,0,L|273:354,1,99.9999999999999,2|8,3:2|0:0,0:0:0:0:
321,367,15973,1,2,0:0:0:0:
321,367,16163,1,2,3:2:0:0:
430,381,16543,2,0,P|440:347|455:324,1,50,10|2,0:0|0:0,0:0:0:0:
479,289,16922,5,2,3:2:0:0:
493,179,17302,2,0,P|481:118|467:71,1,99.9999999999999,10|2,0:0|3:0,0:0:0:0:
449,35,17872,1,2,0:0:0:0:
449,35,18062,2,0,L|394:23,1,50,10|2,0:0|0:0,0:0:0:0:
346,11,18441,1,2,3:0:0:0:
278,98,18821,2,0,L|288:152,2,50,8|2|2,0:0|0:0|3:0,0:0:0:0:
236,69,19391,1,0,0:0:0:0:
236,69,19581,2,0,L|173:55,1,50,10|10,0:1|0:1,0:0:0:0:
132,49,19960,5,6,3:2:0:0:
38,106,20340,2,0,L|19:212,1,99.9999999999999,10|2,0:0|3:0,0:0:0:0:
22,263,20910,1,2,0:0:0:0:
22,263,21100,2,0,L|33:311,1,50,10|2,0:0|0:0,0:0:0:0:
52,363,21479,2,0,P|101:344|152:332,1,99.9999999999999,2|8,3:0|0:0,0:0:0:0:
205,328,22049,1,2,0:0:0:0:
205,328,22239,1,2,3:0:0:0:
300,382,22619,2,0,P|317:354|321:328,1,50,10|2,0:0|0:0,0:0:0:0:
332,283,22998,5,0,3:0:0:0:
245,215,23378,2,0,P|227:151|210:100,1,99.9999999999999,10|2,0:0|3:0,0:0:0:0:
135,44,24138,2,0,P|170:40|188:32,1,50,8|10,0:0|0:1,0:0:0:0:
233,10,24517,1,2,3:2:0:0:
342,25,24897,1,10,0:3:0:0:
421,101,25277,2,0,L|506:78,2,74.9999999999999,2|2|2,3:0|3:0|3:0,0:0:0:0:
379,128,26036,6,0,P|341:204|371:267,1,150,6|2,0:0|0:0,0:0:0:0:
399,294,26796,1,2,3:0:0:0:
333,369,27176,2,0,L|272:356,1,50,0|2,3:0|0:0,0:0:0:0:
236,343,27555,2,0,P|158:333|75:355,1,150,2|2,3:0|0:0,0:0:0:0:
43,370,28315,1,2,3:0:0:0:
15,273,28695,2,0,L|8:217,1,50,0|2,3:0|0:0,0:0:0:0:
1,173,29074,6,0,P|58:112|126:132,1,150,2|2,3:0|0:0,0:0:0:0:
159,149,29834,1,2,3:0:0:0:
236,211,30214,2,0,L|293:204,1,50,0|2,3:0|0:0,0:0:0:0:
335,204,30593,2,0,P|413:215|460:145,1,150,2|2,3:0|0:0,0:0:0:0:
477,120,31353,1,2,3:0:0:0:
407,47,31733,2,0,P|374:32|338:29,1,50,0|2,3:0|0:0,0:0:0:0:
311,38,32112,6,0,P|267:59|214:68,1,99.9999999999999,4|8,3:2|0:1,0:0:0:0:
170,71,32682,1,2,0:0:0:0:
170,71,32872,1,2,3:0:0:0:
74,43,33251,2,0,L|60:94,1,50,8|2,0:1|0:0,0:0:0:0:
48,139,33631,2,0,L|67:248,1,99.9999999999999,2|8,3:0|0:1,0:0:0:0:
77,290,34201,1,2,0:0:0:0:
77,290,34391,2,0,P|140:305|175:331,1,99.9999999999999,2|8,3:0|0:1,0:0:0:0:
250,381,35150,6,0,P|257:330|301:300,1,99.9999999999999,2|8,3:0|0:1,0:0:0:0:
347,301,35720,1,2,0:0:0:0:
347,301,35910,1,2,3:0:0:0:
437,342,36289,2,0,L|452:281,1,50,8|2,0:1|0:0,0:0:0:0:
457,243,36669,2,0,L|427:135,1,99.9999999999999,2|8,3:0|0:1,0:0:0:0:
426,46,37429,2,0,P|459:28|496:31,2,74.9999999999999,10|10|10,0:1|0:1|0:1,0:0:0:0:
380,66,38188,5,4,3:2:0:0:
280,56,38568,1,2,0:0:0:0:
183,79,38948,2,0,L|202:184,1,99.9999999999999,10|2,0:0|0:0,0:0:0:0:
270,248,39707,2,0,L|259:316,1,50,2|6,0:0|3:0,0:0:0:0:
258,347,40087,1,2,3:0:0:0:
163,380,40467,2,0,P|125:352|59:343,1,99.9999999999999,10|2,0:0|3:0,0:0:0:0:
28,253,41226,5,2,3:0:0:0:
44,154,41606,1,2,0:0:0:0:
77,60,41986,2,0,P|127:41|188:67,1,99.9999999999999,10|2,0:0|0:0,0:0:0:0:
242,121,42745,2,0,L|226:187,1,50,2|6,0:0|3:0,0:0:0:0:
217,218,43125,1,2,3:0:0:0:
283,293,43505,2,0,P|335:306|392:274,1,99.9999999999999,10|4,0:0|0:3,0:0:0:0:
451,222,44264,5,6,0:0:0:0:
467,123,44644,1,2,0:0:0:0:
417,36,45024,2,0,P|370:22|318:36,1,99.9999999999999,10|2,0:0|0:0,0:0:0:0:
248,101,45783,2,0,L|259:157,1,50,2|6,0:0|3:0,0:0:0:0:
267,199,46163,1,6,3:0:0:0:
343,264,46543,2,0,L|321:367,1,99.9999999999999,10|6,0:0|3:0,0:0:0:0:
223,380,47302,6,0,P|178:349|118:361,1,99.9999999999999,2|2,3:0|0:0,0:0:0:0:
90,370,47872,1,2,0:0:0:0:
90,370,48062,2,0,P|52:326|63:269,1,99.9999999999999,10|0,0:0|0:0,0:0:0:0:
123,214,48821,2,0,L|201:196,2,74.9999999999999,10|8|8,0:1|0:1|0:1,0:0:0:0:
80,186,49581,2,0,L|0:169,2,74.9999999999999,10|10|10,0:1|0:1|0:1,0:0:0:0:
111,147,50340,1,2,3:0:0:0:
378,10,51479,1,6,3:3:0:0:
466,91,51859,6,0,P|450:140|440:197,1,99.9999999999999,6|10,3:2|0:1,0:0:0:0:
365,281,52619,2,0,P|380:310|390:339,1,50,2|2,3:0|0:0,0:0:0:0:
408,381,52998,1,10,0:1:0:0:
287,382,53378,2,0,L|180:362,1,99.9999999999999,2|10,3:0|0:1,0:0:0:0:
133,352,53948,1,2,0:0:0:0:
133,352,54138,2,0,L|77:359,1,50,2|2,3:0|0:0,0:0:0:0:
24,367,54517,1,10,0:1:0:0:
2,249,54897,6,0,L|23:138,1,99.9999999999999,0|10,3:0|0:1,0:0:0:0:
48,97,55467,1,2,0:0:0:0:
48,97,55657,2,0,L|26:-20,1,99.9999999999999,2|10,3:0|0:1,0:0:0:0:
143,35,56416,2,0,L|209:48,1,50,2|2,3:0|0:0,0:0:0:0:
252,44,56796,2,0,L|319:27,1,50,10|2,0:1|0:0,0:0:0:0:
360,24,57176,2,0,L|479:40,1,99.9999999999999,2|8,3:0|0:1,0:0:0:0:
509,146,57935,6,0,L|486:256,1,99.9999999999999,6|10,3:2|0:1,0:0:0:0:
372,274,58695,2,0,L|390:342,1,50,2|2,3:0|0:0,0:0:0:0:
404,378,59074,1,10,0:1:0:0:
283,380,59454,2,0,L|177:352,1,99.9999999999999,2|10,3:0|0:1,0:0:0:0:
132,340,60024,1,2,0:0:0:0:
132,340,60214,2,0,L|71:353,1,50,2|2,3:0|0:0,0:0:0:0:
25,365,60593,1,10,0:1:0:0:
45,249,60973,5,0,3:0:0:0:
45,249,61163,2,0,L|-5:230,2,50,2|10|2,0:0|0:1|0:0,0:0:0:0:
103,264,61733,2,0,P|123:214|100:167,1,99.9999999999999,2|8,3:0|0:1,0:0:0:0:
69,133,62302,1,2,0:0:0:0:
69,133,62492,2,0,L|55:73,1,50,14|8,0:1|0:1,0:0:0:0:
66,24,62872,2,0,L|128:6,1,50,8|8,0:1|0:1,0:0:0:0:
174,11,63251,1,8,0:1:0:0:
243,108,63631,1,6,3:1:0:0:
343,43,64011,6,0,P|396:24|451:28,1,99.9999999999999,4|8,3:2|0:1,0:0:0:0:
499,50,64581,1,2,3:0:0:0:
499,50,64770,2,0,P|483:106|477:167,1,99.9999999999999,2|8,0:0|0:1,0:0:0:0:
453,204,65340,1,2,0:0:0:0:
453,204,65530,2,0,L|464:269,1,50,2|2,3:0|0:0,0:0:0:0:
503,296,65910,2,0,L|487:360,1,50,10|2,0:1|3:0,0:0:0:0:
444,382,66289,2,0,P|400:373|338:372,1,99.9999999999999,2|10,0:0|0:1,0:0:0:0:
226,353,67049,6,0,L|240:249,1,99.9999999999999,2|10,3:0|0:1,0:0:0:0:
256,198,67619,1,0,3:0:0:0:
256,198,67808,1,2,0:0:0:0:
198,98,68188,1,10,0:1:0:0:
198,98,68378,2,0,P|142:83|101:102,1,99.9999999999999,6|2,0:0|0:0,0:0:0:0:
57,136,68948,2,0,L|71:192,1,50,14|2,0:1|3:0,0:0:0:0:
108,229,69327,2,0,L|95:281,1,50,2|4,0:0|3:1,0:0:0:0:
75,334,69707,1,12,0:1:0:0:
184,383,70087,6,0,L|288:367,1,99.9999999999999,6|10,3:2|0:1,0:0:0:0:
402,380,70846,2,0,L|413:320,1,50,2|2,3:0|3:0,0:0:0:0:
424,271,71226,1,10,0:1:0:0:
498,176,71606,2,0,L|478:57,1,99.9999999999999,2|10,3:0|0:1,0:0:0:0:
475,21,72176,1,2,3:0:0:0:
475,21,72366,2,0,L|417:17,1,50,2|2,0:0|3:0,0:0:0:0:
365,14,72745,1,10,0:1:0:0:
267,82,73125,5,0,3:0:0:0:
267,82,73315,2,0,P|202:72|166:55,1,99.9999999999999,2|2,3:0|0:0,0:0:0:0:
124,20,73884,2,0,P|98:41|86:71,1,50,2|10,3:0|0:1,0:0:0:0:
64,109,74264,1,2,3:0:0:0:
117,216,74644,2,0,L|177:223,2,50,14|10|10,0:1|0:1|0:1,0:0:0:0:
63,239,75214,1,10,0:1:0:0:
63,239,75403,2,0,P|54:290|94:344,1,99.9999999999999,10|4,0:1|0:1,0:0:0:0:
173,382,76163,6,0,L|284:361,1,99.9999999999999,6|10,3:2|0:1,0:0:0:0:
380,346,76922,2,0,L|445:359,1,50,2|2,3:0|3:0,0:0:0:0:
482,369,77302,1,10,0:1:0:0:
504,261,77682,2,0,L|469:153,1,99.9999999999999,0|10,3:0|0:1,0:0:0:0:
460,116,78251,1,2,3:0:0:0:
460,116,78441,2,0,L|471:60,2,50,2|2|10,0:0|3:0|0:1,0:0:0:0:
355,151,79201,6,0,P|295:144|249:121,1,99.9999999999999,2|10,3:0|0:1,0:0:0:0:
181,50,79960,2,0,L|124:58,1,50,2|2,3:0|3:0,0:0:0:0:
77,69,80340,1,10,0:1:0:0:
27,167,80720,2,0,P|17:220|45:274,1,99.9999999999999,0|10,3:0|0:1,0:0:0:0:
77,302,81289,1,2,3:0:0:0:
77,302,81479,2,0,L|136:289,1,50,2|2,0:0|3:0,0:0:0:0:
180,284,81859,2,0,L|248:293,1,50,10|10,0:1|0:1,0:0:0:0:
284,296,82239,6,0,P|313:256|305:204,1,99.9999999999999,2|10,3:0|0:1,0:0:0:0:
280,101,82998,2,0,L|333:84,1,50,2|2,3:0|3:0,0:0:0:0:
381,71,83378,1,10,0:1:0:0:
475,127,83758,2,0,L|459:238,1,99.9999999999999,0|10,3:0|0:1,0:0:0:0:
456,284,84327,1,2,3:0:0:0:
456,284,84517,2,0,L|472:345,2,50,2|2|10,0:0|3:0|0:1,0:0:0:0:
366,219,85277,6,0,P|316:207|262:230,1,99.9999999999999,0|8,3:0|0:1,0:0:0:0:
230,258,85846,1,2,0:0:0:0:
230,258,86036,2,0,L|167:248,1,50,2|10,3:0|0:1,0:0:0:0:
125,245,86416,2,0,L|75:259,1,50,10|10,0:1|0:3,0:0:0:0:
24,275,86796,2,0,P|10:213|-5:166,1,99.9999999999999,2|2,0:0|0:0,0:0:0:0:
91,118,87555,2,0,P|107:65|129:17,1,99.9999999999999,2|2,0:0|0:0,0:0:0:0:
