osu file format v14

[General]
AudioFilename: audio.mp3
AudioLeadIn: 0
PreviewTime: 34302
Countdown: 0
SampleSet: Soft
StackLeniency: 0.7
Mode: 3
LetterboxInBreaks: 0
SpecialStyle: 0
WidescreenStoryboard: 0

[Editor]
DistanceSpacing: 1
BeatDivisor: 4
GridSize: 32
TimelineZoom: 1.5

[Metadata]
Title:Aiue feat. Minami, SAKURAmoti (TV Size)
TitleUnicode:アイウエ feat. 美波, SAKURAmoti (TV Size)
Artist:MAISONdes
ArtistUnicode:MAISONdes
Creator:Murumoo
Version:Aiue
Source:うる星やつら
Tags:DenYi Nicknem_ Drum-Hitnormal Dudehacker urusei yatsura anime opening OP pop jpop j-pop Japanese 柏倉隆史 Takashi Kashikura 難部一真 Kazuma Nanbu 大塚巧 Takumi Otsuka 真船勝博 Katsuhiro Mafune
BeatmapID:3865731
BeatmapSetID:1877965

[Difficulty]
HPDrainRate:8
CircleSize:4
OverallDifficulty:8
ApproachRate:5
SliderMultiplier:1.4
SliderTickRate:1

[Events]
//Background and Video events
Video,-185,"bga.avi"
0,0,"bg.jpg",0,0
//Break Periods
//Storyboard Layer 0 (Background)
//Storyboard Layer 1 (Fail)
//Storyboard Layer 2 (Pass)
//Storyboard Layer 3 (Foreground)
//Storyboard Layer 4 (Overlay)
//Storyboard Sound Samples
Sample,5380,0,"LR4_ClapGRSV.wav",40
Sample,5469,0,"LR4_ClapGRSV.wav",40
Sample,5739,0,"LR4_ClapGRSV.wav",40
Sample,8972,0,"LR_J Hit Edge F.wav",30

[TimingPoints]
889,359.281437125748,4,2,1,30,1,0
35380,-100,4,2,1,30,0,1
61248,-100,4,2,1,30,0,0

[HitObjects]
64,192,889,5,4,0:0:0:0:
192,192,889,1,2,0:0:0:0:
448,192,889,128,0,1068:0:0:0:0:
320,192,1068,1,0,0:0:0:0:
64,192,1248,1,2,0:0:0:0:
448,192,1248,128,0,1427:0:0:0:0:
192,192,1427,1,0,0:0:0:0:
64,192,1607,128,2,1966:0:0:0:0:
320,192,1607,1,0,0:0:0:0:
448,192,1787,1,0,0:0:0:0:
320,192,1877,1,0,0:0:0:0:
192,192,1966,128,2,2326:0:0:0:0:
448,192,1966,1,0,0:0:0:0:
64,192,2146,128,0,2326:0:0:0:0:
320,192,2326,1,2,0:0:0:0:
448,192,2326,1,0,0:0:0:0:
64,192,2505,128,0,2685:0:0:0:0:
192,192,2685,1,2,0:0:0:0:
448,192,2685,128,0,2865:0:0:0:0:
64,192,2865,128,0,3044:0:0:0:0:
320,192,3044,1,2,0:0:0:0:
448,192,3044,128,0,3224:0:0:0:0:
64,192,3224,1,0,0:0:0:25:LR_J Hit Edge F.wav
192,192,3314,1,0,0:0:0:30:LR_J Hit Edge F.wav
320,192,3403,1,2,0:0:0:0:
448,192,3403,1,0,0:0:0:0:
192,192,3583,1,0,0:0:0:30:LR_J Hit Edge F.wav
64,192,3763,128,2,3942:0:0:0:0:
448,192,3763,1,0,0:0:0:0:
192,192,3942,1,0,0:0:0:30:LR_J Hit Edge F.wav
64,192,4122,128,2,4302:0:0:0:0:
448,192,4122,1,0,0:0:0:0:
320,192,4302,1,0,0:0:0:30:LR_J Hit Edge F.wav
192,192,4481,1,2,0:0:0:0:
448,192,4481,128,0,4841:0:0:0:0:
64,192,4661,1,0,0:0:0:0:
192,192,4751,1,0,0:0:0:30:LR_J Hit Edge F.wav
64,192,4841,1,2,0:0:0:0:
320,192,4841,128,0,5200:0:0:0:0:
448,192,5020,128,0,5200:0:0:0:30:LR_J Hit Edge F.wav
64,192,5200,1,2,0:0:0:0:
192,192,5200,1,0,0:0:0:40:LR4_ClapGRSV.wav
448,192,5380,1,0,0:0:0:30:LR_J Hit Edge F.wav
320,192,5424,1,0,0:0:0:30:LR_J Hit Edge F.wav
192,192,5469,1,0,0:0:0:30:LR_J Hit Edge F.wav
64,192,5514,1,0,0:0:0:30:LR_J Hit Edge F.wav
320,192,5559,1,2,0:0:0:0:
448,192,5559,1,0,0:0:0:40:LR4_ClapGRSV.wav
192,192,5739,128,0,5918:0:0:0:30:LR_J Hit Edge F.wav
64,192,5918,1,2,0:0:0:0:
320,192,5918,128,0,6098:0:0:0:0:
192,192,6098,1,0,0:0:0:30:LR_J Hit Edge F.wav
448,192,6098,1,0,0:0:0:40:LR4_ClapGRSV.wav
64,192,6278,1,2,0:0:0:0:
320,192,6278,1,0,0:0:0:50:LR_Snare Long Slam.wav
448,192,6278,1,0,0:0:0:0:
64,192,6637,1,4,0:0:0:0:
320,192,6637,1,2,0:0:0:0:
448,192,6637,128,0,6817:0:0:0:0:
192,192,6817,1,0,0:0:0:45:clap1.wav
64,192,6996,1,2,0:0:0:0:
320,192,6996,1,0,0:0:0:0:
448,192,6996,128,0,7176:0:0:0:0:
192,192,7176,1,0,0:0:0:45:clap1.wav
64,192,7356,128,2,7715:0:0:0:0:
320,192,7356,1,0,0:0:0:0:
448,192,7356,1,0,0:0:0:0:
448,192,7535,1,0,0:0:0:45:clap1.wav
320,192,7625,1,0,0:0:0:0:
192,192,7715,128,2,8074:0:0:0:0:
448,192,7715,1,0,0:0:0:0:
64,192,7894,128,0,8074:0:0:0:45:clap1.wav
320,192,8074,1,2,0:0:0:0:
448,192,8074,1,0,0:0:0:0:
64,192,8254,128,0,8433:0:0:0:45:clap1.wav
192,192,8433,1,2,0:0:0:0:
320,192,8433,1,0,0:0:0:0:
448,192,8433,128,0,8613:0:0:0:0:
64,192,8613,128,0,8793:0:0:0:45:clap1.wav
192,192,8793,1,2,0:0:0:0:
320,192,8793,1,0,0:0:0:0:
448,192,8793,128,0,8972:0:0:0:0:
64,192,8972,1,0,0:0:0:45:clap1.wav
192,192,9062,1,0,0:0:0:30:LR_J Hit Edge F.wav
64,192,9152,1,2,0:0:0:0:
320,192,9152,1,0,0:0:0:0:
448,192,9152,1,0,0:0:0:0:
192,192,9332,1,0,0:0:0:45:clap1.wav
320,192,9421,1,0,0:0:0:0:
64,192,9511,1,2,0:0:0:0:
192,192,9511,1,0,0:0:0:45:clap1.wav
448,192,9511,1,0,0:0:0:0:
320,192,9601,1,0,0:0:0:45:clap1.wav
64,192,9691,1,2,0:0:0:0:
192,192,9691,1,0,0:0:0:45:clap1.wav
448,192,9781,1,0,0:0:0:45:clap1.wav
64,192,9871,1,2,0:0:0:0:
320,192,9871,1,0,0:0:0:45:clap1.wav
192,192,9960,1,0,0:0:0:45:clap1.wav
320,192,10050,1,2,0:0:0:0:
448,192,10050,1,0,0:0:0:45:clap1.wav
64,192,10140,1,0,0:0:0:45:clap1.wav
320,192,10230,1,2,0:0:0:0:
448,192,10230,1,0,0:0:0:45:clap1.wav
64,192,10320,1,2,0:0:0:0:
192,192,10320,1,0,0:0:0:45:clap1.wav
320,192,10409,1,2,0:0:0:0:
448,192,10409,1,0,0:0:0:45:clap1.wav
64,192,10499,1,2,0:0:0:0:
192,192,10499,1,0,0:0:0:45:clap1.wav
320,192,10589,1,2,0:0:0:0:
448,192,10589,1,0,0:0:0:45:clap1.wav
64,192,10679,1,2,0:0:0:0:
192,192,10679,1,0,0:0:0:45:clap1.wav
320,192,10769,1,2,0:0:0:0:
448,192,10769,1,0,0:0:0:45:clap1.wav
64,192,10859,1,2,0:0:0:0:
192,192,10859,1,0,0:0:0:45:clap1.wav
448,192,10948,1,0,0:0:0:0:
320,192,11128,1,0,0:0:0:0:
192,192,11173,1,0,0:0:0:0:
64,192,11218,1,0,0:0:0:0:
320,192,11263,1,0,0:0:0:0:
448,192,11308,1,0,0:0:0:0:
64,192,11487,1,0,0:0:0:0:
192,192,11532,1,0,0:0:0:0:
320,192,11577,1,0,0:0:0:0:
448,192,11622,1,0,0:0:0:0:
64,192,11667,1,0,0:0:0:0:
192,192,11757,1,0,0:0:0:0:
64,192,11847,1,0,0:0:0:0:
320,192,11936,1,0,0:0:0:0:
64,192,12026,1,0,0:0:0:30:LR_J Hit Edge F.wav
192,192,12026,1,0,0:0:0:0:
448,192,12026,128,0,12386:0:0:0:0:
320,192,12206,128,0,12386:0:0:0:0:
64,192,12386,1,4,0:0:0:0:
192,192,12386,1,0,0:0:0:50:LR_Kick-long med bass.wav
192,192,12924,1,0,0:0:0:50:LR_Kick-long med bass.wav
320,192,12924,1,0,0:0:0:0:
64,192,13104,1,0,0:0:0:30:LR_Clap hollow echo.wav
448,192,13104,1,0,0:0:0:0:
320,192,13643,1,0,0:0:0:50:LR_Kick-long med bass.wav
448,192,13643,1,0,0:0:0:0:
64,192,13733,1,0,0:0:0:50:LR_Kick-long med bass.wav
192,192,13733,1,0,0:0:0:0:
320,192,13823,1,0,0:0:0:50:LR_Kick-long med bass.wav
448,192,13823,1,0,0:0:0:0:
192,192,14092,1,0,0:0:0:50:LR_Kick-long med bass.wav
320,192,14092,1,0,0:0:0:0:
64,192,14362,1,0,0:0:0:50:LR_Kick-long med bass.wav
192,192,14362,1,0,0:0:0:0:
320,192,14541,1,0,0:0:0:30:LR_Clap hollow echo.wav
448,192,14541,1,0,0:0:0:0:
192,192,14721,1,0,0:0:0:0:
64,192,14900,1,0,0:0:0:50:LR_Kick-long med bass.wav
448,192,14900,1,0,0:0:0:0:
320,192,15080,1,0,0:0:0:0:
64,192,15260,1,0,0:0:0:50:LR_Kick-long med bass.wav
192,192,15260,1,0,0:0:0:0:
192,192,15799,1,0,0:0:0:50:LR_Kick-long med bass.wav
320,192,15799,1,0,0:0:0:0:
64,192,15978,1,0,0:0:0:30:LR_Clap hollow echo.wav
448,192,15978,1,0,0:0:0:0:
320,192,16158,1,0,0:0:0:0:
64,192,16517,1,0,0:0:0:50:LR_Kick-long med bass.wav
192,192,16517,1,0,0:0:0:0:
320,192,16607,1,0,0:0:0:50:LR_Kick-long med bass.wav
448,192,16607,1,0,0:0:0:0:
64,192,16697,1,0,0:0:0:50:LR_Kick-long med bass.wav
192,192,16697,1,0,0:0:0:0:
192,192,16966,1,0,0:0:0:50:LR_Kick-long med bass.wav
320,192,16966,1,0,0:0:0:0:
320,192,17236,1,0,0:0:0:50:LR_Kick-long med bass.wav
448,192,17236,1,0,0:0:0:0:
64,192,17415,1,0,0:0:0:30:LR_Clap hollow echo.wav
192,192,17415,1,0,0:0:0:0:
320,192,17775,128,0,18134:0:0:0:50:LR_Kick-long med bass.wav
448,192,17775,1,0,0:0:0:0:
64,192,18134,1,0,0:0:0:50:LR_Kick-long med bass.wav
192,192,18134,1,0,0:0:0:0:
192,192,18673,1,0,0:0:0:50:LR_Kick-long med bass.wav
320,192,18673,1,0,0:0:0:0:
64,192,18853,1,0,0:0:0:30:LR_Clap hollow echo.wav
448,192,18853,1,0,0:0:0:0:
64,192,19391,1,0,0:0:0:50:LR_Kick-long med bass.wav
192,192,19391,1,0,0:0:0:0:
320,192,19481,1,0,0:0:0:50:LR_Kick-long med bass.wav
448,192,19481,1,0,0:0:0:0:
64,192,19571,1,0,0:0:0:50:LR_Kick-long med bass.wav
192,192,19571,1,0,0:0:0:0:
192,192,19841,1,0,0:0:0:50:LR_Kick-long med bass.wav
320,192,19841,1,0,0:0:0:0:
320,192,20110,1,0,0:0:0:50:LR_Kick-long med bass.wav
448,192,20110,1,0,0:0:0:0:
64,192,20290,1,0,0:0:0:30:LR_Clap hollow echo.wav
192,192,20290,1,0,0:0:0:0:
320,192,20469,1,0,0:0:0:0:
448,192,20649,1,0,0:0:0:0:
64,192,20829,1,0,0:0:0:50:LR_Kick-long med bass.wav
192,192,20829,1,0,0:0:0:0:
320,192,21008,1,0,0:0:0:50:LR_Kick-long med bass.wav
448,192,21008,1,0,0:0:0:0:
64,192,21368,1,0,0:0:0:0:
192,192,21547,1,0,0:0:0:50:LR_Kick-long med bass.wav
320,192,21547,1,0,0:0:0:0:
64,192,21727,1,0,0:0:0:30:LR_Clap hollow echo.wav
448,192,21727,1,0,0:0:0:0:
320,192,21906,1,0,0:0:0:0:
192,192,22086,1,0,0:0:0:0:
320,192,22266,1,0,0:0:0:50:LR_Kick-long med bass.wav
448,192,22266,1,0,0:0:0:0:
64,192,22356,1,0,0:0:0:50:LR_Kick-long med bass.wav
192,192,22356,1,0,0:0:0:0:
320,192,22445,1,0,0:0:0:50:LR_Kick-long med bass.wav
448,192,22445,128,0,23523:0:0:0:0:
192,192,22715,1,0,0:0:0:50:LR_Kick-long med bass.wav
320,192,22715,1,0,0:0:0:0:
64,192,22984,1,0,0:0:0:50:LR_Kick-long med bass.wav
192,192,22984,1,0,0:0:0:0:
64,192,23164,1,0,0:0:0:30:LR_Clap hollow echo.wav
320,192,23164,128,0,23523:0:0:0:0:
64,192,23523,1,0,0:0:0:50:LR_Kick-long med bass.wav
192,192,23523,1,0,0:0:0:0:
64,192,23883,1,2,0:0:0:0:
192,192,23883,1,4,0:0:0:0:
320,192,23883,1,0,0:0:0:0:
448,192,23883,1,0,0:0:0:0:
320,192,24062,128,0,24242:0:0:0:0:
64,192,24242,1,2,0:0:0:0:
192,192,24242,1,0,0:0:0:0:
448,192,24242,1,0,0:0:0:0:
192,192,24421,128,0,24601:0:0:0:0:
64,192,24601,1,2,0:0:0:0:
320,192,24601,1,0,0:0:0:0:
448,192,24601,1,0,0:0:0:0:
64,192,24781,128,0,24960:0:0:0:0:
192,192,24960,1,2,0:0:0:0:
320,192,24960,1,0,0:0:0:0:
448,192,24960,1,0,0:0:0:0:
448,192,25140,128,0,25320:0:0:0:0:
64,192,25320,1,2,0:0:0:0:
192,192,25320,1,0,0:0:0:0:
320,192,25320,1,0,0:0:0:0:
192,192,25499,128,0,25679:0:0:0:0:
64,192,25679,1,2,0:0:0:0:
320,192,25679,1,0,0:0:0:0:
448,192,25679,1,0,0:0:0:0:
320,192,25859,128,0,26038:0:0:0:0:
64,192,26038,1,2,0:0:0:0:
192,192,26038,1,0,0:0:0:0:
448,192,26038,1,0,0:0:0:0:
448,192,26218,128,0,26397:0:0:0:0:
64,192,26397,1,2,0:0:0:0:
192,192,26397,1,0,0:0:0:0:
320,192,26397,1,0,0:0:0:0:
64,192,26577,128,0,26757:0:0:0:0:
192,192,26757,1,2,0:0:0:0:
320,192,26757,1,0,0:0:0:0:
448,192,26757,1,0,0:0:0:0:
448,192,26936,128,0,27116:0:0:0:0:
64,192,27116,1,2,0:0:0:0:
192,192,27116,1,0,0:0:0:0:
320,192,27116,1,0,0:0:0:0:
64,192,27296,128,0,27475:0:0:0:0:
192,192,27475,1,2,0:0:0:0:
320,192,27475,1,0,0:0:0:0:
448,192,27475,1,0,0:0:0:0:
320,192,27655,128,0,27835:0:0:0:0:
64,192,27835,1,2,0:0:0:0:
192,192,27835,1,0,0:0:0:0:
448,192,27835,1,0,0:0:0:0:
192,192,28014,128,0,28194:0:0:0:0:
64,192,28194,1,2,0:0:0:0:
320,192,28194,1,0,0:0:0:0:
448,192,28194,1,0,0:0:0:0:
64,192,28374,128,0,28553:0:0:0:0:
192,192,28553,1,2,0:0:0:0:
320,192,28553,1,0,0:0:0:0:
448,192,28553,1,0,0:0:0:0:
448,192,28733,128,0,28912:0:0:0:0:
64,192,28912,1,2,0:0:0:0:
192,192,28912,1,0,0:0:0:0:
320,192,28912,1,0,0:0:0:0:
192,192,29092,128,0,29272:0:0:0:0:
64,192,29272,1,2,0:0:0:0:
320,192,29272,1,0,0:0:0:30:LR_Clap hollow echo.wav
448,192,29272,1,0,0:0:0:0:
192,192,29451,1,0,0:0:0:0:
320,192,29541,1,0,0:0:0:0:
64,192,29631,1,4,0:0:0:0:
192,192,29631,1,2,0:0:0:0:
448,192,29631,1,0,0:0:0:0:
320,192,29811,1,8,0:0:0:20:LR_Snare Drum .wav
192,192,29900,1,8,0:0:0:20:LR_Snare Drum .wav
64,192,29990,1,2,0:0:0:0:
448,192,29990,1,8,0:0:0:20:LR_Snare Drum .wav
320,192,30080,1,0,0:0:0:0:
192,192,30170,1,8,0:0:0:25:LR_Snare Drum .wav
320,192,30260,1,8,0:0:0:25:LR_Snare Drum .wav
64,192,30350,1,2,0:0:0:0:
192,192,30350,1,8,0:0:0:25:LR_Snare Drum .wav
320,192,30529,1,8,0:0:0:30:LR_Snare Drum .wav
448,192,30529,1,0,0:0:0:0:
192,192,30619,1,8,0:0:0:30:LR_Snare Drum .wav
64,192,30709,1,2,0:0:0:0:
448,192,30709,1,8,0:0:0:30:LR_Snare Drum .wav
320,192,30799,1,0,0:0:0:0:
64,192,30888,1,8,0:0:0:35:LR_Snare Drum 2.wav
192,192,30888,1,0,0:0:0:0:
320,192,30978,1,8,0:0:0:35:LR_Snare Drum 2.wav
448,192,30978,1,0,0:0:0:0:
64,192,31068,1,2,0:0:0:0:
192,192,31068,1,8,0:0:0:35:LR_Snare Drum 2.wav
320,192,31158,1,0,0:0:0:0:
64,192,31248,1,8,0:0:0:40:LR_Snare Drum 2.wav
448,192,31248,1,0,0:0:0:0:
192,192,31338,1,8,0:0:0:40:LR_Snare Drum 2.wav
320,192,31338,1,0,0:0:0:0:
64,192,31427,1,2,0:0:0:0:
448,192,31427,1,8,0:0:0:40:LR_Snare Drum 2.wav
192,192,31517,1,0,0:0:0:0:
320,192,31607,1,8,0:0:0:45:LR_Snare Drum 2.wav
448,192,31607,1,0,0:0:0:0:
64,192,31697,1,8,0:0:0:45:LR_Snare Drum 2.wav
192,192,31697,1,0,0:0:0:0:
320,192,31787,1,2,0:0:0:0:
448,192,31787,1,8,0:0:0:45:LR_Snare Drum 2.wav
64,192,31877,1,0,0:0:0:0:
192,192,31966,1,8,0:0:0:40:LR_Snare Drum 3.wav
320,192,31966,1,0,0:0:0:0:
64,192,32056,1,8,0:0:0:40:LR_Snare Drum 3.wav
448,192,32056,1,0,0:0:0:0:
192,192,32146,1,2,0:0:0:0:
320,192,32146,1,8,0:0:0:40:LR_Snare Drum 3.wav
448,192,32236,1,0,0:0:0:0:
64,192,32326,1,8,0:0:0:45:LR_Snare Drum 3.wav
192,192,32326,1,0,0:0:0:0:
320,192,32415,1,8,0:0:0:45:LR_Snare Drum 3.wav
64,192,32505,1,2,0:0:0:0:
192,192,32505,1,4,0:0:0:0:
448,192,32505,1,8,0:0:0:45:LR_Snare Drum 3.wav
320,192,32595,1,0,0:0:0:0:
64,192,32685,1,2,0:0:0:0:
192,192,32685,1,8,0:0:0:50:LR_Snare Drum 3.wav
448,192,32775,1,0,0:0:0:0:
192,192,32865,1,2,0:0:0:0:
320,192,32865,1,8,0:0:0:50:LR_Snare Drum 3.wav
64,192,32954,1,0,0:0:0:0:
320,192,33044,1,2,0:0:0:0:
448,192,33044,1,8,0:0:0:50:LR_Snare Drum 3.wav
192,192,33134,1,0,0:0:0:0:
320,192,33224,1,2,0:0:0:0:
448,192,33224,1,8,0:0:0:50:LR_Snare Drum 3.wav
64,192,33314,1,2,0:0:0:0:
192,192,33314,1,8,0:0:0:50:LR_Snare Drum 3.wav
320,192,33403,1,2,0:0:0:0:
448,192,33403,1,8,0:0:0:50:LR_Snare Drum 3.wav
64,192,33493,1,2,0:0:0:0:
192,192,33493,1,8,0:0:0:50:LR_Snare Drum 3.wav
320,192,33583,1,2,0:0:0:0:
448,192,33583,1,8,0:0:0:50:LR_Snare Drum 3.wav
64,192,33673,1,2,0:0:0:0:
192,192,33673,1,8,0:0:0:50:LR_Snare Drum 3.wav
320,192,33763,1,2,0:0:0:0:
448,192,33763,1,8,0:0:0:50:LR_Snare Drum 3.wav
64,192,33853,1,2,0:0:0:0:
192,192,33853,1,8,0:0:0:50:LR_Snare Drum 3.wav
320,192,33942,1,2,0:0:0:0:
448,192,33942,1,0,0:0:0:50:LR_Snare Drum 3.wav
192,192,34302,128,0,35020:0:0:0:0:
64,192,34661,128,0,35020:0:0:0:0:
320,192,35020,1,0,0:0:0:0:
64,192,35380,1,2,0:0:0:0:
320,192,35380,1,4,0:0:0:0:
448,192,35380,128,0,35559:0:0:0:0:
192,192,35559,1,0,0:0:0:0:
320,192,35649,128,0,35829:0:0:0:0:
64,192,35739,1,2,0:0:0:0:
192,192,35739,1,8,0:0:0:60:clap2.wav
448,192,35739,1,0,0:0:0:0:
192,192,35918,128,0,36098:0:0:0:0:
64,192,36008,1,0,0:0:0:0:
320,192,36098,1,2,0:0:0:0:
448,192,36098,1,0,0:0:0:0:
192,192,36188,1,0,0:0:0:0:
64,192,36278,128,0,36457:0:0:0:0:
192,192,36457,1,2,0:0:0:0:
320,192,36457,1,8,0:0:0:60:clap2.wav
448,192,36457,1,0,0:0:0:0:
64,192,36547,1,0,0:0:0:0:
448,192,36637,128,0,36817:0:0:0:0:
64,192,36817,128,2,36996:0:0:0:0:
192,192,36817,1,0,0:0:0:0:
320,192,36996,1,0,0:0:0:0:
192,192,37086,128,0,37266:0:0:0:0:
64,192,37176,1,2,0:0:0:0:
320,192,37176,1,8,0:0:0:60:clap2.wav
448,192,37176,1,0,0:0:0:0:
320,192,37356,128,0,37535:0:0:0:0:
448,192,37445,1,0,0:0:0:0:
64,192,37535,1,2,0:0:0:0:
192,192,37535,1,0,0:0:0:0:
320,192,37625,1,0,0:0:0:0:
448,192,37715,128,0,37894:0:0:0:0:
64,192,37894,1,2,0:0:0:0:
192,192,37894,1,8,0:0:0:60:clap2.wav
320,192,37894,1,0,0:0:0:0:
448,192,37984,1,0,0:0:0:0:
64,192,38074,128,0,38254:0:0:0:0:
192,192,38254,1,2,0:0:0:0:
448,192,38254,128,0,38433:0:0:0:0:
320,192,38433,128,0,38613:0:0:0:0:
192,192,38523,1,0,0:0:0:0:
64,192,38613,128,2,38793:0:0:0:0:
448,192,38613,1,8,0:0:0:60:clap2.wav
320,192,38793,1,0,0:0:0:0:
192,192,38883,128,0,39062:0:0:0:0:
64,192,38972,1,2,0:0:0:0:
448,192,38972,1,0,0:0:0:0:
320,192,39062,1,0,0:0:0:0:
448,192,39152,128,0,39332:0:0:0:0:
64,192,39332,128,2,39691:0:0:0:0:
192,192,39332,1,8,0:0:0:60:clap2.wav
320,192,39332,1,0,0:0:0:0:
192,192,39511,128,0,39691:0:0:0:0:
320,192,39691,128,2,39871:0:0:0:0:
448,192,39691,1,0,0:0:0:0:
192,192,39871,128,0,40050:0:0:0:0:
64,192,40050,1,2,0:0:0:0:
320,192,40050,1,8,0:0:0:60:clap2.wav
448,192,40050,128,0,40230:0:0:0:0:
64,192,40230,128,0,40589:0:0:0:0:
192,192,40409,128,2,40589:0:0:0:0:
448,192,40409,1,0,0:0:0:0:
320,192,40589,128,0,40769:0:0:0:0:
64,192,40769,1,2,0:0:0:0:
192,192,40769,1,8,0:0:0:60:clap2.wav
448,192,40769,1,0,0:0:0:0:
320,192,40948,128,0,41128:0:0:0:0:
64,192,41128,128,2,41308:0:0:0:0:
192,192,41128,1,0,0:0:0:0:
448,192,41128,1,0,0:0:0:0:
320,192,41308,1,0,0:0:0:0:
192,192,41397,128,0,41577:0:0:0:0:
64,192,41487,1,2,0:0:0:0:
320,192,41487,1,8,0:0:0:60:clap2.wav
448,192,41487,1,0,0:0:0:0:
320,192,41667,128,0,41847:0:0:0:0:
448,192,41757,1,0,0:0:0:0:
64,192,41847,1,2,0:0:0:0:
192,192,41847,1,0,0:0:0:0:
320,192,41936,1,0,0:0:0:0:
448,192,42026,128,0,42206:0:0:0:0:
64,192,42206,1,2,0:0:0:0:
192,192,42206,1,8,0:0:0:60:clap2.wav
320,192,42206,1,0,0:0:0:0:
448,192,42296,1,0,0:0:0:0:
64,192,42386,128,0,42565:0:0:0:0:
320,192,42565,1,2,0:0:0:0:
448,192,42565,128,0,42745:0:0:0:0:
192,192,42745,1,0,0:0:0:0:
320,192,42835,128,0,43014:0:0:0:0:
64,192,42924,1,2,0:0:0:0:
192,192,42924,1,8,0:0:0:60:clap2.wav
448,192,42924,1,0,0:0:0:0:
192,192,43104,128,0,43284:0:0:0:0:
64,192,43194,1,0,0:0:0:0:
320,192,43284,1,2,0:0:0:0:
448,192,43284,1,0,0:0:0:0:
192,192,43374,1,0,0:0:0:0:
64,192,43463,128,0,44002:0:0:0:0:
192,192,43643,1,2,0:0:0:0:
320,192,43643,1,8,0:0:0:60:clap2.wav
448,192,43643,1,0,0:0:0:0:
192,192,43823,128,0,44002:0:0:0:0:
320,192,44002,1,2,0:0:0:0:
448,192,44002,128,0,44182:0:0:0:0:
192,192,44182,1,0,0:0:0:0:
320,192,44272,128,0,44451:0:0:0:0:
64,192,44362,1,2,0:0:0:0:
192,192,44362,1,8,0:0:0:60:clap2.wav
448,192,44362,1,0,0:0:0:0:
192,192,44541,128,0,45080:0:0:0:0:
64,192,44721,1,2,0:0:0:0:
448,192,44721,1,0,0:0:0:0:
320,192,44811,1,0,0:0:0:0:
448,192,44900,1,0,0:0:0:0:
64,192,45080,1,2,0:0:0:0:
320,192,45080,1,8,0:0:0:60:clap2.wav
448,192,45080,1,0,0:0:0:0:
192,192,45260,1,0,0:0:0:0:
320,192,45350,1,0,0:0:0:0:
64,192,45439,128,2,45619:0:0:0:0:
448,192,45439,1,0,0:0:0:0:
320,192,45619,1,0,0:0:0:0:
192,192,45709,128,0,45888:0:0:0:0:
64,192,45799,1,2,0:0:0:0:
320,192,45799,1,8,0:0:0:60:clap2.wav
448,192,45799,1,0,0:0:0:0:
320,192,45978,128,0,46158:0:0:0:0:
448,192,46068,1,0,0:0:0:0:
64,192,46158,1,2,0:0:0:0:
192,192,46158,1,0,0:0:0:0:
320,192,46248,1,0,0:0:0:0:
448,192,46338,128,0,46517:0:0:0:0:
64,192,46517,1,2,0:0:0:0:
320,192,46517,1,8,0:0:0:60:clap2.wav
192,192,46607,1,0,0:0:0:0:
320,192,46697,1,0,0:0:0:0:
64,192,46877,128,4,47056:0:0:0:0:
192,192,46877,1,2,0:0:0:0:
448,192,46877,1,0,0:0:0:0:
320,192,47056,1,0,0:0:0:0:
64,192,47146,128,0,47326:0:0:0:0:
192,192,47236,1,2,0:0:0:0:
448,192,47236,1,8,0:0:0:60:clap2.wav
320,192,47326,1,0,0:0:0:0:
64,192,47415,128,0,47954:0:0:0:0:
320,192,47505,1,0,0:0:0:0:
192,192,47595,1,2,0:0:0:0:
448,192,47595,1,0,0:0:0:0:
320,192,47685,1,0,0:0:0:0:
192,192,47775,128,0,47954:0:0:0:0:
320,192,47954,1,2,0:0:0:0:
448,192,47954,1,8,0:0:0:60:clap2.wav
192,192,48044,1,0,0:0:0:0:
64,192,48134,128,0,48314:0:0:0:0:
320,192,48314,1,2,0:0:0:0:
448,192,48314,128,0,48493:0:0:0:0:
192,192,48493,1,0,0:0:0:0:
448,192,48583,128,0,48763:0:0:0:0:
64,192,48673,1,2,0:0:0:0:
320,192,48673,1,8,0:0:0:60:clap2.wav
192,192,48763,1,0,0:0:0:0:
448,192,48853,128,0,49391:0:0:0:0:
192,192,48942,1,0,0:0:0:0:
64,192,49032,1,2,0:0:0:0:
320,192,49032,1,0,0:0:0:0:
192,192,49122,1,0,0:0:0:0:
320,192,49212,128,0,49391:0:0:0:0:
64,192,49391,1,2,0:0:0:0:
192,192,49391,1,8,0:0:0:60:clap2.wav
320,192,49481,1,0,0:0:0:0:
448,192,49571,128,0,49751:0:0:0:0:
64,192,49751,128,2,50110:0:0:0:0:
320,192,49751,1,0,0:0:0:0:
192,192,49930,128,0,50110:0:0:0:0:
320,192,50110,1,2,0:0:0:0:
448,192,50110,128,8,50290:0:0:0:60:clap2.wav
64,192,50290,1,0,0:0:0:0:
320,192,50380,128,0,50559:0:0:0:0:
64,192,50469,1,2,0:0:0:0:
192,192,50469,1,0,0:0:0:0:
448,192,50559,1,0,0:0:0:0:
192,192,50649,128,0,50829:0:0:0:0:
64,192,50829,128,2,51188:0:0:0:0:
320,192,50829,1,8,0:0:0:60:clap2.wav
448,192,50829,1,0,0:0:0:0:
192,192,51008,128,0,51188:0:0:0:0:
320,192,51188,1,2,0:0:0:0:
448,192,51188,128,0,51368:0:0:0:0:
192,192,51278,1,0,0:0:0:0:
320,192,51368,128,0,51547:0:0:0:0:
64,192,51547,1,2,0:0:0:0:
192,192,51547,128,8,51727:0:0:0:60:clap2.wav
448,192,51547,1,0,0:0:0:0:
320,192,51727,128,0,52086:0:0:0:0:
64,192,51906,1,2,0:0:0:0:
192,192,51906,1,0,0:0:0:0:
448,192,51996,1,0,0:0:0:0:
64,192,52086,128,0,52266:0:0:0:0:
192,192,52266,128,2,52535:0:0:0:0:
320,192,52266,1,8,0:0:0:60:clap2.wav
448,192,52266,1,0,0:0:0:0:
64,192,52445,128,0,52535:0:0:0:0:
64,192,52625,1,2,0:0:0:0:
320,192,52625,1,0,0:0:0:0:
448,192,52625,128,0,53523:0:0:0:0:
192,192,52715,1,0,0:0:0:0:
320,192,52805,1,0,0:0:0:0:
64,192,52984,1,2,0:0:0:0:
192,192,52984,1,8,0:0:0:60:clap2.wav
320,192,52984,1,0,0:0:0:0:
192,192,53164,1,0,0:0:0:0:
64,192,53344,1,2,0:0:0:0:
320,192,53344,128,0,53523:0:0:0:0:
192,192,53433,1,0,0:0:0:0:
64,192,53523,1,0,0:0:0:0:
64,192,53703,128,2,53883:0:0:0:0:
320,192,53703,1,8,0:0:0:60:clap2.wav
448,192,53703,1,0,0:0:0:0:
192,192,53883,1,0,0:0:0:0:
64,192,54062,1,2,0:0:0:0:
192,192,54062,128,0,54421:0:0:0:0:
448,192,54062,1,0,0:0:0:0:
320,192,54152,1,0,0:0:0:0:
448,192,54242,1,0,0:0:0:0:
64,192,54421,1,2,0:0:0:0:
320,192,54421,128,8,54781:0:0:0:60:clap2.wav
448,192,54421,1,0,0:0:0:0:
192,192,54601,1,0,0:0:0:0:
64,192,54781,1,2,0:0:0:0:
448,192,54781,128,0,55050:0:0:0:0:
192,192,54871,1,0,0:0:0:0:
320,192,54960,128,0,55050:0:0:0:0:
64,192,55140,1,2,0:0:0:0:
192,192,55140,1,8,0:0:0:60:clap2.wav
448,192,55140,128,0,55320:0:0:0:0:
192,192,55320,1,0,0:0:0:0:
64,192,55499,128,2,56577:0:0:0:0:
320,192,55499,1,0,0:0:0:0:
448,192,55499,1,0,0:0:0:0:
192,192,55679,1,0,0:0:0:0:
320,192,55769,1,0,0:0:0:0:
192,192,55859,1,2,0:0:0:0:
448,192,55859,1,8,0:0:0:60:clap2.wav
320,192,56038,1,0,0:0:0:0:
448,192,56128,1,0,0:0:0:0:
192,192,56218,1,2,0:0:0:0:
320,192,56218,1,0,0:0:0:0:
448,192,56397,1,0,0:0:0:0:
320,192,56487,1,0,0:0:0:0:
192,192,56577,1,2,0:0:0:0:
448,192,56577,1,8,0:0:0:60:clap2.wav
64,192,56757,128,0,56936:0:0:0:0:
192,192,56936,1,2,0:0:0:0:
320,192,56936,1,0,0:0:0:0:
448,192,56936,128,0,57296:0:0:0:0:
64,192,57026,1,0,0:0:0:0:
192,192,57116,1,0,0:0:0:0:
64,192,57296,1,2,0:0:0:0:
192,192,57296,1,8,0:0:0:60:clap2.wav
320,192,57296,1,0,0:0:0:0:
320,192,57475,128,0,57835:0:0:0:0:
64,192,57655,1,2,0:0:0:0:
192,192,57655,1,0,0:0:0:0:
448,192,57655,1,0,0:0:0:0:
192,192,57835,128,2,58014:0:0:0:0:
448,192,57835,1,0,0:0:0:0:
64,192,58014,1,2,0:0:0:0:
320,192,58014,1,8,0:0:0:60:clap2.wav
448,192,58014,128,0,58194:0:0:0:0:
320,192,58194,128,0,58374:0:0:0:0:
64,192,58374,128,2,58553:0:0:0:0:
192,192,58374,128,4,58553:0:0:0:0:
448,192,58374,1,0,0:0:0:0:
320,192,58553,1,0,0:0:0:0:
192,192,58643,1,0,0:0:0:0:
64,192,58733,1,4,0:0:0:0:
320,192,58733,128,2,58912:0:0:0:0:
448,192,58733,128,8,58912:0:0:0:60:clap2.wav
192,192,58912,1,0,0:0:0:0:
320,192,59002,1,0,0:0:0:0:
64,192,59092,128,2,59272:0:0:0:0:
192,192,59092,128,4,59272:0:0:0:0:
448,192,59092,1,0,0:0:0:0:
320,192,59272,1,0,0:0:0:0:
448,192,59272,128,0,59631:0:0:0:0:
64,192,59451,1,6,0:0:0:0:
320,192,59451,128,8,59631:0:0:0:60:clap2.wav
192,192,59631,1,0,0:0:0:0:
64,192,59811,128,2,60170:0:0:0:0:
320,192,59811,1,4,0:0:0:0:
448,192,59811,1,8,0:0:0:60:clap2.wav
192,192,59990,1,0,0:0:0:0:
192,192,60170,128,2,60529:0:0:0:0:
320,192,60170,1,8,0:0:0:60:clap2.wav
448,192,60170,1,0,0:0:0:0:
64,192,60350,1,0,0:0:0:0:
64,192,60529,1,2,0:0:0:0:
320,192,60529,128,8,60888:0:0:0:60:clap2.wav
448,192,60529,1,0,0:0:0:0:
64,192,60888,1,2,0:0:0:0:
192,192,60888,128,0,61248:0:0:0:0:
448,192,60888,1,0,0:0:0:0:
64,192,61248,1,2,0:0:0:0:
320,192,61248,128,0,61966:0:0:0:0:
448,192,61248,128,0,61966:0:0:0:0:
64,192,61966,1,0,0:0:0:50:LR_Snare Drum 3.wav
192,192,61966,1,0,0:0:0:0:
320,192,62056,1,0,0:0:0:50:LR_Snare Drum 3.wav
448,192,62056,1,0,0:0:0:0:
64,192,62146,1,0,0:0:0:50:LR_Snare Drum 3.wav
192,192,62146,1,0,0:0:0:0:
320,192,62236,1,0,0:0:0:50:LR_Snare Drum 3.wav
448,192,62236,1,0,0:0:0:0:
64,192,62326,1,0,0:0:0:50:LR_Snare Drum 3.wav
192,192,62326,1,0,0:0:0:0:
320,192,62415,1,0,0:0:0:50:LR_Snare Drum 3.wav
448,192,62415,1,0,0:0:0:0:
64,192,62505,1,0,0:0:0:50:LR_Snare Drum 3.wav
192,192,62505,1,0,0:0:0:0:
320,192,62595,1,0,0:0:0:50:LR_Snare Drum 3.wav
64,192,62685,1,2,0:0:0:0:
192,192,62685,1,4,0:0:0:0:
448,192,62685,128,0,62865:0:0:0:0:
320,192,62865,1,0,0:0:0:0:
192,192,62954,1,0,0:0:0:0:
64,192,63044,1,8,0:0:0:0:
320,192,63044,1,0,0:0:0:0:
448,192,63044,128,0,63224:0:0:0:0:
192,192,63224,1,0,0:0:0:0:
64,192,63403,128,2,63763:0:0:0:0:
320,192,63403,1,0,0:0:0:0:
448,192,63583,1,0,0:0:0:0:
320,192,63673,1,0,0:0:0:0:
192,192,63763,128,8,64122:0:0:0:0:
448,192,63763,1,0,0:0:0:0:
64,192,63942,128,0,64122:0:0:0:0:
320,192,64122,1,2,0:0:0:0:
448,192,64122,1,0,0:0:0:0:
64,192,64302,128,0,64481:0:0:0:0:
448,192,64302,1,0,0:0:0:0:
192,192,64391,1,0,0:0:0:0:
320,192,64481,1,8,0:0:0:0:
448,192,64481,128,0,64661:0:0:0:0:
64,192,64661,128,0,64841:0:0:0:0:
192,192,64661,1,0,0:0:0:0:
320,192,64841,1,2,0:0:0:0:
448,192,64841,128,0,65020:0:0:0:0:
192,192,65020,1,0,0:0:0:0:
320,192,65110,1,0,0:0:0:0:
64,192,65200,1,8,0:0:0:0:
192,192,65200,1,0,0:0:0:0:
448,192,65200,1,0,0:0:0:0:
320,192,65290,1,0,0:0:0:0:
64,192,65380,1,0,0:0:0:0:
192,192,65469,1,0,0:0:0:0:
320,192,65559,1,2,0:0:0:0:
448,192,65559,128,0,65829:0:0:0:0:
320,192,65739,128,0,65829:0:0:0:0:
192,192,65829,1,0,0:0:0:0:
64,192,65918,128,8,66098:0:0:0:0:
320,192,65918,1,0,0:0:0:0:
448,192,65918,1,0,0:0:0:0:
192,192,66098,128,0,66278:0:0:0:0:
64,192,66278,1,2,0:0:0:0:
448,192,66278,128,0,66457:0:0:0:0:
320,192,66457,128,0,66637:0:0:0:0:
448,192,66547,128,0,66637:0:0:0:0:
64,192,66637,1,8,0:0:0:0:
192,192,66637,1,0,0:0:0:0:
320,192,66817,128,0,66996:0:0:0:0:
64,192,66996,1,2,0:0:0:0:
192,192,66996,128,0,67176:0:0:0:0:
448,192,66996,1,0,0:0:0:0:
64,192,67176,128,0,67356:0:0:0:0:
192,192,67356,1,8,0:0:0:0:
320,192,67356,128,0,67715:0:0:0:0:
448,192,67356,1,0,0:0:0:0:
448,192,67535,128,0,67715:0:0:0:0:
64,192,67715,1,8,0:0:0:0:
192,192,67715,1,0,0:0:0:0:
320,192,67805,1,8,0:0:0:0:
448,192,67805,1,0,0:0:0:0:
64,192,67894,1,8,0:0:0:0:
192,192,67894,1,0,0:0:0:0:
320,192,68074,1,8,0:0:0:0:
448,192,68074,1,0,0:0:0:0:
64,192,68164,1,8,0:0:0:0:
192,192,68164,1,0,0:0:0:0:
320,192,68254,1,8,0:0:0:0:
448,192,68254,1,0,0:0:0:0:
64,192,68433,128,2,68613:0:0:0:0:
320,192,68433,1,0,0:0:0:0:
448,192,68433,1,0,0:0:0:0:
192,192,68613,1,0,0:0:0:0:
320,192,68703,1,0,0:0:0:0:
64,192,68793,128,8,68972:0:0:0:0:
192,192,68793,1,0,0:0:0:0:
448,192,68793,1,0,0:0:0:0:
320,192,68972,1,0,0:0:0:0:
192,192,69152,1,2,0:0:0:0:
448,192,69152,128,0,69511:0:0:0:0:
64,192,69332,1,0,0:0:0:0:
192,192,69421,1,0,0:0:0:0:
64,192,69511,1,8,0:0:0:0:
320,192,69511,128,0,69871:0:0:0:0:
448,192,69691,128,0,69871:0:0:0:0:
64,192,69871,1,2,0:0:0:0:
192,192,69871,1,0,0:0:0:0:
64,192,70050,1,0,0:0:0:0:
448,192,70050,128,0,70230:0:0:0:0:
320,192,70140,1,0,0:0:0:0:
64,192,70230,128,8,70409:0:0:0:0:
192,192,70230,1,0,0:0:0:0:
320,192,70409,1,0,0:0:0:0:
448,192,70409,128,0,70589:0:0:0:0:
64,192,70589,128,2,70769:0:0:0:0:
192,192,70589,1,0,0:0:0:0:
320,192,70769,1,0,0:0:0:0:
192,192,70859,1,0,0:0:0:0:
64,192,70948,1,8,0:0:0:0:
320,192,70948,1,0,0:0:0:0:
448,192,70948,1,0,0:0:0:0:
192,192,71128,1,0,0:0:0:0:
320,192,71218,1,8,0:0:0:0:
448,192,71218,1,0,0:0:0:0:
64,192,71308,128,2,71487:0:0:0:0:
192,192,71308,1,0,0:0:0:0:
448,192,71487,128,0,71847:0:0:0:0:
192,192,71577,1,0,0:0:0:0:
64,192,71667,1,8,0:0:0:0:
320,192,71667,128,0,71847:0:0:0:0:
192,192,71847,1,0,0:0:0:0:
320,192,71936,1,0,0:0:0:0:
64,192,72026,1,2,0:0:0:0:
448,192,72026,128,0,72206:0:0:0:0:
64,192,72206,128,0,72565:0:0:0:0:
320,192,72296,1,0,0:0:0:0:
192,192,72386,128,8,72565:0:0:0:0:
448,192,72386,1,0,0:0:0:0:
320,192,72565,128,0,72745:0:0:0:0:
448,192,72655,1,0,0:0:0:0:
64,192,72745,1,2,0:0:0:0:
192,192,72745,128,0,72924:0:0:0:0:
64,192,72924,128,0,73284:0:0:0:0:
320,192,73014,1,0,0:0:0:0:
192,192,73104,128,8,73284:0:0:0:0:
448,192,73104,1,0,0:0:0:0:
320,192,73284,1,8,0:0:0:0:
448,192,73284,1,0,0:0:0:0:
64,192,73374,1,8,0:0:0:0:
192,192,73374,1,0,0:0:0:0:
320,192,73463,1,8,0:0:0:0:
448,192,73463,1,2,0:0:0:0:
64,192,73583,1,8,0:0:0:0:
192,192,73583,1,0,0:0:0:0:
320,192,73703,1,8,0:0:0:0:
448,192,73703,1,0,0:0:0:0:
64,192,73823,1,8,0:0:0:0:
192,192,73823,1,2,0:0:0:0:
320,192,73942,1,8,0:0:0:0:
448,192,73942,1,0,0:0:0:0:
64,192,74062,1,8,0:0:0:0:
192,192,74062,1,0,0:0:0:0:
64,192,74182,128,2,74362:0:0:0:0:
320,192,74182,1,4,0:0:0:0:
448,192,74182,1,0,0:0:0:0:
192,192,74362,1,0,0:0:0:0:
320,192,74451,1,0,0:0:0:0:
64,192,74541,128,8,74721:0:0:0:0:
192,192,74541,1,0,0:0:0:0:
448,192,74541,1,0,0:0:0:0:
320,192,74721,1,0,0:0:0:0:
192,192,74900,1,2,0:0:0:0:
448,192,74900,128,0,75260:0:0:0:0:
64,192,75080,1,0,0:0:0:0:
192,192,75170,1,0,0:0:0:0:
64,192,75260,1,8,0:0:0:0:
320,192,75260,128,0,75619:0:0:0:0:
448,192,75439,128,0,75619:0:0:0:0:
64,192,75619,1,2,0:0:0:0:
192,192,75619,1,0,0:0:0:0:
64,192,75799,1,0,0:0:0:0:
448,192,75799,128,0,75978:0:0:0:0:
320,192,75888,1,0,0:0:0:0:
64,192,75978,128,8,76158:0:0:0:0:
192,192,75978,1,0,0:0:0:0:
320,192,76158,1,0,0:0:0:0:
448,192,76158,128,0,76338:0:0:0:0:
64,192,76338,128,2,76517:0:0:0:0:
192,192,76338,1,0,0:0:0:0:
320,192,76517,1,0,0:0:0:0:
448,192,76517,1,0,0:0:0:0:
64,192,76697,1,8,0:0:0:0:
192,192,76697,1,0,0:0:0:0:
320,192,76787,1,2,0:0:0:0:
64,192,76877,1,8,0:0:0:0:
448,192,76877,1,0,0:0:0:0:
192,192,76966,1,8,0:0:0:0:
320,192,76966,1,0,0:0:0:0:
64,192,77056,1,2,0:0:0:0:
448,192,77056,128,0,77236:0:0:0:0:
320,192,77236,128,0,77415:0:0:0:0:
64,192,77415,1,8,0:0:0:0:
192,192,77415,128,0,77595:0:0:0:0:
448,192,77415,1,0,0:0:0:0:
320,192,77595,128,0,77775:0:0:0:0:
64,192,77775,128,2,77954:0:0:0:0:
192,192,77775,1,0,0:0:0:0:
448,192,77775,1,0,0:0:0:0:
448,192,77954,128,0,78134:0:0:0:0:
64,192,78134,1,8,0:0:0:0:
192,192,78134,1,0,0:0:0:0:
320,192,78134,128,0,78314:0:0:0:0:
192,192,78314,128,0,78493:0:0:0:0:
64,192,78493,128,2,79032:0:0:0:0:
320,192,78493,1,0,0:0:0:0:
448,192,78493,1,0,0:0:0:0:
192,192,78673,1,0,0:0:0:0:
192,192,78853,128,8,79032:0:0:0:0:
320,192,78853,1,0,0:0:0:0:
448,192,78853,1,0,0:0:0:0:
448,192,79032,128,0,79571:0:0:0:0:
64,192,79212,1,2,0:0:0:0:
192,192,79212,1,0,0:0:0:0:
320,192,79212,1,0,0:0:0:0:
320,192,79391,128,4,79571:0:0:0:0:
64,192,79571,1,8,0:0:0:0:
192,192,79571,1,0,0:0:0:0:
320,192,79661,1,8,0:0:0:0:
448,192,79661,1,0,0:0:0:0:
64,192,79751,1,8,0:0:0:0:
192,192,79751,1,0,0:0:0:0:
320,192,79841,1,8,0:0:0:0:
64,192,79930,1,2,0:0:0:0:
192,192,79930,1,0,0:0:0:0:
448,192,79930,128,0,80290:0:0:0:0:
320,192,80110,1,0,0:0:0:0:
64,192,80290,128,8,80649:0:0:0:0:
192,192,80290,1,0,0:0:0:0:
320,192,80290,1,0,0:0:0:0:
448,192,80380,1,0,0:0:0:0:
192,192,80469,128,0,80649:0:0:0:0:
320,192,80649,1,2,0:0:0:0:
448,192,80649,1,0,0:0:0:0:
192,192,80829,128,0,81008:0:0:0:0:
64,192,81008,1,8,0:0:0:0:
320,192,81008,128,0,81188:0:0:0:0:
448,192,81008,1,0,0:0:0:0:
448,192,81188,128,0,81368:0:0:0:0:
64,192,81368,128,2,81727:0:0:0:0:
192,192,81368,1,0,0:0:0:0:
320,192,81368,1,0,0:0:0:0:
448,192,81547,1,0,0:0:0:0:
320,192,81637,1,0,0:0:0:0:
192,192,81727,1,8,0:0:0:0:
448,192,81727,1,0,0:0:0:0:
64,192,81817,1,0,0:0:0:0:
320,192,81906,128,0,82445:0:0:0:0:
192,192,81996,1,0,0:0:0:0:
64,192,82086,1,2,0:0:0:0:
448,192,82086,1,0,0:0:0:0:
448,192,82266,128,0,82445:0:0:0:0:
64,192,82445,1,8,0:0:0:0:
192,192,82445,1,0,0:0:0:0:
320,192,82535,1,8,0:0:0:0:
448,192,82535,1,0,0:0:0:0:
64,192,82625,1,8,0:0:0:0:
192,192,82625,1,0,0:0:0:0:
320,192,82715,1,8,0:0:0:0:
64,192,82805,1,2,0:0:0:0:
192,192,82805,1,0,0:0:0:0:
448,192,82805,128,0,83164:0:0:0:0:
320,192,82984,1,0,0:0:0:0:
192,192,83074,1,0,0:0:0:0:
64,192,83164,1,8,0:0:0:0:
320,192,83164,128,0,83523:0:0:0:0:
192,192,83344,1,0,0:0:0:0:
64,192,83433,1,0,0:0:0:0:
192,192,83523,128,2,83883:0:0:0:0:
448,192,83523,1,0,0:0:0:0:
320,192,83703,1,0,0:0:0:0:
448,192,83793,1,0,0:0:0:0:
64,192,83883,128,8,84242:0:0:0:0:
320,192,83883,1,0,0:0:0:0:
192,192,84062,1,0,0:0:0:0:
192,192,84242,1,2,0:0:0:0:
448,192,84242,1,0,0:0:0:0:
64,192,84421,1,8,0:0:0:0:
320,192,84421,1,0,0:0:0:0:
448,192,84421,1,0,0:0:0:0:
64,192,84601,1,2,0:0:0:0:
192,192,84601,1,0,0:0:0:0:
320,192,84691,1,8,0:0:0:0:
448,192,84691,1,0,0:0:0:0:
192,192,84781,1,0,0:0:0:0:
320,192,84871,1,8,0:0:0:0:
448,192,84871,1,0,0:0:0:0:
64,192,84960,1,2,0:0:0:0:
192,192,84960,1,8,0:0:0:0:
64,192,85140,1,8,0:0:0:0:
448,192,85140,1,0,0:0:0:0:
320,192,85320,1,0,0:0:0:0:
64,192,85409,1,8,0:0:0:0:
192,192,85409,1,0,0:0:0:0:
320,192,85499,1,8,0:0:0:0:
448,192,85499,1,0,0:0:0:0:
192,192,85679,1,0,0:0:0:0:
448,192,85679,1,0,0:0:0:0:
320,192,85859,1,0,0:0:0:0:
64,192,85948,1,0,0:0:0:0:
448,192,85948,1,0,0:0:0:0:
192,192,86038,1,0,0:0:0:0:
320,192,86128,1,0,0:0:0:0:
448,192,86128,1,0,0:0:0:0:
64,192,86218,1,0,0:0:0:0:
320,192,86397,1,0,0:0:0:0:
448,192,86397,1,0,0:0:0:0:
192,192,86577,1,0,0:0:0:0:
64,192,86757,1,2,0:0:0:0:
192,192,86757,1,0,0:0:0:40:LR_Drum Hit Hard Long Drop.wav
320,192,86757,1,0,0:0:0:0:
448,192,86757,1,0,0:0:0:0:
