osu file format v14

[General]
AudioFilename: audio.mp3
AudioLeadIn: 0
PreviewTime: 186033
Countdown: 0
SampleSet: Soft
StackLeniency: 0.7
Mode: 2
LetterboxInBreaks: 0
WidescreenStoryboard: 1

[Editor]
DistanceSpacing: 1
BeatDivisor: 4
GridSize: 4
TimelineZoom: 1.5

[Metadata]
Title:kawazu ishi
TitleUnicode:蛙石
Artist:MAIKAZE
ArtistUnicode:舞風
Creator:IMkoley
Version:Inodoru
Source:東方風神録 ~ Mountain of Faith.
Tags:Touhou Asuka Sasa Renka TOKINE fuujinroku 東方project
BeatmapID:1485274
BeatmapSetID:701867

[Difficulty]
HPDrainRate:5.7
CircleSize:4
OverallDifficulty:9.4
ApproachRate:9.4
SliderMultiplier:2.1
SliderTickRate:1

[Events]
//Background and Video events
0,0,"webp_net_resizeimage.jpg",0,0
//Break Periods
2,117858,124130
2,232900,234130
2,250900,252160
//Storyboard Layer 0 (Background)
//Storyboard Layer 1 (Fail)
//Storyboard Layer 2 (Pass)
//Storyboard Layer 3 (Foreground)
//Storyboard Sound Samples

[TimingPoints]
2034,333.333333333333,4,2,0,70,1,0
75700,-100,4,2,0,70,0,0
76367,-100,4,2,0,70,0,0
242700,-90.9090909090909,4,2,0,70,0,0
243700,-100,4,2,0,70,0,0

[HitObjects]
368,232,2033,6,0,L|448:112,1,105
192,240,2367,2,0,L|144:128,1,105
448,208,2700,2,0,P|496:128|400:64,1,210
184,128,3200,1,0,0:0:0:0:
421,61,3367,2,0,L|309:61,1,105
0,172,3700,2,0,L|64:76,1,105
304,96,4033,2,0,L|184:96,1,105
448,144,4367,2,0,L|400:48,1,105
176,48,4700,1,0,0:0:0:0:
401,51,4867,1,0,0:0:0:0:
176,104,5033,1,0,0:0:0:0:
400,120,5200,1,0,0:0:0:0:
176,208,5367,1,0,0:0:0:0:
64,112,5533,1,0,0:0:0:0:
432,192,5700,6,0,L|336:120,1,105
48,128,6033,2,0,P|80:112|72:104,1,52.5
496,128,6367,2,0,L|384:80,1,105
87,101,6700,2,0,L|0:160,1,105
240,160,7033,1,0,0:0:0:0:
400,80,7200,2,0,B|452:80,1,52.5
512,64,7367,1,0,0:0:0:0:
352,80,7533,1,0,0:0:0:0:
15,233,7700,6,0,B|33:214|33:214|83:153,1,105
392,256,8033,2,0,B|302:256|302:256|422:256,1,210
192,248,8533,1,0,0:0:0:0:
392,200,8700,2,0,L|288:200,1,105
512,256,9033,1,0,0:0:0:0:
105,240,9200,2,0,L|0:240,1,105
272,168,9533,1,0,0:0:0:0:
448,112,9700,6,0,L|504:112,1,52.5
448,112,9867,1,0,0:0:0:0:
104,168,10033,1,0,0:0:0:0:
264,176,10200,1,0,0:0:0:0:
16,192,10367,1,0,0:0:0:0:
264,152,10533,1,0,0:0:0:0:
96,160,10700,2,0,P|55:134|96:72,1,105
496,96,11033,2,0,B|392:96,1,105
104,256,11367,2,0,B|0:232|0:232|128:224,1,210
368,176,12033,5,0,0:0:0:0:
123,186,12200,1,0,0:0:0:0:
368,80,12366,1,0,0:0:0:0:
128,80,12533,1,0,0:0:0:0:
0,184,12700,1,0,0:0:0:0:
256,184,12867,1,0,0:0:0:0:
512,192,13033,5,0,0:0:0:0:
256,272,13200,1,0,0:0:0:0:
0,272,13366,1,0,0:0:0:0:
256,320,13533,1,0,0:0:0:0:
504,264,13700,2,0,L|436:128,1,105
362,245,14033,2,0,L|272:192,1,105
44,252,14367,1,0,0:0:0:0:
140,188,14533,1,0,0:0:0:0:
496,112,14700,2,0,L|384:72,1,105
104,136,15033,2,0,L|200:64,1,105
416,48,15367,6,0,L|320:112,1,105
0,176,15700,1,0,0:0:0:0:
256,168,16033,1,0,0:0:0:0:
512,176,16367,1,0,0:0:0:0:
64,72,16700,1,0,0:0:0:0:
304,48,16867,1,0,0:0:0:0:
64,144,17033,1,0,0:0:0:0:
192,176,17201,5,0,0:0:0:0:
64,208,17367,1,0,0:0:0:0:
304,176,17534,1,0,0:0:0:0:
424,192,17700,1,0,0:0:0:0:
304,224,17867,1,0,0:0:0:0:
400,104,18033,1,0,0:0:0:0:
104,160,18200,5,0,0:0:0:0:
260,108,18366,1,0,0:0:0:0:
104,112,18533,1,0,0:0:0:0:
408,104,18700,2,0,L|160:104,2,210
48,128,19700,2,0,L|192:96,1,105
400,104,20033,2,0,L|504:96,1,105
240,176,20367,1,0,0:0:0:0:
120,128,20533,1,0,0:0:0:0:
480,176,20700,2,0,B|368:176,2,105
356,120,21200,5,0,0:0:0:0:
208,200,21367,1,0,0:0:0:0:
360,252,21533,1,0,0:0:0:0:
128,128,21700,2,0,B|74:129|74:129|130:129,1,105
355,80,22033,2,0,B|477:80|477:80,1,105
355,80,22367,2,0,L|199:82,1,105
56,88,22700,5,0,0:0:0:0:
251,82,22867,1,0,0:0:0:0:
56,128,23033,1,0,0:0:0:0:
352,24,23200,1,0,0:0:0:0:
168,32,23367,1,0,0:0:0:0:
352,192,23533,1,0,0:0:0:0:
104,256,23700,2,0,L|24:128,1,105
392,32,24033,6,0,L|312:128,1,105
93,289,24367,2,0,L|0:336,1,105
256,344,24700,1,0,0:0:0:0:
504,344,24867,1,0,0:0:0:0:
256,280,25034,1,0,0:0:0:0:
504,280,25200,1,0,0:0:0:0:
256,216,25367,5,0,0:0:0:0:
0,192,25533,1,0,0:0:0:0:
256,160,25700,1,0,0:0:0:0:
512,168,25867,1,0,0:0:0:0:
264,64,26033,2,0,L|192:144,1,105
432,104,26367,2,0,L|392:200,1,105
160,224,26700,2,0,L|-40:104,1,210
400,128,27367,1,0,0:0:0:0:
80,192,27700,6,0,L|8:268,1,105
275,282,28033,2,0,L|240:184,1,105
496,80,28367,2,0,L|272:80,1,210
40,192,28867,1,0,0:0:0:0:
288,216,29034,1,0,0:0:0:0:
40,128,29200,1,0,0:0:0:0:
288,160,29367,1,0,0:0:0:0:
192,120,29534,1,0,0:0:0:0:
432,112,29700,2,0,L|328:112,1,105
192,248,30033,6,0,L|304:248,1,105
112,200,30367,2,0,P|40:136|120:112,1,210
512,80,31033,2,0,L|286:89,2,210
48,160,32033,2,0,L|147:121,2,105
280,128,32533,1,0,0:0:0:0:
480,128,32699,1,0,0:0:0:0:
384,32,32866,1,0,0:0:0:0:
152,72,33033,5,0,0:0:0:0:
0,96,33199,1,0,0:0:0:0:
256,152,33367,2,0,L|144:152,2,105
480,168,33867,1,0,0:0:0:0:
256,160,34033,1,0,0:0:0:0:
480,184,34200,1,0,0:0:0:0:
256,184,34367,2,0,L|176:40,1,157.5
368,208,34700,2,0,L|368:40,1,157.5
256,42,35033,2,0,L|240:208,1,157.5
96,184,35367,6,0,P|176:112|208:64,1,157.5
360,56,35700,2,0,B|144:56|144:56|360:72|360:72,1,420
88,184,36700,2,0,B|-18:184|-18:184|88:184,1,210
256,176,37200,1,0,0:0:0:0:
502,173,37367,2,0,B|454:191|454:191|416:142,2,105
0,144,38033,2,0,L|89:89,1,105
420,62,38367,2,0,L|305:71,1,105
45,186,38700,2,0,L|142:101,1,105
490,143,39033,2,0,L|389:79,1,105
88,243,39367,6,0,L|156:344,1,105
408,67,39700,2,0,P|478:127|396:134,1,210
11,157,40367,1,0,0:0:0:0:
256,160,40533,1,0,0:0:0:0:
8,248,40700,1,0,0:0:0:0:
256,248,40867,1,0,0:0:0:0:
512,288,41033,5,0,0:0:0:0:
256,312,41199,1,0,0:0:0:0:
8,320,41366,1,0,0:0:0:0:
256,384,41533,1,0,0:0:0:0:
512,160,41700,2,0,L|376:116,1,105
192,64,42033,2,0,L|316:82,1,105
0,96,42367,2,0,L|96:224,1,157.5
192,200,42700,2,0,L|320:134,1,105
512,176,43033,2,0,L|368:120,1,105
128,192,43367,1,0,0:0:0:0:
356,157,43533,1,0,0:0:0:0:
128,160,43700,2,0,L|10:155,1,105
256,128,44033,2,0,L|224:0,1,105
493,105,44367,2,0,B|441:125|441:125|366:108,2,105
288,96,44867,1,0,0:0:0:0:
64,96,45033,2,0,B|115:79|115:79|192:96,2,105
288,96,45533,1,0,0:0:0:0:
64,160,45700,1,0,0:0:0:0:
288,176,45867,1,0,0:0:0:0:
192,160,46033,1,0,0:0:0:0:
480,128,46200,1,0,0:0:0:0:
216,168,46367,1,0,0:0:0:0:
88,184,46533,1,0,0:0:0:0:
320,168,46700,6,0,L|416:216,1,105
240,80,47033,2,0,L|128:96,1,105
424,176,47367,2,0,L|200:176,1,210
504,176,48033,1,0,0:0:0:0:
224,200,48367,1,0,0:0:0:0:
448,224,48700,1,0,0:0:0:0:
504,147,48866,1,0,0:0:0:0:
430,87,49033,1,0,0:0:0:0:
64,224,49200,2,0,B|123:137,1,105
352,144,49533,1,0,0:0:0:0:
123,137,49700,1,0,0:0:0:0:
352,144,49867,1,0,0:0:0:0:
192,368,50034,1,0,0:0:0:0:
384,368,50201,1,0,0:0:0:0:
192,272,50367,6,0,L|64:256,1,105
384,224,50700,2,0,L|511:56,1,210
232,208,51367,1,0,0:0:0:0:
8,128,51700,2,0,B|124:96|124:96|204:72|204:72|24:192,1,420
200,80,52033,1,0,0:0:0:0:
512,160,52700,2,0,L|288:160,1,210
432,168,53200,1,0,0:0:0:0:
184,256,53367,1,0,0:0:0:0:
32,224,53533,1,0,0:0:0:0:
272,200,53700,2,0,L|128:48,1,210
432,192,54367,5,0,0:0:0:0:
256,192,54533,1,0,0:0:0:0:
32,128,54700,2,0,L|246:76,1,210
512,160,55367,1,0,0:0:0:0:
232,104,55700,2,0,L|18:52,1,210
456,200,56367,1,0,0:0:0:0:
224,200,56533,1,0,0:0:0:0:
456,128,56700,6,0,L|357:92,1,105
160,120,57033,1,0,0:0:0:0:
64,168,57200,1,0,0:0:0:0:
160,216,57366,1,0,0:0:0:0:
64,264,57533,1,0,0:0:0:0:
416,232,57700,1,0,0:0:0:0:
0,144,58033,2,0,L|104:24,1,157.5
272,24,58367,2,0,L|288:200,1,157.5
480,72,58700,6,0,L|358:184,1,157.5
190,113,59033,2,0,P|112:168|56:272,1,210
280,264,59533,1,0,0:0:0:0:
504,248,59700,2,0,L|360:304,1,105
160,304,60033,2,0,L|120:192,1,105
232,200,60367,2,0,L|432:192,1,105
120,304,60700,6,0,P|8:248|16:136,1,210
224,120,61200,1,0,0:0:0:0:
448,136,61367,1,0,0:0:0:0:
224,168,61533,1,0,0:0:0:0:
448,120,61700,2,0,P|395:107|512:47,1,315
200,192,62367,2,0,L|72:192,1,105
499,5,62700,2,0,L|387:53,1,105
272,40,63033,2,0,L|216:160,1,105
72,208,63367,5,0,0:0:0:0:
512,232,63700,2,0,B|400:104|400:104,1,157.5
280,176,64033,2,0,P|216:96|320:40,1,210
472,32,64533,1,0,0:0:0:0:
278,32,64700,2,0,P|352:112|272:152,1,210
80,224,65200,1,0,0:0:0:0:
0,160,65366,1,0,0:0:0:0:
80,96,65533,1,0,0:0:0:0:
416,192,65700,1,0,0:0:0:0:
485,126,65866,1,0,0:0:0:0:
425,52,66033,1,0,0:0:0:0:
336,24,66200,1,0,0:0:0:0:
80,64,66367,2,0,L|128:168,1,105
424,176,66700,2,0,B|192:176|192:176,1,210
424,224,67367,1,0,0:0:0:0:
144,128,67700,2,0,P|8:128|8:200,1,210
272,152,68367,5,0,0:0:0:0:
480,96,68700,2,0,L|266:44,1,210
448,256,69200,1,0,0:0:0:0:
352,192,69367,1,0,0:0:0:0:
448,128,69533,1,0,0:0:0:0:
16,208,69700,1,0,0:0:0:0:
256,96,70033,6,0,L|42:44,1,210
257,162,70701,1,0,0:0:0:0:
128,256,70867,1,0,0:0:0:0:
400,160,71033,1,0,0:0:0:0:
88,136,71200,2,0,L|208:136,1,105
0,88,71533,2,0,L|128:88,1,105
304,120,72033,6,0,L|508:175,1,210
323,114,72700,2,0,B|-6:135|-6:135|310:65,1,630
400,56,73867,1,0,0:0:0:0:
512,56,74034,1,0,0:0:0:0:
440,144,74200,1,0,0:0:0:0:
16,80,74367,1,0,0:0:0:0:
120,136,74533,1,0,0:0:0:0:
360,176,74700,5,0,0:0:0:0:
128,208,75033,1,0,0:0:0:0:
400,176,75367,1,0,0:0:0:0:
128,176,75700,2,0,B|-11:190|-11:190|37:46|37:46|165:54,1,420
416,96,76700,2,0,B|208:143|208:143|136:71,1,315
456,224,77533,5,0,0:0:0:0:
232,192,77700,2,0,L|296:48,1,157.5
416,48,78033,2,0,L|296:48,1,105
64,48,78367,1,0,0:0:0:0:
480,56,78700,1,0,0:0:0:0:
380,67,78866,1,0,0:0:0:0:
340,159,79033,1,0,0:0:0:0:
400,240,79200,1,0,0:0:0:0:
296,240,79367,1,0,0:0:0:0:
72,192,79533,5,0,0:0:0:0:
320,264,79700,2,0,P|202:255|344:192,1,420
184,216,80533,1,0,0:0:0:0:
24,256,80700,2,0,B|144:160|144:160|176:280|176:280|-24:128|96:80|232:120,1,630
480,112,82033,2,0,L|266:60,1,210
256,192,82867,12,0,84367,0:0:0:0:
128,186,84700,6,0,L|40:74,1,105
304,96,85034,1,0,0:0:0:0:
64,104,85201,1,0,0:0:0:0:
304,176,85367,1,0,0:0:0:0:
204,99,85534,1,0,0:0:0:0:
480,128,85701,1,0,0:0:0:0:
0,149,86033,6,0,L|214:97,1,210
408,224,86700,2,0,L|376:112,1,105
512,176,87033,2,0,L|392:112,1,105
144,232,87367,2,0,P|200:188|168:127,1,105
505,52,87700,2,0,L|301:102,1,210
52,64,88367,6,0,B|-16:128|-16:128|72:208,1,210
360,72,88867,1,0,0:0:0:0:
440,136,89033,1,0,0:0:0:0:
392,224,89200,1,0,0:0:0:0:
72,248,89367,1,0,0:0:0:0:
168,320,89533,1,0,0:0:0:0:
400,192,89700,1,0,0:0:0:0:
0,192,90033,6,0,P|96:192|144:176,1,105
264,192,90367,2,0,L|248:48,1,105
512,160,90700,2,0,L|404:136,1,105
264,136,91033,1,0,0:0:0:0:
128,152,91200,1,0,0:0:0:0:
264,232,91367,1,0,0:0:0:0:
412,228,91533,1,0,0:0:0:0:
264,192,91700,2,0,L|376:104,1,105
200,136,92033,2,0,L|120:64,1,105
408,136,92367,2,0,L|520:136,1,105
323,114,92700,6,0,L|109:62,1,210
448,189,93200,2,0,L|234:137,1,210
496,96,93700,2,0,B|400:144|400:144|504:192,1,210
248,232,94200,2,0,L|124:172,1,105
352,144,94533,2,0,L|457:149,1,105
108,130,94867,2,0,L|-1:114,1,105
258,130,95200,1,0,0:0:0:0:
112,280,95367,6,0,P|184:229|163:193,1,105
512,186,95700,2,0,L|298:134,1,210
512,224,96367,1,0,0:0:0:0:
246,197,96700,2,0,L|32:145,1,210
176,88,97200,1,0,0:0:0:0:
472,160,97367,2,0,L|344:160,1,105
80,144,97700,1,0,0:0:0:0:
472,192,98033,1,0,0:0:0:0:
80,192,98367,1,0,0:0:0:0:
504,16,98700,6,0,L|299:65,1,210
184,144,99200,1,0,0:0:0:0:
304,184,99367,1,0,0:0:0:0:
184,232,99533,1,0,0:0:0:0:
304,280,99700,2,0,L|74:306,1,210
352,248,100367,1,0,0:0:0:0:
448,144,100533,1,0,0:0:0:0:
223,190,100700,2,0,L|9:138,1,210
416,232,101200,2,0,L|226:100,1,210
512,267,101700,6,0,L|496:128,1,105
264,160,102033,1,0,0:0:0:0:
0,201,102200,2,0,L|96:128,1,105
323,114,102533,2,0,L|207:67,1,105
512,162,102867,2,0,L|392:160,1,105
512,72,103200,1,0,0:0:0:0:
264,48,103367,1,0,0:0:0:0:
384,16,103533,1,0,0:0:0:0:
80,256,103700,2,0,P|10:209|120:32,1,315
364,62,104367,2,0,L|256:112,1,105
480,192,104700,5,0,0:0:0:0:
176,336,104867,1,0,0:0:0:0:
48,320,105033,1,0,0:0:0:0:
112,192,105200,1,0,0:0:0:0:
352,128,105366,1,0,0:0:0:0:
200,120,105533,1,0,0:0:0:0:
488,232,105700,1,0,0:0:0:0:
8,344,106033,6,0,B|160:272,1,157.5
8,232,106367,6,0,B|152:120,1,157.5
288,88,106700,2,0,B|471:54|471:54|212:34,1,420
512,232,107700,1,0,0:0:0:0:
200,208,108033,2,0,L|414:156,1,210
0,149,108700,2,0,L|184:32,1,210
448,104,109200,5,0,0:0:0:0:
488,192,109367,1,0,0:0:0:0:
256,224,109533,1,0,0:0:0:0:
408,152,109700,1,0,0:0:0:0:
176,112,109867,6,0,L|75:143,1,105
408,120,110200,2,0,L|360:8,1,105
496,88,110533,1,0,0:0:0:0:
256,128,110700,2,0,L|176:48,1,105
440,152,111033,2,0,P|368:200|264:176,1,157.5
136,144,111367,2,0,L|200:-8,1,157.5
0,149,111700,2,0,L|214:97,1,210
512,149,112367,2,0,L|392:80,1,105
192,96,112700,2,0,B|45:21|45:21|-43:157|-43:157|184:160,1,525
472,144,113700,6,0,L|248:83,1,210
472,200,114367,1,0,0:0:0:0:
48,232,114700,1,0,0:0:0:0:
192,224,114867,1,0,0:0:0:0:
48,168,115033,1,0,0:0:0:0:
192,112,115200,1,0,0:0:0:0:
432,160,115367,2,0,B|504:136|504:136|424:96,1,157.5
232,64,115700,1,0,0:0:0:0:
256,192,115950,12,0,117658,0:0:0:0:
144,120,124700,6,0,L|368:64,1,210
0,160,125200,6,0,L|184:56,1,210
296,32,125700,1,0,0:0:0:0:
408,72,125866,1,0,0:0:0:0:
192,256,126033,6,0,L|64:256,1,105
320,192,126367,1,0,0:0:0:0:
192,176,126533,1,0,0:0:0:0:
416,32,126700,2,0,L|392:176,1,131.25
98,230,127033,2,0,L|160:104,1,131.25
448,32,127367,2,0,P|444:120|344:184,1,210
48,224,128033,5,0,0:0:0:0:
136,144,128200,1,0,0:0:0:0:
360,136,128367,1,0,0:0:0:0:
440,48,128533,1,0,0:0:0:0:
184,64,128700,1,0,0:0:0:0:
104,120,128867,5,0,0:0:0:0:
128,208,129033,1,0,0:0:0:0:
376,112,129200,1,0,0:0:0:0:
288,168,129367,1,0,0:0:0:0:
216,96,129533,1,0,0:0:0:0:
512,192,129700,1,0,0:0:0:0:
24,192,130033,6,0,L|80:80,1,105
304,40,130367,2,0,L|368:176,1,105
160,320,130700,2,0,B|288:312|312:216|312:216|184:160|64:224,1,420
392,208,131700,1,0,0:0:0:0:
98,230,132033,2,0,L|160:120,1,105
414,230,132367,2,0,P|432:136|344:64,1,210
208,128,132866,5,0,0:0:0:0:
88,24,133033,1,0,0:0:0:0:
208,56,133200,1,0,0:0:0:0:
448,248,133366,1,0,0:0:0:0:
256,352,133533,1,0,0:0:0:0:
376,248,133700,1,0,0:0:0:0:
280,120,133867,1,0,0:0:0:0:
136,184,134033,1,0,0:0:0:0:
440,192,134200,2,0,L|320:192,1,105
136,144,134533,1,0,0:0:0:0:
376,72,134700,6,0,L|399:175,1,105
112,320,135033,2,0,L|166:210,1,105
320,64,135367,2,0,L|352:168,1,105
88,192,135700,2,0,P|16:88|104:56,1,210
424,112,136367,2,0,B|200:120,1,210
456,240,136867,5,0,0:0:0:0:
344,128,137033,1,0,0:0:0:0:
248,256,137200,1,0,0:0:0:0:
496,288,137367,1,0,0:0:0:0:
256,168,137533,1,0,0:0:0:0:
0,256,137700,1,0,0:0:0:0:
272,208,138033,6,0,L|224:96,1,105
512,192,138367,2,0,L|466:287,1,105
176,80,138700,2,0,B|144:288|144:288|432:320|432:320|448:40|328:-16,1,840
88,160,140367,1,0,0:0:0:0:
296,160,140533,1,0,0:0:0:0:
88,80,140700,1,0,0:0:0:0:
296,80,140867,1,0,0:0:0:0:
432,224,141033,1,0,0:0:0:0:
240,296,141199,1,0,0:0:0:0:
120,288,141366,1,0,0:0:0:0:
240,216,141533,1,0,0:0:0:0:
512,152,141699,1,0,0:0:0:0:
480,32,141866,1,0,0:0:0:0:
0,128,142033,2,0,L|144:128,1,105
272,64,142367,2,0,L|168:88,1,105
432,176,142700,2,0,L|224:72,1,210
480,128,143367,1,0,0:0:0:0:
192,176,143700,2,0,B|-16:64|112:80|144:80,3,210
288,96,144867,1,0,0:0:0:0:
448,128,145033,1,0,0:0:0:0:
96,256,145200,1,0,0:0:0:0:
0,192,145367,1,0,0:0:0:0:
96,128,145533,1,0,0:0:0:0:
456,120,145700,1,0,0:0:0:0:
64,208,146033,1,0,0:0:0:0:
344,64,146367,1,0,0:0:0:0:
480,272,146700,5,0,0:0:0:0:
320,256,146867,1,0,0:0:0:0:
160,224,147033,1,0,0:0:0:0:
320,192,147199,1,0,0:0:0:0:
480,160,147366,1,0,0:0:0:0:
320,128,147533,1,0,0:0:0:0:
64,112,147700,1,0,0:0:0:0:
424,192,148033,2,0,P|470:159|408:104,1,157.5
208,184,148367,2,0,P|161:151|216:32,1,210
360,40,148867,1,0,0:0:0:0:
496,96,149034,1,0,0:0:0:0:
280,192,149201,1,0,0:0:0:0:
176,128,149367,1,0,0:0:0:0:
280,72,149533,1,0,0:0:0:0:
24,96,149701,1,0,0:0:0:0:
144,152,149867,1,0,0:0:0:0:
440,96,150034,1,0,0:0:0:0:
160,112,150366,6,0,L|272:112,1,105
32,176,150700,6,0,L|256:152,1,210
480,112,151367,6,0,L|360:16,1,105
168,88,151700,6,0,P|40:152|224:256,1,420
464,216,152700,1,0,0:0:0:0:
24,120,153033,1,0,0:0:0:0:
168,104,153200,1,0,0:0:0:0:
24,96,153367,1,0,0:0:0:0:
168,112,153533,1,0,0:0:0:0:
512,96,153700,6,0,L|288:72,1,210
160,88,154200,1,0,0:0:0:0:
64,200,154367,1,0,0:0:0:0:
328,184,154533,1,0,0:0:0:0:
0,176,154700,2,0,L|152:88,1,157.5
232,96,155033,2,0,L|328:232,1,157.5
480,192,155367,2,0,L|352:0,1,210
104,168,156033,5,0,0:0:0:0:
376,160,156367,1,0,0:0:0:0:
264,176,156533,1,0,0:0:0:0:
424,160,156700,1,0,0:0:0:0:
264,176,156867,1,0,0:0:0:0:
424,160,157034,1,0,0:0:0:0:
280,176,157200,5,0,0:0:0:0:
440,176,157367,1,0,0:0:0:0:
280,176,157534,1,0,0:0:0:0:
128,144,157700,1,0,0:0:0:0:
280,176,157867,1,0,0:0:0:0:
144,280,158033,2,0,P|104:200|152:168,1,157.5
240,208,158367,2,0,P|287:153|241:96,1,157.5
336,152,158700,6,0,B|264:320|264:320|416:312|416:312|344:264,1,420
184,216,159533,1,0,0:0:0:0:
32,176,159700,6,0,P|142:165|168:72,1,210
480,128,160367,1,0,0:0:0:0:
192,208,160700,2,0,L|168:48,1,157.5
256,48,161033,2,0,L|264:208,1,157.5
352,224,161367,2,0,L|359:66,1,157.5
64,176,161700,6,0,L|288:152,1,210
432,176,162200,1,0,0:0:0:0:
280,136,162367,1,0,0:0:0:0:
400,32,162533,1,0,0:0:0:0:
208,96,162700,2,0,P|168:160|232:216,1,157.5
312,184,163033,2,0,P|408:184|448:240,1,157.5
328,272,163367,2,0,L|264:120,1,157.5
176,152,163700,2,0,P|144:48|176:24,1,157.5
336,80,164033,6,0,P|360:168|296:232,1,157.5
257,259,164367,1,0,0:0:0:0:
136,240,164450,1,0,0:0:0:0:
0,208,164533,1,0,0:0:0:0:
64,144,164617,1,0,0:0:0:0:
208,88,164700,6,0,P|136:112|160:224,1,210
296,224,165200,1,0,0:0:0:0:
456,208,165367,1,0,0:0:0:0:
328,112,165533,1,0,0:0:0:0:
184,112,165700,1,0,0:0:0:0:
328,112,165867,1,0,0:0:0:0:
464,168,166033,1,0,0:0:0:0:
184,176,166200,1,0,0:0:0:0:
464,112,166367,1,0,0:0:0:0:
32,176,166700,6,0,L|256:152,1,210
432,200,167367,1,0,0:0:0:0:
152,248,167700,1,0,0:0:0:0:
456,192,168033,1,0,0:0:0:0:
192,240,168367,1,0,0:0:0:0:
480,176,168700,6,0,P|352:80|264:88,1,210
136,96,169200,2,0,P|208:96|216:168,1,157.5
288,208,169533,1,0,0:0:0:0:
360,256,169617,1,0,0:0:0:0:
128,296,169700,2,0,L|248:144,1,157.5
512,280,170033,1,0,0:0:0:0:
200,248,170367,1,0,0:0:0:0:
464,40,170700,6,0,L|288:64,1,157.5
200,112,171033,6,0,L|320:224,1,157.5
408,152,171367,6,0,L|232:160,1,157.5
152,176,171700,6,0,L|247:294,1,105
368,168,172033,2,0,L|488:104,1,105
320,240,172367,2,0,L|192:240,1,105
56,176,172700,6,0,B|144:48|144:48|488:56|488:56|376:192,1,630
344,240,173867,1,0,0:0:0:0:
72,208,174033,1,0,0:0:0:0:
0,336,174200,1,0,0:0:0:0:
256,320,174367,1,0,0:0:0:0:
344,192,174533,1,0,0:0:0:0:
0,184,174700,6,0,L|224:160,1,210
480,176,175367,6,0,L|320:128,1,157.5
128,160,175700,6,0,B|0:192|0:192|320:192,1,420
512,128,176700,6,0,L|288:32,1,210
0,104,177200,6,0,L|224:80,1,210
0,176,177700,6,0,L|48:56,1,105
312,24,178033,6,0,L|240:152,1,105
496,233,178367,6,0,L|432:96,1,105
176,328,178700,6,0,L|280:216,1,105
312,184,179033,1,0,0:0:0:0:
224,152,179200,1,0,0:0:0:0:
136,128,179367,1,0,0:0:0:0:
216,72,179533,1,0,0:0:0:0:
496,73,179700,6,0,L|288:96,1,210
112,112,180200,1,0,0:0:0:0:
208,192,180367,1,0,0:0:0:0:
312,128,180533,1,0,0:0:0:0:
0,176,180700,6,0,L|224:152,1,210
256,192,181367,12,0,182700,0:0:0:0:
176,64,183033,5,0,0:0:0:0:
80,64,183199,1,0,0:0:0:0:
16,144,183366,1,0,0:0:0:0:
328,88,183533,1,0,0:0:0:0:
240,128,183700,1,0,0:0:0:0:
487,225,183866,1,0,0:0:0:0:
436,308,184033,1,0,0:0:0:0:
160,272,184200,1,0,0:0:0:0:
96,208,184367,5,0,0:0:0:0:
336,136,184533,1,0,0:0:0:0:
96,128,184700,1,0,0:0:0:0:
224,128,184867,1,0,0:0:0:0:
480,192,185033,1,0,0:0:0:0:
384,304,185200,1,0,0:0:0:0:
160,320,185367,1,0,0:0:0:0:
256,208,185533,1,0,0:0:0:0:
0,256,185700,1,0,0:0:0:0:
288,248,186033,6,0,L|112:240,1,157.5
8,112,186367,6,0,L|120:64,1,105
344,72,186700,6,0,L|456:72,1,105
304,240,187033,2,0,L|168:134,1,157.5
48,72,187367,6,0,L|224:80,1,157.5
352,120,187700,6,0,B|224:32|224:32|80:56|80:56|56:184,1,420
512,152,188700,6,0,L|303:174,1,210
448,128,189200,1,0,0:0:0:0:
304,128,189367,1,0,0:0:0:0:
448,64,189534,1,0,0:0:0:0:
96,112,189700,2,0,L|0:176,1,105
240,176,190033,1,0,0:0:0:0:
480,192,190367,1,0,0:0:0:0:
32,176,190700,6,0,L|216:56,1,210
480,176,191367,6,0,L|336:152,1,105
144,144,191700,6,0,L|368:120,1,210
8,112,192367,6,0,L|160:80,1,105
288,112,192700,6,0,L|384:184,1,105
104,280,193033,6,0,L|-16:232,1,105
308,167,193367,6,0,L|416:168,1,105
192,200,193700,6,0,L|343:105,1,157.5
448,80,194033,6,0,L|239:102,1,210
0,136,194700,2,0,L|258:116,2,210
176,96,195533,1,0,0:0:0:0:
368,64,195700,2,0,B|543:51|543:51|468:144|408:181|326:155,1,420
112,192,196700,6,0,B|0:192|0:192|112:192,1,210
240,120,197200,1,0,0:0:0:0:
400,120,197367,1,0,0:0:0:0:
240,64,197533,1,0,0:0:0:0:
512,80,197700,1,0,0:0:0:0:
112,320,198033,2,0,L|232:192,1,157.5
352,192,198367,2,0,L|256:64,1,157.5
128,136,198700,2,0,B|32:104|32:104|104:200,1,210
280,64,199200,5,0,0:0:0:0:
376,144,199367,1,0,0:0:0:0:
280,208,199533,1,0,0:0:0:0:
512,240,199700,1,0,0:0:0:0:
272,320,200033,2,0,P|182:255|240:192,1,210
384,176,200533,1,0,0:0:0:0:
224,160,200700,2,0,L|400:40,1,210
0,176,201200,6,0,L|176:56,1,210
512,176,201700,2,0,L|336:56,1,210
192,56,202200,2,0,L|296:56,1,105
72,304,202533,2,0,L|0:200,1,105
496,48,203033,2,0,L|480:224,1,157.5
288,24,203367,2,0,L|320:216,1,157.5
112,72,203700,2,0,P|-32:160|112:288,1,420
512,176,204700,6,0,L|376:184,1,105
512,232,205033,1,0,0:0:0:0:
285,222,205200,1,0,0:0:0:0:
128,160,205367,1,0,0:0:0:0:
280,60,205533,1,0,0:0:0:0:
512,136,205700,1,0,0:0:0:0:
192,48,206033,2,0,L|64:256,1,210
296,48,206700,6,0,L|536:48,1,210
208,32,207367,2,0,L|24:176,1,210
461,234,208033,2,0,L|304:208,1,157.5
467,82,208367,2,0,L|307:162,1,157.5
160,64,208700,2,0,L|64:272,1,210
416,224,209200,1,0,0:0:0:0:
438,176,209283,1,0,0:0:0:0:
433,124,209366,1,0,0:0:0:0:
403,82,209450,1,0,0:0:0:0:
356,60,209533,1,0,0:0:0:0:
304,64,209616,1,0,0:0:0:0:
144,96,209700,2,0,L|208:272,1,157.5
368,128,210033,2,0,L|304:240,1,105
144,288,210283,2,0,P|48:248|128:176,1,210
232,80,210700,2,0,B|224:224,1,105
80,192,211033,2,0,L|192:192,1,105
456,264,211367,5,0,0:0:0:0:
112,272,211700,1,0,0:0:0:0:
304,72,212033,2,0,P|209:71|152:136,1,157.5
248,208,212367,2,0,L|272:40,1,157.5
120,0,212700,2,0,B|88:56|88:56|112:154|112:154|224:264|224:264|416:216|400:48,1,630
120,32,214033,2,0,L|-16:200,1,210
408,224,214700,6,0,L|304:96,1,157.5
136,32,215033,2,0,L|224:176,1,157.5
72,240,215367,2,0,L|208:240,1,105
416,208,215700,2,0,B|208:176|208:176,1,210
360,168,216200,1,0,0:0:0:0:
208,176,216367,1,0,0:0:0:0:
80,96,216533,1,0,0:0:0:0:
512,96,216700,1,0,0:0:0:0:
176,168,217033,1,0,0:0:0:0:
0,248,217200,2,0,L|72:48,1,210
240,192,217700,6,0,P|232:88|328:32,1,210
512,80,218200,2,0,P|537:131|352:288,1,315
216,296,218867,1,0,0:0:0:0:
72,248,219033,1,0,0:0:0:0:
216,248,219200,1,0,0:0:0:0:
448,64,219367,1,0,0:0:0:0:
288,128,219533,1,0,0:0:0:0:
448,184,219700,5,0,0:0:0:0:
216,184,219867,1,0,0:0:0:0:
56,120,220033,1,0,0:0:0:0:
216,48,220200,1,0,0:0:0:0:
320,48,220367,1,0,0:0:0:0:
416,48,220533,1,0,0:0:0:0:
0,256,220700,1,0,0:0:0:0:
144,192,221367,5,0,0:0:0:0:
64,56,221533,1,0,0:0:0:0:
472,176,221700,2,0,L|384:96,1,105
272,32,222033,2,0,L|226:126,1,105
96,64,222367,2,0,L|112:176,1,105
224,296,222700,2,0,L|272:192,1,105
412,220,223033,5,0,0:0:0:0:
464,168,223200,1,0,0:0:0:0:
472,96,223367,1,0,0:0:0:0:
432,40,223533,1,0,0:0:0:0:
376,8,223700,1,0,0:0:0:0:
104,152,223867,5,0,0:0:0:0:
48,112,224034,1,0,0:0:0:0:
48,48,224201,1,0,0:0:0:0:
96,8,224367,1,0,0:0:0:0:
496,136,224533,1,0,0:0:0:0:
248,216,224700,5,0,0:0:0:0:
88,200,225700,2,0,P|32:168|120:88,1,210
256,80,226367,1,0,0:0:0:0:
424,88,226700,2,0,P|496:160|416:224,1,210
232,144,227200,2,0,P|216:256|312:272,1,210
96,240,227700,2,0,P|8:144|80:72,1,210
224,80,228200,2,0,P|344:88|360:104,1,105
496,184,228533,1,0,0:0:0:0:
320,248,228700,2,0,L|112:144,1,210
136,160,229033,2,0,B|152:80|152:80|296:80,1,210
280,88,229367,2,0,B|272:168|272:168|416:176,1,210
401,175,229700,2,0,B|544:240|544:240|312:64,1,420
104,224,230700,2,0,P|6:152|40:48,1,210
152,24,231200,2,0,P|176:96|128:240,1,210
360,24,231700,2,0,P|432:120|384:240,1,210
152,24,232200,2,0,P|80:120|128:240,1,210
432,216,232700,1,0,0:0:0:0:
176,192,234700,6,0,P|120:120|208:80,1,210
352,96,235200,1,0,0:0:0:0:
208,144,235367,1,0,0:0:0:0:
80,240,235533,1,0,0:0:0:0:
240,224,235700,1,0,0:0:0:0:
112,304,235867,1,0,0:0:0:0:
432,256,236033,5,0,0:0:0:0:
272,200,236200,1,0,0:0:0:0:
432,288,236367,1,0,0:0:0:0:
80,256,236533,1,0,0:0:0:0:
208,160,236700,1,0,0:0:0:0:
80,64,236867,1,0,0:0:0:0:
240,80,237033,5,0,0:0:0:0:
352,192,237200,1,0,0:0:0:0:
240,304,237367,1,0,0:0:0:0:
480,272,237533,1,0,0:0:0:0:
112,168,237700,2,0,L|168:56,1,105
352,152,238033,2,0,L|344:32,1,105
120,160,238367,2,0,L|0:160,1,105
272,272,238700,5,0,0:0:0:0:
424,208,238867,1,0,0:0:0:0:
312,112,239033,1,0,0:0:0:0:
176,192,239200,1,0,0:0:0:0:
48,176,239367,1,0,0:0:0:0:
192,112,239534,5,0,0:0:0:0:
368,304,239700,1,0,0:0:0:0:
8,240,239867,1,0,0:0:0:0:
192,168,240033,1,0,0:0:0:0:
488,144,240200,1,0,0:0:0:0:
392,188,240367,1,0,0:0:0:0:
72,256,240534,1,0,0:0:0:0:
224,256,240700,2,0,B|317:137|317:137|128:80|128:80|-48:112|-24:208|56:288,1,630
240,152,242033,6,0,L|193:58,1,105
472,16,242367,2,0,L|440:120,1,105
128,96,242700,2,0,B|136:0|136:0|321:-2|321:-2|329:195|329:195|112:208,1,693.000021148682
240,224,243867,1,0,0:0:0:0:
368,208,244033,1,0,0:0:0:0:
480,144,244200,1,0,0:0:0:0:
176,152,244367,1,0,0:0:0:0:
64,80,244533,1,0,0:0:0:0:
296,29,244700,6,0,B|336:16|336:16|400:112,1,157.5
239,37,245033,2,0,B|176:16|112:112,1,157.5
328,208,245367,2,0,B|232:72,1,157.5
0,216,245700,2,0,B|63:121|126:142,1,157.5
354,237,246033,2,0,B|424:96,1,157.5
160,40,246367,2,0,B|192:200,1,157.5
400,112,246700,2,0,B|288:128,1,105
216,264,247034,5,0,0:0:0:0:
144,240,247200,1,0,0:0:0:0:
424,184,247367,1,0,0:0:0:0:
456,112,247534,1,0,0:0:0:0:
160,192,247700,1,0,0:0:0:0:
112,136,247867,1,0,0:0:0:0:
432,64,248033,5,0,0:0:0:0:
384,0,248200,1,0,0:0:0:0:
32,112,248366,1,0,0:0:0:0:
168,160,248533,1,0,0:0:0:0:
32,160,248699,1,0,0:0:0:0:
256,264,248866,1,0,0:0:0:0:
392,216,249033,1,0,0:0:0:0:
256,192,249200,5,0,0:0:0:0:
392,80,249367,1,0,0:0:0:0:
256,80,249533,1,0,0:0:0:0:
512,80,249700,1,0,0:0:0:0:
96,192,250033,1,0,0:0:0:0:
0,144,250200,1,0,0:0:0:0:
224,168,250367,1,0,0:0:0:0:
336,128,250533,1,0,0:0:0:0:
96,104,250700,1,0,0:0:0:0:
274,196,252700,6,0,L|208:45,1,157.5
64,104,253033,6,0,P|48:208|80:232,1,157.5
344,280,253367,6,0,B|264:208|264:208|216:224,1,157.5
416,192,253700,6,0,P|408:88|320:40,1,210
104,272,254367,6,0,L|232:168,1,157.5
368,240,254700,6,0,L|248:240,1,105
512,128,255033,1,0,0:0:0:0:
416,192,255200,1,0,0:0:0:0:
176,192,255366,1,0,0:0:0:0:
272,128,255533,1,0,0:0:0:0:
0,196,255700,1,0,0:0:0:0:
288,176,256033,6,0,L|208:56,1,105
90,206,256367,2,0,L|112:104,1,105
250,177,256700,2,0,L|272:280,1,105
384,296,257033,1,0,0:0:0:0:
456,248,257200,1,0,0:0:0:0:
488,168,257367,1,0,0:0:0:0:
440,96,257533,1,0,0:0:0:0:
136,184,257700,2,0,B|48:128|48:128|168:88,1,210
512,112,258367,6,0,L|368:128,1,105
56,152,258700,2,0,P|152:100|272:76,1,210
0,240,259200,2,0,P|96:188|216:164,1,210
384,224,259700,2,0,L|266:84,1,157.5
274,105,260033,2,0,L|490:29,1,210
472,35,260367,2,0,L|248:32,1,210
262,32,260700,2,0,L|472:35,1,210
472,35,261033,6,0,L|262:32,1,210
262,32,261367,2,0,L|52:28,1,210
52,28,261700,2,0,P|120:120|48:176,1,210
66,173,262033,2,0,L|276:177,1,210
275,176,262367,2,0,L|72:288,1,210
91,277,262700,2,0,L|301:281,1,210
300,280,263033,6,0,L|496:176,1,210
485,181,263367,2,0,L|352:184,2,105
488,96,263700,2,0,P|373:123|288:72,1,210
48,96,264367,1,0,0:0:0:0:
472,232,264700,2,0,B|448:24|448:24|152:48|152:48|64:224|64:224|344:208|344:208,1,945
480,200,266367,1,0,0:0:0:0:
352,72,266533,1,0,0:0:0:0:
88,176,266700,2,0,L|320:176,1,210
152,120,267200,2,0,L|40:16,2,105
320,88,267700,6,0,P|399:128|376:192,1,157.5
232,248,268033,6,0,P|232:176|304:128,1,157.5
368,160,268367,6,0,P|368:88|296:40,1,157.5
184,184,268700,6,0,P|128:104|232:104,1,210
496,192,269367,2,0,B|456:192|456:192|376:192,2,105
240,160,270033,1,0,0:0:0:0:
496,160,270367,1,0,0:0:0:0:
176,64,270700,1,0,0:0:0:0:
72,128,270867,1,0,0:0:0:0:
144,208,271034,1,0,0:0:0:0:
416,224,271201,5,0,0:0:0:0:
488,296,271367,1,0,0:0:0:0:
384,320,271534,1,0,0:0:0:0:
16,208,271701,1,0,0:0:0:0:
328,192,272033,2,0,L|496:56,1,210
184,224,272700,2,0,B|104:328|104:328|416:256|416:256|305:150|305:150|170:218|170:218|88:102|88:102|480:136,1,1260
160,200,275201,5,0,0:0:0:0:
48,144,275367,1,0,0:0:0:0:
152,56,275534,1,0,0:0:0:0:
376,40,275701,1,0,0:0:0:0:
472,16,275867,1,0,0:0:0:0:
224,208,276033,2,0,B|112:272|112:272|24:216,1,210
256,200,276700,2,0,L|392:200,1,105
104,112,277033,1,0,0:0:0:0:
32,184,277200,1,0,0:0:0:0:
432,256,277367,6,0,B|336:240|304:208,1,105
440,224,277700,1,0,0:0:0:0:
336,192,277867,1,0,0:0:0:0:
0,160,278033,1,0,0:0:0:0:
392,248,278367,1,0,0:0:0:0:
120,272,278700,2,0,B|24:224|24:224|144:176|144:176,1,210
320,96,279200,2,0,P|240:208|256:296,1,210
512,224,279700,1,0,0:0:0:0:
168,272,280033,2,0,B|312:272|368:208|368:208|390:116|390:116|248:24|248:24|96:104|96:104|88:184|88:184|208:224,1,840
432,232,281700,2,0,L|192:152,1,210
352,176,282200,1,0,0:0:0:0:
480,176,282367,1,0,0:0:0:0:
176,192,282533,1,0,0:0:0:0:
416,128,282700,5,0,0:0:0:0:
304,192,282866,1,0,0:0:0:0:
416,240,283033,1,0,0:0:0:0:
176,128,283200,1,0,0:0:0:0:
80,96,283366,1,0,0:0:0:0:
176,32,283533,1,0,0:0:0:0:
416,160,283700,5,0,0:0:0:0:
336,128,283866,1,0,0:0:0:0:
416,80,284033,1,0,0:0:0:0:
160,288,284200,1,0,0:0:0:0:
96,208,284283,1,0,0:0:0:0:
32,128,284366,1,0,0:0:0:0:
240,192,284450,1,0,0:0:0:0:
208,112,284533,1,0,0:0:0:0:
432,176,284700,2,0,L|368:80,1,105
96,168,285033,6,0,L|136:64,1,105
256,184,285367,2,0,P|225:137|216:80,1,105
448,264,285700,2,0,B|496:200|448:136|448:136|376:176|376:176|520:192|520:192|424:192|424:192,1,420
384,168,286033,1,0,0:0:0:0:
16,176,286700,2,0,B|176:32|176:32|40:32|40:32,1,315
176,40,287033,1,0,0:0:0:0:
376,136,287367,1,0,0:0:0:0:
472,240,287533,1,0,0:0:0:0:
216,248,287700,1,0,0:0:0:0:
504,111,288033,2,0,P|489:161|451:198,1,105
216,88,288366,2,0,L|104:88,1,105
336,24,288700,2,0,P|480:112|323:148,1,420
160,176,289700,5,0,0:0:0:0:
0,168,290033,1,0,0:0:0:0:
424,248,290367,1,0,0:0:0:0:
152,120,290700,1,0,0:0:0:0:
16,120,290867,1,0,0:0:0:0:
288,160,291033,1,0,0:0:0:0:
152,176,291199,1,0,0:0:0:0:
288,184,291366,1,0,0:0:0:0:
512,176,291533,5,0,0:0:0:0:
400,272,291699,1,0,0:0:0:0:
168,200,291866,1,0,0:0:0:0:
400,176,292033,2,0,L|424:72,1,105
184,64,292367,2,0,L|232:192,1,105
80,232,292700,2,0,L|168:136,1,105
304,120,293033,2,0,L|152:104,1,105
40,88,293367,2,0,L|107:170,1,105
264,176,293700,6,0,B|312:48|312:48|-16:48|-16:48|192:88,1,630
296,80,294866,1,0,0:0:0:0:
392,192,295033,1,0,0:0:0:0:
96,168,295200,1,0,0:0:0:0:
448,200,295367,1,0,0:0:0:0:
512,248,295533,1,0,0:0:0:0:
152,248,295700,1,0,0:0:0:0:
380,24,296033,6,0,L|260:136,1,157.5
152,152,296367,2,0,L|191:305,1,157.5
96,40,296700,2,0,B|-56:80|96:160|96:160|-56:248|88:304,1,420
360,208,297700,2,0,B|256:208|256:208|96:293|96:293|198:206,1,420
72,176,298533,1,0,0:0:0:0:
200,160,298700,2,0,L|288:64,1,105
152,72,299033,1,0,0:0:0:0:
352,144,299200,6,0,B|438:71|438:71|318:101|310:77,1,210
208,120,299700,1,0,0:0:0:0:
80,160,299867,1,0,0:0:0:0:
176,256,300033,2,0,P|161:157|96:112,1,157.5
272,128,300367,2,0,P|279:177|208:256,1,157.5
360,240,300700,2,0,B|456:160|456:160|472:48|472:48|296:40|296:40|304:168|336:200,1,577.5
32,192,301700,2,0,B|12:130|32:24|32:24|216:80|216:80|216:144,1,420
432,88,302700,6,0,L|304:88,1,105
476,88,303033,1,0,0:0:0:0:
327,88,303200,1,0,0:0:0:0:
52,152,303367,1,0,0:0:0:0:
208,152,303533,1,0,0:0:0:0:
456,156,303700,1,0,0:0:0:0:
208,88,304033,6,0,L|72:16,1,105
352,144,304367,2,0,L|264:48,1,105
512,264,304700,2,0,B|544:144|544:144|264:280|264:280|424:128,1,630
32,216,306033,1,0,0:0:0:0:
256,72,306367,2,0,B|40:56|40:56|72:72|208:104|208:104|256:104|256:104,1,420
424,224,307200,2,0,L|304:200,1,105
424,152,307533,5,0,0:0:0:0:
240,160,307700,1,0,0:0:0:0:
104,160,307867,1,0,0:0:0:0:
240,176,308033,2,0,L|289:83,1,105
128,80,308367,2,0,L|88:184,1,105
320,176,308700,2,0,P|311:227|270:268,1,105
424,200,309033,6,0,B|504:104|416:16|416:16|280:48,1,315
464,128,309700,2,0,B|504:136|504:136|336:176|336:176|544:160,1,420
160,136,310700,1,0,0:0:0:0:
24,168,310867,1,0,0:0:0:0:
160,136,311033,1,0,0:0:0:0:
24,168,311200,5,0,0:0:0:0:
304,208,311367,1,0,0:0:0:0:
168,248,311534,1,0,0:0:0:0:
448,240,311700,1,0,0:0:0:0:
304,144,311867,2,0,L|352:248,1,105
464,216,312200,6,0,L|512:88,1,105
376,136,312533,2,0,B|64:24|64:24|208:112|208:112|432:32,1,735
32,232,314200,1,0,0:0:0:0:
200,144,314367,1,0,0:0:0:0:
32,168,314533,1,0,0:0:0:0:
205,198,314700,1,0,0:0:0:0:
360,184,314867,1,0,0:0:0:0:
205,198,315033,1,0,0:0:0:0:
96,80,315200,5,0,0:0:0:0:
48,48,315283,1,0,0:0:0:0:
24,16,315367,1,0,0:0:0:0:
512,104,315533,1,0,0:0:0:0:
384,176,315700,1,0,0:0:0:0:
112,192,315867,1,0,0:0:0:0:
216,272,316033,5,0,0:0:0:0:
480,256,316200,1,0,0:0:0:0:
248,32,316367,2,0,L|264:136,1,105
8,200,316700,6,0,L|56:72,1,105
324,116,317033,6,0,L|409:203,1,105
168,224,317366,6,0,P|160:144|240:112,1,157.5
400,112,317700,6,0,B|480:200|480:200|432:352|352:168|352:168|272:240,1,420
0,256,318700,2,0,B|200:256|200:256|272:48|272:48|152:48,1,525
200,248,319033,1,0,0:0:0:0:
272,48,319367,1,0,0:0:0:0:
8,104,319700,1,0,0:0:0:0:
512,176,320033,2,0,L|304:88,1,210
80,224,320700,6,0,L|48:96,1,105
208,128,321033,6,0,L|212:232,1,105
376,240,321367,6,0,L|352:112,1,105
72,168,321700,6,0,B|160:112|160:112|192:232|192:232|312:224|312:224|120:224,1,525
464,24,322700,6,0,L|363:53,1,105
216,104,323033,1,0,0:0:0:0:
364,104,323200,1,0,0:0:0:0:
128,184,323367,1,0,0:0:0:0:
8,264,323534,1,0,0:0:0:0:
376,216,323700,5,0,0:0:0:0:
256,216,323867,1,0,0:0:0:0:
480,240,324033,2,0,L|375:240,1,105
32,216,324367,1,0,0:0:0:0:
312,168,324700,6,0,B|414:175|414:175|286:183,1,210
40,176,325367,1,0,0:0:0:0:
392,216,325700,2,0,B|472:-8|472:-8|304:8|304:8|208:128,1,525
0,160,326700,1,0,0:0:0:0:
64,56,326867,1,0,0:0:0:0:
136,200,327033,1,0,0:0:0:0:
400,144,327200,5,0,0:0:0:0:
256,80,327367,1,0,0:0:0:0:
120,0,327533,1,0,0:0:0:0:
512,176,327700,1,0,0:0:0:0:
200,328,328033,2,0,B|308:263|308:263|291:192|291:192|208:136|208:136|170:176|240:216,1,367.5
424,184,328700,1,0,0:0:0:0:
152,208,329033,2,0,L|320:72,1,210
8,136,329700,1,0,0:0:0:0:
336,248,330366,5,0,0:0:0:0:
456,152,330533,1,0,0:0:0:0:
168,144,330700,1,0,0:0:0:0:
32,224,330866,1,0,0:0:0:0:
152,120,331033,1,0,0:0:0:0:
256,24,331200,1,0,0:0:0:0:
0,136,331367,1,0,0:0:0:0:
160,216,331533,1,0,0:0:0:0:
472,240,331700,5,0,0:0:0:0:
328,176,331867,1,0,0:0:0:0:
472,112,332033,1,0,0:0:0:0:
216,248,332200,1,0,0:0:0:0:
56,240,332367,1,0,0:0:0:0:
216,224,332533,1,0,0:0:0:0:
376,168,332700,2,0,P|341:54|256:16,1,210
265,367,333033,2,0,L|176:224,1,157.5
24,224,333367,2,0,L|144:128,1,105
368,96,333700,6,0,B|448:104|448:104|512:248|512:248|320:208|320:208|376:88,1,525
176,32,334700,1,0,0:0:0:0:
264,96,334866,1,0,0:0:0:0:
328,184,335033,1,0,0:0:0:0:
96,136,335200,1,0,0:0:0:0:
16,168,335367,1,0,0:0:0:0:
96,216,335533,1,0,0:0:0:0:
328,256,335700,1,0,0:0:0:0:
456,160,335867,1,0,0:0:0:0:
216,192,336033,2,0,B|40:152|40:152|120:168|120:168|208:192|208:192,1,315
512,200,336700,1,0,0:0:0:0:
320,152,337033,2,0,L|424:72,1,105
128,224,337367,1,0,0:0:0:0:
32,176,337533,1,0,0:0:0:0:
328,160,337700,1,0,0:0:0:0:
416,104,337867,1,0,0:0:0:0:
160,152,338033,1,0,0:0:0:0:
72,96,338200,1,0,0:0:0:0:
360,88,338367,1,0,0:0:0:0:
216,80,338533,1,0,0:0:0:0:
336,192,338700,5,0,0:0:0:0:
192,184,338867,1,0,0:0:0:0:
48,176,339033,1,0,0:0:0:0:
432,208,339200,1,0,0:0:0:0:
280,200,339367,1,0,0:0:0:0:
424,160,339534,1,0,0:0:0:0:
288,248,339700,1,0,0:0:0:0:
512,216,339867,1,0,0:0:0:0:
112,224,340033,6,0,L|128:56,1,157.5
272,96,340367,2,0,L|240:256,1,157.5
384,176,340700,6,0,B|512:320|512:320|512:120|520:120|520:264|520:264|344:264|336:264|336:256|336:256,1,630
8,280,342033,6,0,B|152:248|96:320|96:320|296:264|296:264|128:296|128:296|128:216|128:216|152:208,1,630
392,208,343200,1,0,0:0:0:0:
148,209,343367,6,0,P|92:89|172:65,1,210
120,64,343700,2,0,L|256:64,1,105
472,168,344033,1,0,0:0:0:0:
64,176,344367,1,0,0:0:0:0:
256,208,344700,2,0,L|392:208,1,105
48,256,345033,1,0,0:0:0:0:
192,184,345200,1,0,0:0:0:0:
328,96,345367,1,0,0:0:0:0:
464,168,345533,1,0,0:0:0:0:
184,120,345700,1,0,0:0:0:0:
256,192,346700,12,0,353700,0:0:0:0:
