osu file format v14

[General]
AudioFilename: audio.mp3
AudioLeadIn: 0
PreviewTime: -1
Countdown: 0
SampleSet: Soft
StackLeniency: 0.7
Mode: 0
LetterboxInBreaks: 0
WidescreenStoryboard: 0

[Editor]
DistanceSpacing: 1.2
BeatDivisor: 4
GridSize: 8
TimelineZoom: 1

[Metadata]
Title:kawazu ishi
TitleUnicode:蛙石
Artist:MAIKAZE
ArtistUnicode:舞風
Creator:IMkoley
Version:Coronita de Te
Source:東方風神録 ~ Mountain of Faith.
Tags:Touhou Asuka Sasa Renka TOKINE fuujinroku 東方project
BeatmapID:1485273
BeatmapSetID:701867

[Difficulty]
HPDrainRate:5
CircleSize:4
OverallDifficulty:9
ApproachRate:9.2
SliderMultiplier:1.7
SliderTickRate:1

[Events]
//Background and Video events
0,0,"webp_net_resizeimage.jpg",0,0
//Break Periods
2,41900,42630
2,48566,51130
//Storyboard Layer 0 (Background)
//Storyboard Layer 1 (Fail)
//Storyboard Layer 2 (Pass)
//Storyboard Layer 3 (Foreground)
//Storyboard Sound Samples

[TimingPoints]
2034,333.333333333333,4,2,0,100,1,0

[HitObjects]
176,176,2033,6,0,L|352:72,1,170
120,120,2700,1,0,0:0:0:0:
328,144,3033,1,0,0:0:0:0:
168,264,3367,1,0,0:0:0:0:
360,200,3700,2,0,P|408:160|368:64,1,170
416,208,4367,1,0,0:0:0:0:
216,224,4700,1,0,0:0:0:0:
136,160,4866,1,0,0:0:0:0:
160,64,5033,1,0,0:0:0:0:
136,160,5200,1,0,0:0:0:0:
112,256,5366,1,0,0:0:0:0:
208,232,5533,1,0,0:0:0:0:
296,184,5700,1,0,0:0:0:0:
432,32,6033,2,0,L|280:120,1,170
64,88,6701,1,0,0:0:0:0:
168,96,6867,1,0,0:0:0:0:
264,136,7034,1,0,0:0:0:0:
184,200,7201,1,0,0:0:0:0:
96,256,7367,1,0,0:0:0:0:
200,256,7533,1,0,0:0:0:0:
304,248,7700,2,0,L|248:88,1,170
104,232,8367,1,0,0:0:0:0:
208,248,8533,1,0,0:0:0:0:
408,192,8700,2,0,L|312:176,1,85
224,168,9033,1,0,0:0:0:0:
160,88,9200,1,0,0:0:0:0:
168,192,9367,1,0,0:0:0:0:
72,160,9533,1,0,0:0:0:0:
32,256,9700,2,0,L|128:248,1,85
216,280,10033,1,0,0:0:0:0:
312,312,10200,1,0,0:0:0:0:
392,240,10367,2,0,L|328:160,1,85
392,88,10700,2,0,L|272:80,1,85
224,24,11033,2,0,L|176:112,1,85
240,184,11367,1,0,0:0:0:0:
296,272,11534,1,0,0:0:0:0:
192,256,11700,2,0,L|80:216,1,85
168,144,12034,1,0,0:0:0:0:
256,96,12200,1,0,0:0:0:0:
248,200,12367,1,0,0:0:0:0:
448,232,12700,1,0,0:0:0:0:
448,232,12866,1,0,0:0:0:0:
448,232,13033,1,0,0:0:0:0:
448,232,13200,1,0,0:0:0:0:
448,232,13366,1,0,0:0:0:0:
448,232,13533,1,0,0:0:0:0:
424,128,13700,2,0,B|416:32|361:29|361:29|312:64,1,170
144,144,14367,1,0,0:0:0:0:
232,176,14700,1,0,0:0:0:0:
232,176,14866,1,0,0:0:0:0:
232,176,15033,1,0,0:0:0:0:
232,176,15200,1,0,0:0:0:0:
232,176,15366,1,0,0:0:0:0:
232,176,15533,1,0,0:0:0:0:
232,176,15700,1,0,0:0:0:0:
160,160,16700,2,0,L|264:112,1,85
280,32,17033,1,0,0:0:0:0:
264,136,17200,2,0,L|432:96,1,170
512,104,17700,1,0,0:0:0:0:
432,168,17867,2,0,L|320:192,1,85
256,136,18200,1,0,0:0:0:0:
352,96,18367,1,0,0:0:0:0:
248,112,18533,1,0,0:0:0:0:
144,120,18700,1,0,0:0:0:0:
328,24,19033,1,0,0:0:0:0:
128,168,19200,1,0,0:0:0:0:
128,168,19367,1,0,0:0:0:0:
128,168,19533,1,0,0:0:0:0:
232,152,19700,2,0,L|408:136,1,170
128,168,20700,1,0,0:0:0:0:
128,168,20866,1,0,0:0:0:0:
128,168,21033,1,0,0:0:0:0:
128,168,21200,1,0,0:0:0:0:
128,168,21367,1,0,0:0:0:0:
128,168,21533,1,0,0:0:0:0:
128,168,21700,1,0,0:0:0:0:
312,72,22033,2,0,L|400:64,1,85
424,160,22367,2,0,L|339:167,1,85
240,200,22700,2,0,B|288:248|392:224|392:224|440:256|448:328|352:368,1,340
200,352,23700,1,0,0:0:0:0:
376,248,24033,1,0,0:0:0:0:
200,256,24367,1,0,0:0:0:0:
272,200,24533,1,0,0:0:0:0:
168,88,24700,1,0,0:0:0:0:
192,152,24867,1,0,0:0:0:0:
160,72,25033,1,0,0:0:0:0:
184,144,25200,1,0,0:0:0:0:
160,64,25367,1,0,0:0:0:0:
176,120,25533,1,0,0:0:0:0:
176,120,25700,1,0,0:0:0:0:
176,120,25867,1,0,0:0:0:0:
176,120,26033,1,0,0:0:0:0:
288,128,26200,1,0,0:0:0:0:
392,112,26367,1,0,0:0:0:0:
304,160,26533,1,0,0:0:0:0:
400,192,26700,2,0,L|240:240,1,127.5
224,240,27117,2,0,L|216:80,1,127.5
168,24,27533,1,0,0:0:0:0:
72,64,27700,2,0,L|240:144,1,170
232,152,28033,2,0,L|408:136,1,170
400,136,28367,2,0,L|224:120,1,170
208,176,28866,1,0,0:0:0:0:
152,272,29033,1,0,0:0:0:0:
208,184,29200,1,0,0:0:0:0:
152,264,29366,1,0,0:0:0:0:
208,184,29533,1,0,0:0:0:0:
232,152,29700,2,0,L|408:136,1,170
24,216,30700,1,0,0:0:0:0:
88,200,30867,1,0,0:0:0:0:
208,176,31033,1,0,0:0:0:0:
256,168,31200,1,0,0:0:0:0:
256,168,31367,1,0,0:0:0:0:
352,200,31533,1,0,0:0:0:0:
280,152,31700,2,0,L|104:136,1,170
488,208,32700,1,0,0:0:0:0:
408,192,32867,1,0,0:0:0:0:
320,176,33033,1,0,0:0:0:0:
232,152,33200,2,0,L|432:120,1,170
312,72,33700,1,0,0:0:0:0:
272,144,33867,1,0,0:0:0:0:
336,272,34033,2,0,P|238:276|224:200,1,170
320,208,34533,1,0,0:0:0:0:
416,280,34700,2,0,P|464:192|424:128,1,170
368,96,35200,1,0,0:0:0:0:
288,56,35367,1,0,0:0:0:0:
360,96,35533,1,0,0:0:0:0:
352,200,35700,2,0,L|182:215,1,170
312,296,36367,2,0,L|488:280,1,170
224,184,37034,1,0,0:0:0:0:
224,184,37201,1,0,0:0:0:0:
224,184,37367,1,0,0:0:0:0:
224,184,37533,1,0,0:0:0:0:
232,152,37700,2,0,L|408:152,1,170
240,280,38367,1,0,0:0:0:0:
152,248,38534,1,0,0:0:0:0:
232,152,38700,2,0,L|408:136,1,170
401,247,39033,2,0,L|232:232,1,170
232,152,39367,2,0,L|408:136,1,170
392,104,39700,2,0,L|222:119,1,170
160,272,40200,1,0,0:0:0:0:
200,176,40367,1,0,0:0:0:0:
296,184,40533,1,0,0:0:0:0:
200,272,40700,2,0,L|384:280,1,170
288,168,41200,1,0,0:0:0:0:
216,224,41367,1,0,0:0:0:0:
272,168,41533,1,0,0:0:0:0:
224,216,41700,1,0,0:0:0:0:
296,168,43200,5,0,0:0:0:0:
400,168,43367,1,0,0:0:0:0:
296,168,43533,1,0,0:0:0:0:
376,232,43700,1,0,0:0:0:0:
240,280,44700,6,0,L|312:216,1,85
496,152,45033,6,0,L|424:88,1,85
344,40,45367,1,0,0:0:0:0:
376,136,45533,1,0,0:0:0:0:
296,192,45700,6,0,B|408:152|480:208|480:208|416:232|336:240,1,340
248,248,46533,1,0,0:0:0:0:
136,216,46700,2,0,L|64:48,1,170
69,59,47033,2,0,L|160:48,1,85
344,64,47367,2,0,L|253:101,1,85
144,184,47700,2,0,B|163:221|200:252|241:232|241:232|270:217|270:217|277:224|281:217|336:240|456:200,1,340
448,256,51700,6,0,B|408:216|408:216|400:200|391:180|391:180|368:176|352:160|352:160|328:144|304:144|304:144|264:104|264:104|232:80|176:96,1,340
144,200,52533,1,0,0:0:0:0:
389,251,52700,2,0,L|192:272,1,170
120,264,53200,1,0,0:0:0:0:
128,160,53367,1,0,0:0:0:0:
192,80,53533,1,0,0:0:0:0:
184,184,53700,1,0,0:0:0:0:
272,152,54533,1,0,0:0:0:0:
296,176,54700,2,0,L|416:160,1,85
464,104,55033,2,0,L|344:88,1,85
280,96,55367,1,0,0:0:0:0:
352,24,55533,1,0,0:0:0:0:
256,64,55700,2,0,L|112:144,1,127.5
120,168,56033,2,0,L|208:272,1,127.5
256,264,56367,2,0,L|344:160,1,127.5
392,176,56700,2,0,L|344:104,1,85
264,96,57033,1,0,0:0:0:0:
264,96,57200,1,0,0:0:0:0:
152,80,57367,1,0,0:0:0:0:
248,96,57533,1,0,0:0:0:0:
168,120,57700,2,0,L|72:200,1,85
184,240,58033,1,0,0:0:0:0:
288,232,58200,1,0,0:0:0:0:
288,232,58367,1,0,0:0:0:0:
288,232,58533,1,0,0:0:0:0:
360,152,58700,6,0,P|424:96|432:88,1,85
296,16,59033,6,0,L|359:71,1,85
352,176,59367,1,0,0:0:0:0:
248,168,59533,1,0,0:0:0:0:
160,112,59700,6,0,P|120:232|144:256,1,170
328,320,60367,6,0,L|216:176,1,170
312,184,60867,1,0,0:0:0:0:
408,192,61033,1,0,0:0:0:0:
312,176,61200,1,0,0:0:0:0:
400,192,61367,1,0,0:0:0:0:
400,192,61533,1,0,0:0:0:0:
376,96,61700,6,0,P|416:216|392:240,1,170
312,240,62200,1,0,0:0:0:0:
312,136,62367,1,0,0:0:0:0:
224,192,62533,1,0,0:0:0:0:
128,152,62700,2,0,L|296:40,1,170
264,56,63033,2,0,L|432:96,1,170
360,208,63533,1,0,0:0:0:0:
264,184,63700,2,0,L|328:112,1,85
224,104,64033,2,0,L|136:256,1,170
