osu file format v14

[General]
AudioFilename: audio.mp3
AudioLeadIn: 0
PreviewTime: -1
Countdown: 1
SampleSet: None
StackLeniency: 0.7
Mode: 0
LetterboxInBreaks: 0
WidescreenStoryboard: 0

[Editor]
DistanceSpacing: 0.7
BeatDivisor: 4
GridSize: 8
TimelineZoom: 1

[Metadata]
Title:Ember Soul
TitleUnicode:Ember Soul
Artist:MAIKAZE
ArtistUnicode:水色夏音
Creator:Shott
Version:Insane
Source:
Tags:MAIKAZE Visu Ember Soul
BeatmapID:1566981
BeatmapSetID:742982

[Difficulty]
HPDrainRate:6
CircleSize:4
OverallDifficulty:7
ApproachRate:8
SliderMultiplier:1.8
SliderTickRate:1

[Events]
//Background and Video events
0,0,"Konachan.com - 115943 black_hair blackball butterfly dress frederica_bernkastel purple_eyes ribbons silhouette tail umineko_no_naku_koro_ni.jpg",0,0
//Break Periods
//Storyboard Layer 0 (Background)
//Storyboard Layer 1 (Fail)
//Storyboard Layer 2 (Pass)
//Storyboard Layer 3 (Foreground)
//Storyboard Sound Samples

[TimingPoints]
8550,476.190476190476,4,1,0,100,1,0
134264,-100,4,1,0,100,0,1
164740,-100,4,1,0,100,0,0

[HitObjects]
256,192,7597,12,0,8549,0:0:0:0:
176,128,8907,5,0,0:0:0:0:
400,48,9264,1,0,0:0:0:0:
320,144,9502,1,0,0:0:0:0:
144,80,9859,1,0,0:0:0:0:
128,112,9978,1,0,0:0:0:0:
120,144,10097,1,0,0:0:0:0:
120,176,10216,1,0,0:0:0:0:
192,312,10454,5,0,0:0:0:0:
403,222,10811,2,0,P|435:166|435:86,1,135
285,116,11407,2,0,P|229:159|216:186,1,90
211,204,11764,1,0,0:0:0:0:
204,234,11883,1,0,0:0:0:0:
206,265,12002,1,0,0:0:0:0:
218,293,12121,1,0,0:0:0:0:
448,176,12359,6,0,L|344:288,1,135
184,104,13073,1,0,0:0:0:0:
304,144,13311,1,0,0:0:0:0:
104,288,13669,1,0,0:0:0:0:
176,192,14026,1,0,0:0:0:0:
176,192,14146,1,0,0:0:0:0:
176,192,14265,6,0,L|320:256,1,135
256,32,14978,1,0,0:0:0:0:
112,112,15216,5,0,0:0:0:0:
352,112,15454,1,0,0:0:0:0:
352,112,15573,1,0,0:0:0:0:
352,112,15692,1,0,0:0:0:0:
224,320,15930,1,0,0:0:0:0:
254,198,16169,6,0,P|261:257|198:334,1,135
112,112,16883,2,0,B|88:144|88:144|128:176|128:176|80:208|80:208|171:235|151:290,1,270
320,288,17835,1,0,0:0:0:0:
344,264,17954,1,0,0:0:0:0:
368,240,18073,2,0,L|464:144,1,135
256,32,18788,1,0,0:0:0:0:
256,224,19026,2,0,B|240:208|240:208|224:240|224:240|192:208|192:208|176:240|176:240|128:208|128:208|40:208,1,270
96,64,19978,5,0,0:0:0:0:
224,128,20216,1,0,0:0:0:0:
448,64,20454,1,0,0:0:0:0:
352,152,20692,1,0,0:0:0:0:
264,272,20930,1,0,0:0:0:0:
288,48,21288,1,0,0:0:0:0:
384,240,21645,1,0,0:0:0:0:
240,128,21883,6,0,P|288:144|304:192,1,90
304,177,22240,1,0,0:0:0:0:
304,177,22359,1,0,0:0:0:0:
160,208,22597,1,0,0:0:0:0:
96,80,22835,1,0,0:0:0:0:
176,320,23073,1,0,0:0:0:0:
208,304,23192,1,0,0:0:0:0:
232,280,23311,1,0,0:0:0:0:
248,256,23430,1,0,0:0:0:0:
256,224,23549,1,0,0:0:0:0:
408,96,23788,6,0,L|448:184,1,90
445,177,24145,1,0,0:0:0:0:
445,177,24264,1,0,0:0:0:0:
280,104,24502,1,0,0:0:0:0:
248,104,24621,1,0,0:0:0:0:
216,112,24740,2,0,P|168:144|152:184,1,90
328,224,25216,1,0,0:0:0:0:
152,288,25454,1,0,0:0:0:0:
176,304,25573,1,0,0:0:0:0:
200,320,25692,6,0,P|248:336|304:328,1,90
286,333,26049,1,0,0:0:0:0:
286,333,26169,1,0,0:0:0:0:
416,208,26407,1,0,0:0:0:0:
168,104,26645,2,0,L|118:178,1,90
432,48,27121,1,0,0:0:0:0:
304,144,27359,1,0,0:0:0:0:
408,336,27597,6,0,P|360:304|336:256,1,90
343,277,27954,1,0,0:0:0:0:
343,277,28073,1,0,0:0:0:0:
176,336,28311,1,0,0:0:0:0:
168,112,28549,2,0,L|232:208,1,90
384,32,29026,1,0,0:0:0:0:
160,32,29264,1,0,0:0:0:0:
136,48,29383,1,0,0:0:0:0:
112,72,29502,6,0,P|80:128|80:160,1,90
78,152,29859,1,0,0:0:0:0:
78,152,29978,1,0,0:0:0:0:
216,328,30216,1,0,0:0:0:0:
232,312,30335,1,0,0:0:0:0:
240,296,30454,1,0,0:0:0:0:
240,272,30573,1,0,0:0:0:0:
232,248,30692,1,0,0:0:0:0:
240,224,30811,1,0,0:0:0:0:
256,208,30930,1,0,0:0:0:0:
280,200,31049,1,0,0:0:0:0:
304,208,31169,1,0,0:0:0:0:
320,224,31288,1,0,0:0:0:0:
336,240,31407,6,0,B|408:264|344:104|480:168,1,180
216,112,32121,2,0,P|88:152|128:280,1,270
384,336,33073,1,0,0:0:0:0:
408,312,33192,1,0,0:0:0:0:
424,280,33311,6,0,P|424:224|384:184,1,90
405,197,33669,1,0,0:0:0:0:
405,197,33788,1,0,0:0:0:0:
272,320,34026,1,0,0:0:0:0:
240,56,34264,2,0,P|272:128|208:224,1,180
456,64,34978,1,0,0:0:0:0:
432,80,35097,1,0,0:0:0:0:
408,96,35216,6,0,L|320:152,1,90
332,144,35573,1,0,0:0:0:0:
332,144,35692,1,0,0:0:0:0:
176,312,35930,1,0,0:0:0:0:
200,296,36049,1,0,0:0:0:0:
224,280,36169,2,0,L|304:224,1,90
297,228,36526,1,0,0:0:0:0:
297,228,36645,1,0,0:0:0:0:
184,176,36883,1,0,0:0:0:0:
64,344,37121,6,0,P|96:296|144:272,1,90
122,279,37478,1,0,0:0:0:0:
122,279,37597,1,0,0:0:0:0:
384,216,37835,1,0,0:0:0:0:
368,184,37954,1,0,0:0:0:0:
344,168,38073,6,0,P|280:144|248:144,1,90
232,160,38430,1,0,0:0:0:0:
216,184,38549,1,0,0:0:0:0:
216,216,38669,1,0,0:0:0:0:
224,248,38788,1,0,0:0:0:0:
416,56,39026,5,0,0:0:0:0:
272,32,39264,1,0,0:0:0:0:
272,32,39383,1,0,0:0:0:0:
272,32,39502,1,0,0:0:0:0:
144,96,39740,1,0,0:0:0:0:
144,96,39859,1,0,0:0:0:0:
144,96,39978,2,0,P|104:168|168:240,1,180
320,272,40692,1,0,0:0:0:0:
408,128,40930,5,0,0:0:0:0:
152,128,41288,1,0,0:0:0:0:
424,128,41645,1,0,0:0:0:0:
432,176,41764,1,0,0:0:0:0:
424,216,41883,1,0,0:0:0:0:
400,248,42002,1,0,0:0:0:0:
360,272,42121,1,0,0:0:0:0:
320,288,42240,1,0,0:0:0:0:
272,288,42359,1,0,0:0:0:0:
232,264,42478,1,0,0:0:0:0:
200,232,42597,1,0,0:0:0:0:
176,192,42716,1,0,0:0:0:0:
144,160,42835,6,0,P|56:168|32:256,1,180
64,88,43549,1,0,0:0:0:0:
96,80,43669,1,0,0:0:0:0:
128,80,43788,2,0,P|184:96|216:128,1,90
352,152,44264,1,0,0:0:0:0:
272,56,44502,1,0,0:0:0:0:
472,104,44740,5,0,0:0:0:0:
432,224,44978,1,0,0:0:0:0:
312,264,45216,1,0,0:0:0:0:
192,224,45454,1,0,0:0:0:0:
192,224,45573,1,0,0:0:0:0:
192,224,45692,2,0,P|144:256|128:288,1,90
129,283,46049,1,0,0:0:0:0:
129,283,46169,1,0,0:0:0:0:
144,136,46407,1,0,0:0:0:0:
144,136,46526,1,0,0:0:0:0:
144,136,46645,6,0,P|216:72|312:72,1,180
312,184,47359,1,2,0:0:0:0:
240,272,47597,1,2,0:0:0:0:
136,224,47835,1,0,0:0:0:0:
208,136,48073,1,0,0:0:0:0:
152,240,48311,1,0,0:0:0:0:
192,128,48549,6,0,P|112:160|56:264,1,180
256,312,49264,1,0,0:0:0:0:
344,168,49740,1,0,0:0:0:0:
256,88,49978,1,0,0:0:0:0:
136,96,50216,1,0,0:0:0:0:
72,192,50454,6,0,P|112:248|232:272,1,180
408,336,51169,1,0,0:0:0:0:
40,192,51645,1,0,0:0:0:0:
144,136,51883,1,0,0:0:0:0:
272,152,52121,1,0,0:0:0:0:
352,232,52359,6,0,P|296:304|184:328,1,180
312,160,53073,1,0,0:0:0:0:
112,40,53549,1,0,0:0:0:0:
80,152,53788,1,0,0:0:0:0:
128,256,54026,1,0,0:0:0:0:
272,184,54264,6,0,P|264:240|168:328,1,180
384,280,54978,2,0,P|416:208|296:64,1,270
128,120,55930,1,0,0:0:0:0:
312,200,56169,2,0,P|232:200|136:256,1,180
328,312,56883,1,0,0:0:0:0:
328,312,57121,1,0,0:0:0:0:
408,128,57359,1,0,0:0:0:0:
408,128,57597,1,0,0:0:0:0:
216,176,57835,1,0,0:0:0:0:
216,176,57954,1,0,0:0:0:0:
216,176,58073,6,0,P|152:240|168:336,1,180
56,152,58788,1,0,0:0:0:0:
168,112,59026,1,0,0:0:0:0:
200,304,59264,1,0,0:0:0:0:
144,200,59502,1,0,0:0:0:0:
312,200,59740,1,0,0:0:0:0:
224,192,59978,6,0,P|272:112|368:88,1,180
384,232,60692,1,0,0:0:0:0:
256,280,60930,1,0,0:0:0:0:
160,216,61169,1,0,0:0:0:0:
160,216,61288,1,0,0:0:0:0:
160,216,61407,1,0,0:0:0:0:
264,176,61645,1,0,0:0:0:0:
56,192,61883,6,0,P|80:128|160:64,1,135
304,248,62597,1,0,0:0:0:0:
304,248,62835,1,0,0:0:0:0:
192,264,63073,1,0,0:0:0:0:
176,232,63192,1,0,0:0:0:0:
176,200,63311,6,0,P|216:160|272:152,1,90
352,104,63788,1,0,0:0:0:0:
464,240,64145,1,0,0:0:0:0:
304,320,64502,1,0,0:0:0:0:
304,320,64740,6,0,P|296:256|200:168,1,180
104,200,65454,1,0,0:0:0:0:
96,168,65573,1,0,0:0:0:0:
104,136,65692,6,0,P|144:96|184:88,1,90
256,176,66169,1,0,0:0:0:0:
208,280,66407,2,0,P|352:256|392:144,1,270
248,72,67359,1,0,0:0:0:0:
224,96,67478,1,0,0:0:0:0:
208,120,67597,6,0,P|176:192|216:304,1,180
64,144,68311,1,0,0:0:0:0:
80,256,68549,1,0,0:0:0:0:
152,160,68788,1,0,0:0:0:0:
168,272,69026,1,0,0:0:0:0:
64,144,69264,1,0,0:0:0:0:
80,120,69383,1,0,0:0:0:0:
104,96,69502,6,0,P|192:48|280:64,1,180
400,208,70216,1,0,0:0:0:0:
496,272,70454,1,0,0:0:0:0:
480,160,70692,1,0,0:0:0:0:
376,104,70930,1,0,0:0:0:0:
264,144,71169,1,0,0:0:0:0:
184,232,71407,6,0,P|224:296|344:304,1,180
16,192,72121,1,0,0:0:0:0:
104,120,72359,1,0,0:0:0:0:
232,112,72597,1,0,0:0:0:0:
336,168,72835,1,0,0:0:0:0:
320,56,73073,1,0,0:0:0:0:
248,200,73311,6,0,P|256:288|336:328,1,180
330,328,73907,1,0,0:0:0:0:
330,328,74026,1,0,0:0:0:0:
112,136,74264,1,0,0:0:0:0:
376,200,74502,1,0,0:0:0:0:
176,224,74740,1,0,0:0:0:0:
336,336,74978,1,0,0:0:0:0:
248,120,75216,6,0,P|208:80|152:64,1,90
177,67,75573,1,0,0:0:0:0:
177,67,75692,1,0,0:0:0:0:
408,96,75930,1,0,0:0:0:0:
176,264,76169,1,0,0:0:0:0:
312,176,76407,1,0,0:0:0:0:
312,176,76526,1,0,0:0:0:0:
312,176,76645,1,0,0:0:0:0:
64,224,76883,1,0,0:0:0:0:
304,304,77121,6,0,L|392:240,1,90
376,251,77478,1,0,0:0:0:0:
376,251,77597,1,0,0:0:0:0:
424,176,77835,1,0,0:0:0:0:
384,96,78073,2,0,P|288:88|208:136,1,180
152,184,78788,1,0,0:0:0:0:
136,208,78907,1,0,0:0:0:0:
128,240,79026,6,0,P|216:320|368:304,1,270
232,176,80216,2,0,L|152:232,1,90
128,232,80573,1,0,0:0:0:0:
104,208,80692,1,0,0:0:0:0:
96,176,80811,1,0,0:0:0:0:
104,144,80930,6,0,P|232:72|376:96,1,270
392,160,81883,1,0,0:0:0:0:
368,248,82121,1,0,0:0:0:0:
296,80,82359,1,0,0:0:0:0:
216,48,82597,1,0,0:0:0:0:
152,112,82835,6,0,P|128:176|160:248,1,135
280,272,83549,1,0,0:0:0:0:
280,272,83788,2,0,P|304:176|256:88,1,180
360,80,84502,1,0,0:0:0:0:
360,80,84621,1,0,0:0:0:0:
360,80,84740,6,0,P|408:192|360:328,1,270
280,264,85692,1,0,0:0:0:0:
264,232,85811,1,0,0:0:0:0:
240,216,85930,1,0,0:0:0:0:
208,208,86049,1,0,0:0:0:0:
176,216,86169,1,0,0:0:0:0:
264,48,86407,1,0,0:0:0:0:
88,136,86645,6,0,P|88:216|120:272,1,135
240,312,87359,1,0,0:0:0:0:
344,232,87597,2,0,P|432:248|480:328,1,180
432,344,88192,1,0,0:0:0:0:
400,328,88311,1,0,0:0:0:0:
368,336,88430,1,0,0:0:0:0:
336,344,88549,6,0,P|280:208|360:96,1,270
88,264,90216,1,0,0:0:0:0:
176,112,90454,1,0,0:0:0:0:
328,336,91169,2,0,P|280:288|264:232,1,90
248,232,91526,1,0,0:0:0:0:
248,200,91645,1,0,0:0:0:0:
264,176,91764,1,0,0:0:0:0:
288,160,91883,1,0,0:0:0:0:
320,160,92002,1,0,0:0:0:0:
352,168,92121,1,0,0:0:0:0:
372,191,92240,1,0,0:0:0:0:
377,221,92359,6,0,P|297:301|145:277,1,270
264,96,93311,1,0,0:0:0:0:
240,128,93430,1,0,0:0:0:0:
224,168,93549,1,0,0:0:0:0:
216,208,93669,1,0,0:0:0:0:
224,248,93788,5,0,0:0:0:0:
360,168,94026,1,0,0:0:0:0:
464,296,94264,1,0,0:0:0:0:
424,280,94383,1,0,0:0:0:0:
384,280,94502,1,0,0:0:0:0:
344,296,94621,1,0,0:0:0:0:
312,320,94740,2,0,P|272:288|256:248,1,90
96,216,95216,1,0,0:0:0:0:
120,56,95454,1,0,0:0:0:0:
296,208,95692,1,0,0:0:0:0:
280,184,95811,1,0,0:0:0:0:
256,168,95930,1,0,0:0:0:0:
224,168,96049,1,0,0:0:0:0:
192,184,96169,6,0,P|192:256|280:320,1,180
408,104,96883,1,0,0:0:0:0:
400,136,97002,1,0,0:0:0:0:
376,160,97121,1,0,0:0:0:0:
352,176,97240,1,0,0:0:0:0:
320,184,97359,1,0,0:0:0:0:
128,272,97597,2,0,L|104:168,1,90
107,184,97954,1,0,0:0:0:0:
104,176,98073,6,0,P|124:127|164:103,1,90
154,107,98430,1,0,0:0:0:0:
154,107,98549,1,0,0:0:0:0:
264,296,98788,1,0,0:0:0:0:
288,272,98907,1,0,0:0:0:0:
304,240,99026,1,0,0:0:0:0:
256,56,99264,1,0,0:0:0:0:
400,216,99502,1,0,0:0:0:0:
408,64,99740,1,0,0:0:0:0:
280,144,99978,6,0,P|216:184|192:288,1,180
