osu file format v14

[General]
AudioFilename: audio.mp3
AudioLeadIn: 0
PreviewTime: 61154
Countdown: 0
SampleSet: Normal
StackLeniency: 0.7
Mode: 1
LetterboxInBreaks: 0
WidescreenStoryboard: 1

[Editor]
Bookmarks: 2583,15600,28617,41633,54650,61159,74176,88820
DistanceSpacing: 0.8
BeatDivisor: 4
GridSize: 32
TimelineZoom: 1

[Metadata]
Title:Ojamajo Carnival!! (TV Size)
TitleUnicode:おジャ魔女カーニバル!! (TV Size)
Artist:MAHO-dou
ArtistUnicode:MAHO堂
Creator:arien666
Version:Oni
Source:おジャ魔女どれみ
Tags:japanese anime 東映アニメーション Toei Animation pop jpop j-pop 魔法堂 Magical Doremi 꼬마마법사 레미 春風どれみ Harukaze 千葉千恵巳 Chiba Chiemi 藤原はづき Fujiwara Hazuki 秋谷智子 Akiya Tomoko 妹尾あいこ Seno Senoo Aiko 松岡由貴 Matsuoka Yuki 瀬川おんぷ Segawa Onpu 宍戸留美 Shishido Rumi Sanjenin Nagi S.Nagi Sanjenin_Nagi marksman666
BeatmapID:3851099
BeatmapSetID:1871670

[Difficulty]
HPDrainRate:6
CircleSize:5
OverallDifficulty:5.5
ApproachRate:5
SliderMultiplier:1.4
SliderTickRate:1

[Events]
//Background and Video events
Video,0,"ojamajo.mp4"
0,0,"maho_dokomo_3x.jpg",0,0
//Break Periods
//Storyboard Layer 0 (Background)
//Storyboard Layer 1 (Fail)
//Storyboard Layer 2 (Pass)
//Storyboard Layer 3 (Foreground)
//Storyboard Layer 4 (Overlay)
//Storyboard Sound Samples

[TimingPoints]
2578,406.779661016949,4,1,0,75,1,0
61154,-100,4,1,0,75,0,1
88815,-100,4,1,0,75,0,0

[HitObjects]
256,192,2578,5,0,0:0:0:0:
256,192,2679,1,0,0:0:0:0:
256,192,2781,1,8,0:0:0:0:
256,192,2984,1,0,0:0:0:0:
256,192,3086,1,0,0:0:0:0:
256,192,3289,1,8,0:0:0:0:
256,192,3493,1,0,0:0:0:0:
256,192,3594,1,0,0:0:0:0:
256,192,3798,1,8,0:0:0:0:
256,192,3900,1,8,0:0:0:0:
256,192,4001,1,0,0:0:0:0:
256,192,4205,1,0,0:0:0:0:
256,192,4408,1,0,0:0:0:0:
256,192,4611,1,8,0:0:0:0:
256,192,4713,1,8,0:0:0:0:
256,192,4916,1,0,0:0:0:0:
256,192,5120,1,8,0:0:0:0:
256,192,5222,1,8,0:0:0:0:
256,192,5425,1,0,0:0:0:0:
256,192,5832,1,0,0:0:0:0:
256,192,5933,1,0,0:0:0:0:
256,192,6035,1,8,0:0:0:0:
256,192,6239,1,0,0:0:0:0:
256,192,6340,1,0,0:0:0:0:
256,192,6544,1,8,0:0:0:0:
256,192,6747,1,0,0:0:0:0:
256,192,6849,1,0,0:0:0:0:
256,192,7052,1,8,0:0:0:0:
256,192,7154,1,8,0:0:0:0:
256,192,7255,1,0,0:0:0:0:
256,192,7459,1,8,0:0:0:0:
256,192,7866,1,8,0:0:0:0:
256,192,8272,1,0,0:0:0:0:
256,192,8374,1,0,0:0:0:0:
256,192,8577,1,8,0:0:0:0:
256,192,8883,1,8,0:0:0:0:
256,192,9086,1,0,0:0:0:0:
256,192,9188,1,0,0:0:0:0:
256,192,9289,1,8,0:0:0:0:
256,192,9493,1,0,0:0:0:0:
256,192,9594,1,0,0:0:0:0:
256,192,9798,1,8,0:0:0:0:
256,192,10001,1,0,0:0:0:0:
256,192,10103,1,0,0:0:0:0:
256,192,10306,1,8,0:0:0:0:
256,192,10408,1,8,0:0:0:0:
256,192,10510,1,0,0:0:0:0:
256,192,10713,1,0,0:0:0:0:
256,192,10916,1,0,0:0:0:0:
256,192,11120,1,8,0:0:0:0:
256,192,11222,1,8,0:0:0:0:
256,192,11425,1,0,0:0:0:0:
256,192,11628,1,8,0:0:0:0:
256,192,11730,1,8,0:0:0:0:
256,192,11933,1,0,0:0:0:0:
256,192,12340,1,0,0:0:0:0:
256,192,12442,1,0,0:0:0:0:
256,192,12544,1,8,0:0:0:0:
256,192,12747,1,0,0:0:0:0:
256,192,12849,1,0,0:0:0:0:
256,192,13052,1,8,0:0:0:0:
256,192,13255,1,0,0:0:0:0:
256,192,13357,1,0,0:0:0:0:
256,192,13561,1,8,0:0:0:0:
256,192,13662,1,8,0:0:0:0:
256,192,13764,1,0,0:0:0:0:
256,192,13967,1,0,0:0:0:0:
256,192,14069,1,0,0:0:0:0:
256,192,14171,1,8,0:0:0:0:
256,192,14374,8,0,15188,0:0:0:0:
256,192,15594,5,8,0:0:0:0:
256,192,15798,1,8,0:0:0:0:
256,192,15900,1,8,0:0:0:0:
256,192,16001,1,0,0:0:0:0:
256,192,16205,1,8,0:0:0:0:
256,192,16306,1,0,0:0:0:0:
256,192,16408,1,0,0:0:0:0:
256,192,16611,1,0,0:0:0:0:
256,192,17222,1,0,0:0:0:0:
256,192,17323,1,0,0:0:0:0:
256,192,17425,1,8,0:0:0:0:
256,192,17628,1,0,0:0:0:0:
256,192,17730,1,8,0:0:0:0:
256,192,17832,1,8,0:0:0:0:
256,192,18035,1,0,0:0:0:0:
256,192,18239,1,0,0:0:0:0:
256,192,18442,1,8,0:0:0:0:
256,192,18645,1,8,0:0:0:0:
256,192,18849,2,0,L|64:192,2,175
256,192,20069,1,0,0:0:0:0:
256,192,20272,1,0,0:0:0:0:
256,192,20476,1,8,0:0:0:0:
256,192,20679,1,0,0:0:0:0:
256,192,20781,1,0,0:0:0:0:
256,192,20883,1,8,0:0:0:0:
256,192,21086,1,0,0:0:0:0:
256,192,21289,1,0,0:0:0:0:
256,192,21493,1,8,0:0:0:0:
256,192,22103,1,0,0:0:0:0:
256,192,22306,1,8,0:0:0:0:
256,192,22408,1,8,0:0:0:0:
256,192,22510,1,0,0:0:0:0:
256,192,22713,1,8,0:0:0:0:
256,192,22815,1,0,0:0:0:0:
256,192,22916,1,0,0:0:0:0:
256,192,23120,1,0,0:0:0:0:
256,192,23730,1,8,0:0:0:0:
256,192,23933,1,0,0:0:0:0:
256,192,24035,1,0,0:0:0:0:
256,192,24137,1,8,0:0:0:0:
256,192,24340,1,0,0:0:0:0:
256,192,24442,1,8,0:0:0:0:
256,192,24544,1,8,0:0:0:0:
256,192,24747,1,8,0:0:0:0:
256,192,24950,1,0,0:0:0:0:
256,192,25154,1,8,0:0:0:0:
256,192,25357,2,0,L|64:192,2,175
256,192,26577,1,0,0:0:0:0:
256,192,26781,1,0,0:0:0:0:
256,192,26984,1,8,0:0:0:0:
256,192,27188,1,0,0:0:0:0:
256,192,27289,1,0,0:0:0:0:
256,192,27391,1,8,0:0:0:0:
256,192,27594,1,0,0:0:0:0:
256,192,27798,1,0,0:0:0:0:
256,192,28001,1,8,0:0:0:0:
256,192,28103,1,8,0:0:0:0:
256,192,28205,1,0,0:0:0:0:
256,192,28408,1,8,0:0:0:0:
256,192,28611,1,0,0:0:0:0:
256,192,28916,1,0,0:0:0:0:
256,192,29018,1,8,0:0:0:0:
256,192,29222,1,0,0:0:0:0:
256,192,29323,1,0,0:0:0:0:
256,192,29425,1,8,0:0:0:0:
256,192,29628,1,0,0:0:0:0:
256,192,29832,1,8,0:0:0:0:
256,192,30035,1,0,0:0:0:0:
256,192,30239,1,0,0:0:0:0:
256,192,30442,1,8,0:0:0:0:
256,192,31255,1,0,0:0:0:0:
256,192,31357,1,0,0:0:0:0:
256,192,31459,1,8,0:0:0:0:
256,192,31662,1,0,0:0:0:0:
256,192,31866,1,8,0:0:0:0:
256,192,32171,1,0,0:0:0:0:
256,192,32272,1,8,0:0:0:0:
256,192,32476,1,0,0:0:0:0:
256,192,32577,1,0,0:0:0:0:
256,192,32679,1,8,0:0:0:0:
256,192,32883,1,0,0:0:0:0:
256,192,33086,1,8,0:0:0:0:
256,192,33289,1,0,0:0:0:0:
256,192,33493,1,0,0:0:0:0:
256,192,33696,1,8,0:0:0:0:
256,192,34510,1,8,0:0:0:0:
256,192,34611,1,8,0:0:0:0:
256,192,34713,1,0,0:0:0:0:
256,192,34916,1,0,0:0:0:0:
256,192,35120,1,8,0:0:0:0:
256,192,35323,1,0,0:0:0:0:
256,192,35425,1,0,0:0:0:0:
256,192,35527,1,8,0:0:0:0:
256,192,35730,1,0,0:0:0:0:
256,192,35933,1,0,0:0:0:0:
256,192,36137,1,8,0:0:0:0:
256,192,36239,1,8,0:0:0:0:
256,192,36340,1,0,0:0:0:0:
256,192,36544,1,8,0:0:0:0:
256,192,36950,1,0,0:0:0:0:
256,192,37154,1,8,0:0:0:0:
256,192,37255,1,8,0:0:0:0:
256,192,37357,1,0,0:0:0:0:
256,192,37561,1,8,0:0:0:0:
256,192,37764,1,0,0:0:0:0:
256,192,37866,1,0,0:0:0:0:
256,192,37967,1,8,0:0:0:0:
256,192,38171,1,0,0:0:0:0:
256,192,38374,8,0,40408,0:0:0:0:
256,192,40815,5,0,0:0:0:0:
256,192,40916,1,0,0:0:0:0:
256,192,41018,1,8,0:0:0:0:
256,192,41120,1,8,0:0:0:0:
256,192,41222,1,0,0:0:0:0:
256,192,41425,1,8,0:0:0:0:
96,224,41628,2,0,B|128:32|128:32|32:32|32:32|32:96|32:96,1,350
256,192,42849,1,0,0:0:0:0:
256,192,43052,1,0,0:0:0:0:
256,192,43459,1,0,0:0:0:0:
256,192,43662,1,8,0:0:0:0:
256,192,43866,1,0,0:0:0:0:
256,192,44069,1,8,0:0:0:0:
256,192,44171,1,8,0:0:0:0:
256,192,44272,1,0,0:0:0:0:
256,192,44374,1,0,0:0:0:0:
256,192,44476,1,8,0:0:0:0:
256,192,44679,1,0,0:0:0:0:
304,337,44883,2,0,B|209:336|209:336|301:241|301:241|288:192|224:192|211:244|211:244,1,350
256,192,46103,1,8,0:0:0:0:
256,192,46306,1,8,0:0:0:0:
256,192,46510,1,0,0:0:0:0:
256,192,46611,1,0,0:0:0:0:
256,192,46713,1,8,0:0:0:0:
256,192,46916,1,0,0:0:0:0:
256,192,47120,1,8,0:0:0:0:
256,192,47323,1,0,0:0:0:0:
256,192,47425,1,0,0:0:0:0:
256,192,47527,1,8,0:0:0:0:
256,192,47628,1,8,0:0:0:0:
256,192,47730,1,0,0:0:0:0:
256,192,47933,1,8,0:0:0:0:
448,224,48137,2,0,B|480:32|480:32|384:32|384:32|384:96|384:96,1,350
256,192,49357,1,0,0:0:0:0:
256,192,49561,1,0,0:0:0:0:
256,192,49967,1,0,0:0:0:0:
256,192,50171,1,8,0:0:0:0:
256,192,50374,1,0,0:0:0:0:
256,192,50577,1,8,0:0:0:0:
256,192,50679,1,8,0:0:0:0:
256,192,50781,1,0,0:0:0:0:
256,192,50883,1,0,0:0:0:0:
256,192,50984,1,8,0:0:0:0:
256,192,51188,1,0,0:0:0:0:
96,64,51391,2,0,B|256:64|256:64|256:128|256:128|320:128|320:128|320:64,1,350
256,192,52611,1,8,0:0:0:0:
256,192,52815,1,8,0:0:0:0:
256,192,53018,1,0,0:0:0:0:
256,192,53120,1,0,0:0:0:0:
256,192,53222,1,0,0:0:0:0:
256,192,53425,1,8,0:0:0:0:
256,192,53527,1,8,0:0:0:0:
256,192,53628,1,0,0:0:0:0:
256,192,53832,1,8,0:0:0:0:
256,192,54035,1,0,0:0:0:0:
256,192,54239,1,8,0:0:0:0:
256,192,54340,1,8,0:0:0:0:
256,192,54442,1,0,0:0:0:0:
256,192,54645,1,0,0:0:0:0:
256,192,54747,1,0,0:0:0:0:
256,192,54849,1,8,0:0:0:0:
256,192,54950,1,8,0:0:0:0:
256,192,55052,1,0,0:0:0:0:
256,192,55255,1,8,0:0:0:0:
256,192,55459,1,0,0:0:0:0:
256,192,55561,1,0,0:0:0:0:
256,192,55662,1,0,0:0:0:0:
256,192,56272,1,0,0:0:0:0:
256,192,56476,1,8,0:0:0:0:
256,192,56577,1,8,0:0:0:0:
256,192,56679,1,0,0:0:0:0:
256,192,56883,1,8,0:0:0:0:
256,192,56984,1,8,0:0:0:0:
256,192,57086,1,0,0:0:0:0:
256,192,57188,1,0,0:0:0:0:
256,192,57289,1,8,0:0:0:0:
256,192,57493,1,8,0:0:0:0:
256,192,57696,1,0,0:0:0:0:
256,192,57900,8,0,59323,0:0:0:0:
256,192,59527,5,8,0:0:0:0:
256,192,59730,1,0,0:0:0:0:
256,192,59832,1,0,0:0:0:0:
256,192,59933,1,8,0:0:0:0:
256,192,60035,1,8,0:0:0:0:
256,192,60137,1,0,0:0:0:0:
256,192,60340,1,8,0:0:0:0:
256,192,60442,1,8,0:0:0:0:
256,192,60544,1,0,0:0:0:0:
256,192,60747,1,0,0:0:0:0:
256,192,61154,1,4,0:0:0:0:
256,192,61357,1,0,0:0:0:0:
256,192,61561,1,8,0:0:0:0:
256,192,61764,1,8,0:0:0:0:
256,192,61967,1,0,0:0:0:0:
256,192,62171,1,8,0:0:0:0:
256,192,62272,1,8,0:0:0:0:
256,192,62374,1,0,0:0:0:0:
256,192,62577,1,8,0:0:0:0:
256,192,62781,1,0,0:0:0:0:
256,192,62984,1,8,0:0:0:0:
256,192,63086,1,8,0:0:0:0:
256,192,63188,1,0,0:0:0:0:
256,192,63391,1,0,0:0:0:0:
256,192,63594,1,8,0:0:0:0:
256,192,64001,1,0,0:0:0:0:
256,192,64205,1,8,0:0:0:0:
256,192,64306,1,8,0:0:0:0:
256,192,64408,1,0,0:0:0:0:
256,192,64815,1,8,0:0:0:0:
256,192,65018,1,0,0:0:0:0:
256,192,65120,1,0,0:0:0:0:
256,192,65222,1,8,0:0:0:0:
256,192,65425,1,8,0:0:0:0:
256,192,65527,1,8,0:0:0:0:
256,192,65628,1,0,0:0:0:0:
256,192,65832,1,0,0:0:0:0:
256,192,66035,1,12,0:0:0:0:
256,192,66442,1,12,0:0:0:0:
256,192,66849,1,12,0:0:0:0:
256,192,67255,1,0,0:0:0:0:
256,192,67357,1,0,0:0:0:0:
256,192,67459,1,0,0:0:0:0:
256,192,67662,1,12,0:0:0:0:
256,192,67866,1,8,0:0:0:0:
256,192,68069,1,0,0:0:0:0:
256,192,68272,1,0,0:0:0:0:
256,192,68476,1,8,0:0:0:0:
256,192,68679,1,0,0:0:0:0:
256,192,68781,1,0,0:0:0:0:
256,192,68883,1,8,0:0:0:0:
256,192,69086,1,0,0:0:0:0:
256,192,69289,1,8,0:0:0:0:
256,192,69493,1,0,0:0:0:0:
256,192,69594,1,0,0:0:0:0:
256,192,69696,1,8,0:0:0:0:
256,192,69900,1,0,0:0:0:0:
256,192,70103,1,8,0:0:0:0:
256,192,70510,1,8,0:0:0:0:
256,192,70713,1,0,0:0:0:0:
256,192,70815,1,0,0:0:0:0:
256,192,70916,1,8,0:0:0:0:
256,192,71323,1,8,0:0:0:0:
256,192,71527,1,0,0:0:0:0:
256,192,71730,1,8,0:0:0:0:
256,192,71832,1,8,0:0:0:0:
256,192,71933,1,0,0:0:0:0:
256,192,72035,1,0,0:0:0:0:
256,192,72137,1,8,0:0:0:0:
256,192,72340,1,0,0:0:0:0:
256,192,72544,1,8,0:0:0:0:
256,192,72645,1,8,0:0:0:0:
256,192,72747,1,8,0:0:0:0:
256,192,72950,1,8,0:0:0:0:
256,192,73154,1,0,0:0:0:0:
256,192,73255,1,0,0:0:0:0:
256,192,73357,1,8,0:0:0:0:
256,192,73459,1,8,0:0:0:0:
256,192,73561,1,0,0:0:0:0:
256,192,73764,1,8,0:0:0:0:
256,192,73866,1,8,0:0:0:0:
256,192,73967,1,0,0:0:0:0:
256,192,74171,1,12,0:0:0:0:
256,192,74374,1,0,0:0:0:0:
256,192,74577,1,8,0:0:0:0:
256,192,74781,1,0,0:0:0:0:
256,192,74984,1,8,0:0:0:0:
256,192,75188,1,8,0:0:0:0:
256,192,75289,1,8,0:0:0:0:
256,192,75391,1,0,0:0:0:0:
256,192,75594,1,8,0:0:0:0:
256,192,75798,1,0,0:0:0:0:
256,192,75900,1,0,0:0:0:0:
256,192,76001,1,8,0:0:0:0:
256,192,76103,1,8,0:0:0:0:
256,192,76205,1,0,0:0:0:0:
256,192,76408,1,0,0:0:0:0:
256,192,76611,1,8,0:0:0:0:
256,192,77018,1,0,0:0:0:0:
256,192,77222,1,8,0:0:0:0:
256,192,77323,1,8,0:0:0:0:
256,192,77425,1,0,0:0:0:0:
256,192,77832,1,8,0:0:0:0:
256,192,78035,1,0,0:0:0:0:
256,192,78137,1,0,0:0:0:0:
256,192,78239,1,8,0:0:0:0:
256,192,78442,1,8,0:0:0:0:
256,192,78544,1,8,0:0:0:0:
256,192,78645,1,0,0:0:0:0:
256,192,78849,1,0,0:0:0:0:
256,192,79052,1,12,0:0:0:0:
256,192,79459,1,12,0:0:0:0:
256,192,79866,1,12,0:0:0:0:
256,192,80272,1,0,0:0:0:0:
256,192,80374,1,0,0:0:0:0:
256,192,80476,1,0,0:0:0:0:
256,192,80679,1,12,0:0:0:0:
256,192,80883,1,0,0:0:0:0:
256,192,81086,1,8,0:0:0:0:
256,192,81289,1,0,0:0:0:0:
256,192,81493,1,8,0:0:0:0:
256,192,81696,1,0,0:0:0:0:
256,192,81798,1,0,0:0:0:0:
256,192,81900,1,8,0:0:0:0:
256,192,82103,1,0,0:0:0:0:
256,192,82306,1,8,0:0:0:0:
256,192,82408,1,8,0:0:0:0:
256,192,82510,1,0,0:0:0:0:
256,192,82611,1,0,0:0:0:0:
256,192,82713,1,8,0:0:0:0:
256,192,82916,1,0,0:0:0:0:
256,192,83120,1,8,0:0:0:0:
256,192,83527,1,8,0:0:0:0:
256,192,83730,1,0,0:0:0:0:
256,192,83832,1,0,0:0:0:0:
256,192,83933,1,8,0:0:0:0:
256,192,84340,1,8,0:0:0:0:
256,192,84544,1,0,0:0:0:0:
256,192,84747,1,8,0:0:0:0:
256,192,84849,1,8,0:0:0:0:
256,192,84950,1,0,0:0:0:0:
256,192,85052,1,0,0:0:0:0:
256,192,85154,1,8,0:0:0:0:
256,192,85357,1,0,0:0:0:0:
256,192,85561,1,12,0:0:0:0:
256,192,85764,1,8,0:0:0:0:
256,192,85967,1,4,0:0:0:0:
256,192,86171,1,0,0:0:0:0:
256,192,86374,1,12,0:0:0:0:
256,192,86781,1,12,0:0:0:0:
256,192,86984,1,8,0:0:0:0:
256,192,87188,1,4,0:0:0:0:
256,192,87391,1,0,0:0:0:0:
256,192,87594,1,8,0:0:0:0:
256,192,87696,1,8,0:0:0:0:
256,192,87798,1,0,0:0:0:0:
256,192,88001,1,12,0:0:0:0:
256,192,88205,1,8,0:0:0:0:
256,192,88408,1,4,0:0:0:0:
256,192,88611,1,0,0:0:0:0:
256,192,88815,1,12,0:0:0:0:
