osu file format v14

[General]
AudioFilename: audio.mp3
AudioLeadIn: 0
PreviewTime: 41210
Countdown: 0
SampleSet: Soft
StackLeniency: 0.3
Mode: 0
LetterboxInBreaks: 0
WidescreenStoryboard: 1

[Editor]
Bookmarks: 65169
DistanceSpacing: 1
BeatDivisor: 4
GridSize: 32
TimelineZoom: 3.600001

[Metadata]
Title:Rude
TitleUnicode:Rude
Artist:MAGIC!
ArtistUnicode:MAGIC!
Creator:FaZZeR
Version:Rude
Source:
Tags:english Don't kill the magic Nasri Atweh Mark Pellizzer Ben Spivak Alex Tanas Adam Messinger love pop band reggae fusion
BeatmapID:2251851
BeatmapSetID:1074582

[Difficulty]
HPDrainRate:5
CircleSize:4
OverallDifficulty:7
ApproachRate:8
SliderMultiplier:1.6
SliderTickRate:1

[Events]
//Background and Video events
0,0,"bg.jpg",0,0
//Break Periods
//Storyboard Layer 0 (Background)
//Storyboard Layer 1 (Fail)
//Storyboard Layer 2 (Pass)
//Storyboard Layer 3 (Foreground)
//Storyboard Layer 4 (Overlay)
//Storyboard Sound Samples

[TimingPoints]
1422,416.666666666667,4,2,1,50,1,0
13922,-100,4,3,1,45,0,0
15171,-100,4,2,1,50,0,0
26212,-100,4,3,1,45,0,0
28087,-100,4,2,1,70,0,0
28504,-100,4,2,1,60,0,0
40587,-100,4,3,1,45,0,0
41144,-100,4,2,1,70,0,1
41837,-83.3333333333333,4,2,2,50,0,1
54336,-83.3333333333333,4,2,2,35,0,1
54753,-83.3333333333333,4,2,2,80,0,1
68085,-83.3333333333333,4,2,2,50,0,1
68088,-83.3333333333333,4,2,1,5,0,0

[Colours]
Combo1 : 244,244,0
Combo2 : 7,240,175
Combo3 : 0,128,255
Combo4 : 0,255,255
Combo5 : 253,171,2

[HitObjects]
207,193,1187,6,0,L|238:197,2,30
207,193,1422,5,8,0:0:0:0:
207,81,1838,1,2,0:0:0:0:
105,129,2255,2,0,L|106:220,1,80,8|0,0:0|0:0,0:0:0:0:
212,229,2672,2,0,L|211:138,1,80,8|0,0:0|0:0,0:0:0:0:
212,229,3088,6,0,P|287:210|355:249,1,160,8|2,0:0|0:0,0:0:0:0:
440,335,3713,1,0,0:0:0:0:
493,245,3922,2,0,P|486:208|459:173,1,80,8|0,0:0|0:0,0:0:0:0:
388,100,4338,2,0,P|363:131|356:170,1,80,8|0,0:0|0:0,0:0:0:0:
356,250,4755,6,0,L|356:155,1,80,2|0,0:0|0:0,0:0:0:0:
265,79,5172,2,0,L|265:174,1,80,8|0,0:0|0:0,0:0:0:0:
204,243,5588,2,0,P|164:251|103:240,2,80,2|0|8,0:0|0:0|0:0,0:0:0:0:
152,135,6213,1,0,0:0:0:0:
250,8,6422,6,0,P|294:11|336:58,1,80,2|0,0:0|0:0,0:0:0:0:
425,31,6838,2,0,P|422:75|374:117,1,80,8|0,0:0|0:0,0:0:0:0:
401,207,7255,2,0,P|357:204|315:156,1,80,2|0,0:0|0:0,0:0:0:0:
224,183,7672,2,0,P|227:139|274:97,1,80,8|0,0:0|0:0,0:0:0:0:
401,102,8088,6,0,P|472:136|465:231,1,160,8|2,0:0|0:0,0:0:0:0:
375,195,8713,1,0,0:0:0:0:
283,245,8922,2,0,P|218:263|157:241,2,120,8|0|8,0:0|0:0|0:0,0:0:0:0:
373,284,9755,6,0,L|376:376,1,80,2|0,0:0|0:0,0:0:0:0:
477,261,10172,2,0,L|474:169,1,80,8|0,0:0|0:0,0:0:0:0:
380,136,10588,2,0,P|423:90|485:80,2,120,8|0|8,0:0|0:0|0:0,0:0:0:0:
305,210,11422,6,0,P|269:220|215:199,1,80,2|0,0:0|0:0,0:0:0:0:
143,124,11838,2,0,P|179:114|233:135,1,80,8|0,0:0|0:0,0:0:0:0:
134,209,12255,2,0,B|108:304|173:257|142:362,1,160,2|8,0:0|0:0,0:0:0:0:
246,364,12880,5,0,0:0:0:0:
315,286,13088,2,0,P|318:248|300:203,1,80
247,121,13505,1,0,0:0:0:0:
330,57,13713,1,0,0:0:0:0:
330,57,13817,1,0,0:0:0:0:
330,57,13922,1,2,0:0:0:0:
410,116,14130,1,0,0:0:0:0:
410,116,14338,2,0,L|419:203,1,80,2|0,0:0|0:0,0:0:0:0:
505,310,14755,6,0,P|432:337|342:311,1,160,0|2,0:0|0:0,0:0:0:0:
243,274,15380,1,0,0:0:0:0:
155,349,15588,2,0,P|97:362|43:339,2,120,8|0|8,0:0|0:0|0:0,0:0:0:0:
113,202,16422,6,0,P|99:168|116:108,1,80,2|0,0:0|0:0,0:0:0:0:
164,274,16838,2,0,P|149:310|155:349,1,80,8|0,0:0|0:0,0:0:0:0:
240,213,17255,2,0,P|295:230|334:274,2,120,8|0|8,0:0|0:0|0:0,0:0:0:0:
113,202,18088,6,0,P|72:208|38:230,1,80,2|0,0:0|0:0,0:0:0:0:
163,273,18505,2,0,P|194:298|233:308,1,80,8|0,0:0|0:0,0:0:0:0:
240,213,18922,2,0,P|247:128|188:39,1,160,2|8,0:0|0:0,0:0:0:0:
144,150,19547,1,0,0:0:0:0:
157,259,19755,6,0,L|156:347,1,80,2|0,0:0|0:0,0:0:0:0:
240,213,20172,2,0,L|241:125,1,80,8|0,0:0|0:0,0:0:0:0:
322,251,20588,1,2,0:0:0:0:
322,251,21005,2,0,P|359:239|399:243,1,80,8|0,0:0|0:0,0:0:0:0:
511,252,21422,1,0,0:0:0:0:
380,70,21838,6,0,L|357:154,1,80,2|0,0:0|0:0,0:0:0:0:
322,251,22255,2,0,L|288:379,2,120,8|0|8,0:0|0:0|0:0,0:0:0:0:
358,147,23088,6,0,P|397:141|436:150,1,80,2|0,0:0|0:0,0:0:0:0:
268,118,23505,2,0,P|243:86|232:48,1,80,8|0,0:0|0:0,0:0:0:0:
210,190,23922,2,0,P|146:195|86:155,2,120,8|0|8,0:0|0:0|0:0,0:0:0:0:
302,126,24755,6,0,P|378:101|454:134,1,160,2|8,0:0|0:0,0:0:0:0:
459,233,25380,1,0,0:0:0:0:
353,255,25588,2,0,P|315:244|268:201,1,80,2|0,0:0|0:0,0:0:0:0:
216,139,26005,1,0,0:0:0:0:
117,172,26213,1,0,0:0:0:0:
117,172,26317,1,0,0:0:0:0:
117,172,26422,6,0,P|91:201|75:250,1,80,2|0,0:0|0:0,0:0:0:0:
149,312,26838,2,0,P|187:309|233:286,1,80,2|0,0:0|0:0,0:0:0:0:
216,139,27255,1,8,0:0:0:0:
282,220,27463,1,0,0:0:0:0:
202,140,27672,2,0,P|170:165|146:197,1,80,8|0,0:0|0:0,0:0:0:0:
69,312,28088,6,0,P|109:307|149:312,1,80,4|0,0:0|0:0,0:0:0:0:
269,355,28505,2,0,L|269:269,1,80,10|0,0:0|0:0,0:0:0:0:
382,161,28922,2,0,L|382:241,1,80,2|0,0:0|0:0,0:0:0:0:
269,128,29338,2,0,P|232:136|165:119,1,80,10|0,0:0|0:0,0:0:0:0:
281,39,29755,6,0,P|320:33|359:41,1,80,10|0,0:0|0:0,0:0:0:0:
423,133,30172,2,0,P|384:141|344:135,1,80,2|0,0:0|0:0,0:0:0:0:
237,104,30588,2,0,P|223:141|223:181,1,80,10|0,0:0|0:0,0:0:0:0:
191,289,31005,2,0,P|230:295|269:282,1,80,8|0,0:0|0:0,0:0:0:0:
340,185,31422,6,0,P|420:173|484:113,1,160,2|8,0:0|0:0,0:0:0:0:
444,254,32047,1,0,0:0:0:0:
379,85,32255,2,0,P|299:97|235:157,1,160,2|8,0:0|0:0,0:0:0:0:
144,243,32880,1,0,0:0:0:0:
144,115,33088,6,0,L|143:21,1,80,2|0,0:0|0:0,0:0:0:0:
240,147,33505,1,8,0:0:0:0:
220,248,33713,1,0,0:0:0:0:
299,321,33922,2,0,B|326:279|326:279|386:258|386:258|430:193,1,160,2|8,0:0|0:0,0:0:0:0:
474,107,34547,1,0,0:0:0:0:
474,107,34755,6,0,L|386:108,1,80,2|0,0:0|0:0,0:0:0:0:
239,146,35172,2,0,L|327:145,1,80,10|0,0:0|0:0,0:0:0:0:
412,219,35588,2,0,P|431:258|427:300,1,80,2|0,0:0|0:0,0:0:0:0:
318,145,36005,2,0,P|306:106|317:68,1,80,10|0,0:0|0:0,0:0:0:0:
339,266,36422,6,0,B|240:292|275:236|160:261,1,160,2|8,0:0|0:0,0:0:0:0:
250,136,37047,1,0,0:0:0:0:
339,266,37255,2,0,P|343:305|354:343,1,80,8|0,0:0|0:0,0:0:0:0:
235,215,37672,2,0,P|246:176|250:137,1,80,2|0,0:0|0:0,0:0:0:0:
146,48,38088,6,0,B|100:98|124:159|124:159|164:153,1,160,2|8,0:0|0:0,0:0:0:0:
44,87,38713,1,0,0:0:0:0:
229,240,38922,2,0,B|270:247|270:247|293:185|248:136,1,160,2|8,0:0|0:0,0:0:0:0:
146,48,39547,1,0,0:0:0:0:
146,48,39755,6,0,L|233:46,1,80,2|0,0:0|0:0,0:0:0:0:
354,0,40172,2,0,P|375:54|351:107,1,120,8|0,0:0|0:0,0:0:0:0:
322,135,40588,2,0,B|311:206|311:206|331:201,1,90,2|4,0:0|0:0,0:0:0:0:
429,355,41005,2,0,L|487:356,2,53.3333333333333,2|0|4,0:0|0:0|0:0,0:0:0:0:
377,279,41422,1,0,0:0:0:0:
377,279,41838,5,2,0:0:0:0:
383,176,42255,2,0,B|391:123|391:123|359:73,1,95.9999970703126,8|0,0:0|0:0,0:0:0:0:
224,112,42672,2,0,B|267:141|267:141|310:135,1,95.9999970703126,2|0,0:0|0:0,0:0:0:0:
443,71,43088,6,0,P|385:14|288:86,1,191.999994140625,8|2,0:0|0:0,0:0:0:0:
163,120,43713,1,0,0:0:0:0:
163,120,43922,2,0,P|221:177|318:105,1,191.999994140625,8|2,0:0|0:0,0:0:0:0:
402,43,44547,1,0,0:0:0:0:
470,141,44755,6,0,P|468:187|491:250,1,95.9999970703126,8|0,0:0|0:0,0:0:0:0:
310,134,45172,2,0,P|311:87|288:24,1,95.9999970703126,2|0,0:0|0:0,0:0:0:0:
367,260,45588,2,0,P|321:258|258:281,1,95.9999970703126,8|0,0:0|0:0,0:0:0:0:
412,186,46005,2,0,P|458:186|521:163,1,95.9999970703126,2|0,0:0|0:0,0:0:0:0:
350,121,46422,6,0,B|266:144|243:68|139:106,1,191.999994140625
260,0,47047,1,0,0:0:0:0:
152,198,47255,2,0,P|75:148|69:56,1,191.999994140625,8|2,0:0|0:0,0:0:0:0:
277,108,47880,1,0,0:0:0:0:
387,200,48088,6,0,L|379:302,1,95.9999970703126,8|0,0:0|0:0,0:0:0:0:
256,369,48505,2,0,L|248:273,1,95.9999970703126,2|0,0:0|0:0,0:0:0:0:
132,158,48922,2,0,P|130:108|171:40,1,95.9999970703126,8|0,0:0|0:0,0:0:0:0:
264,181,49338,2,0,P|265:231|225:299,1,95.9999970703126,2|0,0:0|0:0,0:0:0:0:
104,330,49755,6,0,P|83:241|148:147,1,191.999994140625,8|2,0:0|0:0,0:0:0:0:
263,181,50380,1,0,0:0:0:0:
263,181,50588,2,0,P|283:272|235:353,1,191.999994140625,8|0,0:0|0:0,0:0:0:0:
133,264,51213,1,0,0:0:0:0:
133,264,51422,2,0,L|10:284,1,95.9999970703126,8|0,0:0|0:0,0:0:0:0:
197,341,51838,6,0,P|234:257|185:176,1,191.999994140625,2|8,0:0|0:0,0:0:0:0:
68,106,52463,1,0,0:0:0:0:
68,106,52672,2,0,P|57:152|80:228,1,95.9999970703126,2|0,0:0|0:0,0:0:0:0:
186,176,53088,1,8,0:0:0:0:
260,65,53297,1,0,0:0:0:0:
311,54,53401,1,0,0:0:0:0:
359,74,53505,2,0,L|368:169,1,95.9999970703126,2|0,0:0|0:0,0:0:0:0:
264,270,53922,2,0,L|274:174,1,95.9999970703126,8|0,0:0|0:0,0:0:0:0:
371,251,54338,1,4,0:0:0:0:
120,219,54755,6,0,L|215:215,1,95.9999970703126,4|0,0:0|0:0,0:0:0:0:
46,197,55172,2,0,L|50:302,1,95.9999970703126,10|0,0:0|0:0,0:0:0:0:
103,139,55588,2,0,P|57:117|6:126,1,95.9999970703126,8|0,0:0|0:0,0:0:0:0:
120,219,56005,2,0,B|228:183|208:243|322:194,1,191.999994140625,10|8,0:0|0:0,0:0:0:0:
248,57,56630,5,0,0:0:0:0:
132,127,56838,2,0,P|114:176|125:231,1,95.9999970703126,10|0,0:0|0:0,0:0:0:0:
235,148,57255,2,0,P|253:99|242:44,1,95.9999970703126,8|0,0:0|0:0,0:0:0:0:
132,127,57672,1,10,0:0:0:0:
196,274,57880,1,0,0:0:0:0:
230,306,57984,1,0,0:0:0:0:
263,339,58088,6,0,P|301:366|351:366,1,95.9999970703126,12|0,0:0|0:0,0:0:0:0:
258,228,58505,2,0,P|219:200|169:200,1,95.9999970703126,10|0,0:0|0:0,0:0:0:0:
81,350,58922,2,0,B|84:281|84:281|56:229|56:229|60:165,1,191.999994140625,8|10,0:0|0:0,0:0:0:0:
36,42,59547,1,0,0:0:0:0:
156,77,59755,6,0,P|171:122|168:170,1,95.9999970703126,8|0,0:0|0:0,0:0:0:0:
75,259,60172,2,0,P|59:209|70:139,1,95.9999970703126,10|0,0:0|0:0,0:0:0:0:
164,253,60588,2,0,P|165:300|148:347,2,95.9999970703126,8|0|10,0:0|0:0|0:0,0:0:0:0:
164,137,61213,1,0,0:0:0:0:
171,94,61317,1,0,0:0:0:0:
181,52,61422,6,0,L|286:53,1,95.9999970703126,12|0,0:0|0:0,0:0:0:0:
385,161,61838,2,0,L|280:160,1,95.9999970703126,10|0,0:0|0:0,0:0:0:0:
164,137,62255,2,0,B|168:201|168:201|140:253|140:253|143:322,1,191.999994140625,8|10,0:0|0:0,0:0:0:0:
242,373,62880,1,0,0:0:0:0:
274,345,62984,1,0,0:0:0:0:
304,314,63088,6,0,P|328:272|336:225,1,95.9999970703126,8|0,0:0|0:0,0:0:0:0:
264,131,63505,2,10,P|239:172|231:219,1,95.9999970703126,10|0,0:0|0:0,0:0:0:0:
274,345,63922,2,0,P|314:369|361:368,2,95.9999970703126,8|0|10,0:0|0:0|0:0,0:0:0:0:
231,219,64547,1,0,0:0:0:0:
229,177,64651,1,0,0:0:0:0:
228,134,64755,6,0,P|268:108|314:97,1,95.9999970703126,8|0,0:0|0:0,0:0:0:0:
296,249,65172,2,0,P|264:282|217:290,1,95.9999970703126,10|0,0:0|0:0,0:0:0:0:
80,268,65588,2,0,P|68:221|81:176,1,95.9999970703126,8|0,0:0|0:0,0:0:0:0:
216,96,66005,2,0,P|225:142|219:190,1,95.9999970703126,10|0,0:0|0:0,0:0:0:0:
166,335,66422,6,0,B|286:321|242:375|368:354,1,191.999994140625,8|10,0:0|0:0,0:0:0:0:
462,247,67047,1,8,0:3:0:0:
484,204,67151,1,0,0:0:0:0:
475,156,67255,2,0,P|431:134|354:147,1,95.9999970703126,8|0,0:0|0:0,0:0:0:0:
281,78,67672,2,0,P|258:121|269:197,1,95.9999970703126,8|0,0:0|0:0,0:0:0:0:
256,192,68088,12,2,71630,0:0:0:0:
