osu file format v14

[General]
AudioFilename: audio.mp3
AudioLeadIn: 0
PreviewTime: 41210
Countdown: 0
SampleSet: Soft
StackLeniency: 0.7
Mode: 0
LetterboxInBreaks: 0
WidescreenStoryboard: 1

[Editor]
DistanceSpacing: 1
BeatDivisor: 2
GridSize: 32
TimelineZoom: 1.5

[Metadata]
Title:Rude
TitleUnicode:Rude
Artist:MAGIC!
ArtistUnicode:MAGIC!
Creator:FaZZeR
Version:Normal
Source:
Tags:english Don't kill the magic Nasri Atweh Mark Pellizzer Ben Spivak Alex Tanas Adam Messinger love pop band reggae fusion
BeatmapID:2250286
BeatmapSetID:1074582

[Difficulty]
HPDrainRate:4
CircleSize:2.3
OverallDifficulty:4
ApproachRate:5.5
SliderMultiplier:1.5
SliderTickRate:1

[Events]
//Background and Video events
0,0,"bg.jpg",0,0
//Break Periods
//Storyboard Layer 0 (Background)
//Storyboard Layer 1 (Fail)
//Storyboard Layer 2 (Pass)
//Storyboard Layer 3 (Foreground)
//Storyboard Layer 4 (Overlay)
//Storyboard Sound Samples

[TimingPoints]
1422,416.666666666667,4,2,1,50,1,0
1422,-117.647058823529,4,2,1,50,0,0
13922,-117.647058823529,4,3,1,35,0,0
15172,-117.647058823529,4,2,1,50,0,0
26422,-117.647058823529,4,3,1,40,0,0
28088,-117.647058823529,4,2,1,70,0,0
28505,-117.647058823529,4,2,1,60,0,0
40172,-117.647058823529,4,3,1,45,0,0
41422,-100,4,2,1,70,0,1
41838,-100,4,2,2,50,0,1
53505,-100,4,2,2,35,0,1
53922,-100,4,2,2,80,0,1
54338,-100,4,2,2,50,0,1
68088,-117.647058823529,4,2,1,5,0,0
71422,-117.647058823529,4,2,1,35,0,0

[Colours]
Combo1 : 244,244,0
Combo2 : 7,240,175
Combo3 : 0,128,255
Combo4 : 0,255,255
Combo5 : 253,171,2

[HitObjects]
179,314,1422,6,0,P|200:252|163:170,1,127.50000243187,8|2,0:0|0:0,0:0:0:0:
85,76,2255,2,0,P|64:138|101:220,1,127.50000243187,8|2,0:0|0:0,0:0:0:0:
134,249,2880,1,0,0:0:0:0:
183,194,3088,2,0,P|252:169|327:201,2,127.50000243187,8|2|8,0:0|0:0|0:0,0:0:0:0:
255,328,4338,6,0,P|324:352|392:326,1,127.50000243187,2|8,0:0|0:0,0:0:0:0:
315,196,5172,2,0,P|335:125|305:58,2,127.50000243187,2|8|2,0:0|0:0|0:0,0:0:0:0:
181,131,6422,6,0,B|118:211|118:211|136:269,1,127.50000243187,8|2,0:0|0:0,0:0:0:0:
186,281,7047,1,0,0:0:0:0:
259,300,7255,2,0,B|322:220|322:220|307:173,2,127.50000243187,8|2|8,0:0|0:0|0:0,0:0:0:0:
188,163,8922,6,0,P|164:94|203:34,1,127.50000243187,8|2,0:0|0:0,0:0:0:0:
257,19,9547,1,0,0:0:0:0:
318,63,9755,2,0,B|318:113|318:113|294:149|294:149|295:205,2,127.50000243187,8|2|8,0:0|0:0|0:0,0:0:0:0:
208,170,11005,1,2,0:0:0:0:
82,257,11422,6,0,B|82:209|82:209|120:165|120:165|121:98,1,127.50000243187,8|2,0:0|0:0,0:0:0:0:
120,66,12047,1,0,0:0:0:0:
198,45,12255,2,0,P|251:70|344:46,1,127.50000243187,8|2,0:0|0:0,0:0:0:0:
470,62,13088,6,0,P|486:130|442:197,1,127.50000243187,8|2,0:0|0:0,0:0:0:0:
323,246,13922,2,0,L|323:167,2,63.7500012159348,2|0|2,0:0|0:0|0:0,0:0:0:0:
171,268,14755,2,0,P|108:240|91:160,1,127.50000243187,0|2,0:0|0:0,0:0:0:0:
120,39,15588,6,0,P|188:16|281:48,2,127.50000243187,8|2|8,0:0|0:0|0:0,0:0:0:0:
201,177,16838,2,0,P|272:195|342:172,1,127.50000243187,2|8,0:0|0:0,0:0:0:0:
431,74,17672,1,2,0:0:0:0:
323,182,18088,6,0,P|325:117|261:59,1,127.50000243187,8|2,0:0|0:0,0:0:0:0:
218,36,18713,1,0,0:0:0:0:
149,70,18922,2,0,P|87:109|59:187,1,127.50000243187,8|2,0:0|0:0,0:0:0:0:
63,308,19755,6,0,P|130:327|206:298,1,127.50000243187,8|2,0:0|0:0,0:0:0:0:
313,230,20588,2,0,P|246:211|170:240,1,127.50000243187,8|2,0:0|0:0,0:0:0:0:
122,257,21213,1,0,0:0:0:0:
46,267,21422,2,0,P|11:208|23:145,1,127.50000243187,8|2,0:0|0:0,0:0:0:0:
107,27,22255,6,0,L|161:168,2,127.50000243187,8|2|8,0:0|0:0|0:0,0:0:0:0:
19,152,23505,1,2,0:0:0:0:
122,257,23922,2,0,P|177:296|249:288,1,127.50000243187,8|2,0:0|0:0,0:0:0:0:
370,222,24755,6,0,P|382:295|368:368,1,127.50000243187,8|2,0:0|0:0,0:0:0:0:
234,294,25588,2,0,P|222:221|236:148,1,127.50000243187,8|2,0:0|0:0,0:0:0:0:
345,67,26422,6,0,L|345:3,2,63.7500012159348,2|0|2,0:0|0:0|0:0,0:0:0:0:
333,219,27255,2,0,L|333:282,2,63.7500012159348,2|0|2,0:0|0:0|0:0,0:0:0:0:
345,67,28088,2,0,P|270:45|178:92,1,127.50000243187,4|2,0:0|0:0,0:0:0:0:
159,195,28922,2,0,P|229:217|299:195,1,127.50000243187,8|2,0:0|0:0,0:0:0:0:
350,175,29547,1,0,0:0:0:0:
424,159,29755,2,0,P|404:98|370:44,1,127.50000243187,8|2,0:0|0:0,0:0:0:0:
222,80,30588,6,0,P|189:134|169:195,1,127.50000243187,8|2,0:0|0:0,0:0:0:0:
212,259,31213,1,0,0:0:0:0:
286,241,31422,2,0,P|319:186|340:126,1,127.50000243187,8|2,0:0|0:0,0:0:0:0:
226,23,32255,6,0,P|166:6|92:28,1,127.50000243187,8|2,0:0|0:0,0:0:0:0:
155,160,33088,2,0,P|216:171|269:140,1,127.50000243187,8|2,0:0|0:0,0:0:0:0:
395,42,33922,6,0,L|366:192,1,127.50000243187,8|2,0:0|0:0,0:0:0:0:
335,235,34547,1,0,0:0:0:0:
270,265,34755,2,0,P|260:202|272:136,1,127.50000243187,8|2,0:0|0:0,0:0:0:0:
286,13,35588,6,0,P|223:20|169:53,1,127.50000243187,8|2,0:0|0:0,0:0:0:0:
195,204,36422,2,0,P|267:211|326:167,2,127.50000243187,8|2|8,0:0|0:0|0:0,0:0:0:0:
169,53,37672,1,2,0:0:0:0:
195,204,38088,6,0,B|192:254|192:254|215:293|215:293|215:325,1,127.50000243187,8|2,0:0|0:0,0:0:0:0:
340,348,38922,2,0,P|416:362|476:324,1,127.50000243187,8|2,0:0|0:0,0:0:0:0:
510,224,39755,2,0,P|434:210|374:248,1,127.50000243187,8|2,0:0|0:0,0:0:0:0:
290,309,40588,2,0,L|290:181,2,127.50000243187,8|2|4,0:0|0:0|0:0,0:0:0:0:
459,341,42255,6,0,L|442:187,1,150,8|2,0:0|0:0,0:0:0:0:
429,117,42880,1,0,0:0:0:0:
369,71,43088,2,0,P|299:94|259:156,1,150,8|2,0:0|0:0,0:0:0:0:
179,283,43922,2,0,L|329:293,1,150,8|2,0:0|0:0,0:0:0:0:
463,359,44755,2,0,L|446:209,1,150,8|2,0:0|0:0,0:0:0:0:
386,72,45588,6,0,P|343:132|339:206,1,150,8|2,0:0|0:0,0:0:0:0:
354,279,46213,1,0,0:0:0:0:
398,344,46422,2,0,P|440:283|446:209,1,150,8|2,0:0|0:0,0:0:0:0:
418,61,47255,2,0,L|266:49,1,150,8|2,0:0|0:0,0:0:0:0:
118,49,48088,2,0,B|121:102|121:102|155:134|155:134|155:185,1,150,8|2,0:0|0:0,0:0:0:0:
194,329,48922,6,0,B|227:355|227:355|344:362,1,150,8|2,0:0|0:0,0:0:0:0:
398,321,49547,1,0,0:0:0:0:
422,250,49755,2,0,B|427:207|427:207|376:103,1,150,8|2,0:0|0:0,0:0:0:0:
250,34,50588,2,0,P|126:36|95:53,1,150,8|2,0:0|0:0,0:0:0:0:
63,191,51422,2,0,P|52:313|66:347,1,150,8|2,0:0|0:0,0:0:0:0:
210,336,52255,2,0,L|359:333,1,150,8|2,0:0|0:0,0:0:0:0:
484,240,53088,6,0,P|521:176|512:103,1,150,8|2,0:0|0:0,0:0:0:0:
450,59,53713,1,0,0:0:0:0:
383,24,53921,2,0,P|345:87|355:160,1,150,8|2,0:0|0:0,0:0:0:0:
437,286,54755,6,0,L|288:287,2,150,12|8|10,0:0|0:0|0:0,0:0:0:0:
458,137,56004,1,8,0:0:0:0:
383,6,56422,6,0,L|286:121,1,150,10|8,0:0|0:0,0:0:0:0:
284,195,57047,1,0,0:0:0:0:
308,265,57255,2,0,P|379:293|439:253,1,150,10|8,0:0|0:0,0:0:0:0:
374,119,58088,6,0,P|413:55|485:50,2,150,12|8|10,0:0|0:0|0:0,0:0:0:0:
374,269,59338,1,8,0:0:0:0:
231,315,59755,2,0,L|81:323,1,150,10|8,0:0|0:0,0:0:0:0:
31,266,60380,1,0,0:0:0:0:
47,192,60588,2,0,P|107:151|179:165,1,150,10|8,0:0|0:0,0:0:0:0:
309,241,61422,6,0,L|459:219,2,150,12|8|10,0:0|0:0|0:0,0:0:0:0:
188,330,62672,1,8,0:0:0:0:
86,220,63088,2,0,P|135:164|204:137,1,150,10|8,0:0|0:0,0:0:0:0:
263,183,63713,1,0,0:0:0:0:
309,241,63922,2,0,P|380:258|449:228,1,150,10|8,0:0|0:0,0:0:0:0:
491,84,64755,2,0,P|419:66|352:95,1,150,10|8,0:0|0:0,0:0:0:0:
204,137,65588,6,0,P|194:210|242:262,1,150,10|8,0:0|0:0,0:0:0:0:
372,338,66422,2,0,P|445:356|471:285,2,150,12|8|10,0:0|0:0|0:0,0:0:0:0:
375,187,67672,1,8,0:0:0:0:
256,192,68088,12,2,71422,0:0:0:0:
