osu file format v14

[General]
AudioFilename: audio.mp3
AudioLeadIn: 0
PreviewTime: 41210
Countdown: 0
SampleSet: Soft
StackLeniency: 0.7
Mode: 0
LetterboxInBreaks: 0
WidescreenStoryboard: 1

[Editor]
DistanceSpacing: 0.8
BeatDivisor: 4
GridSize: 16
TimelineZoom: 1.5

[Metadata]
Title:Rude
TitleUnicode:Rude
Artist:MAGIC!
ArtistUnicode:MAGIC!
Creator:FaZZeR
Version:Beginner
Source:
Tags:english Don't kill the magic Nasri Atweh Mark Pellizzer Ben Spivak Alex Tanas Adam Messinger love pop band reggae fusion
BeatmapID:2249388
BeatmapSetID:1074582

[Difficulty]
HPDrainRate:2
CircleSize:2.2
OverallDifficulty:2
ApproachRate:4
SliderMultiplier:1.2
SliderTickRate:1

[Events]
//Background and Video events
0,0,"bg.jpg",0,0
//Break Periods
//Storyboard Layer 0 (Background)
//Storyboard Layer 1 (Fail)
//Storyboard Layer 2 (Pass)
//Storyboard Layer 3 (Foreground)
//Storyboard Layer 4 (Overlay)
//Storyboard Sound Samples

[TimingPoints]
1422,416.666666666667,4,2,1,50,1,0
13713,-100,4,3,1,35,0,0
15172,-100,4,2,1,50,0,0
26422,-100,4,3,1,40,0,0
28088,-100,4,2,1,70,0,0
28505,-100,4,2,1,60,0,0
40588,-100,4,3,1,45,0,0
41422,-100,4,2,1,70,0,1
41838,-100,4,2,2,50,0,1
54338,-100,4,2,2,35,0,1
54755,-100,4,2,2,80,0,1
55172,-100,4,2,2,50,0,1
68088,-100,4,2,1,5,0,0
71422,-100,4,2,1,35,0,0

[Colours]
Combo1 : 244,244,0
Combo2 : 7,240,175
Combo3 : 0,128,255
Combo4 : 0,255,255
Combo5 : 253,171,2

[HitObjects]
447,79,2255,6,0,P|335:47|239:111,1,240,8|2,0:0|0:0,0:0:0:0:
170,179,3505,1,8,0:0:0:0:
102,246,3922,2,0,P|213:278|310:213,1,240,2|8,0:0|0:0,0:0:0:0:
413,51,5588,6,0,B|378:204|474:124|444:282,1,240,2|8,0:0|0:0,0:0:0:0:
376,346,6838,1,2,0:0:0:0:
279,348,7255,2,0,P|163:334|72:228,1,240,8|2,0:0|0:0,0:0:0:0:
18,47,8922,6,0,B|92:29|92:29|162:68|162:68|265:36,1,240,8|2,0:0|0:0,0:0:0:0:
337,31,10172,1,8,0:0:0:0:
432,30,10588,2,0,P|514:128|475:234,2,240,2|8|2,0:0|0:0|0:0,0:0:0:0:
338,54,12672,1,0,0:0:0:0:
261,111,13088,6,0,B|261:159|301:188|301:188|351:188|382:135,2,180,8|0|2,0:0|0:0|0:0,0:0:0:0:
205,32,14755,6,0,P|128:122|128:261,1,240,6|8,0:0|0:0,0:0:0:0:
183,311,16005,1,2,0:0:0:0:
277,330,16422,2,0,B|290:245|290:245|336:201|336:201|349:101,1,240,8|2,0:0|0:0,0:0:0:0:
396,28,17672,1,8,0:0:0:0:
479,74,18088,2,0,P|491:191|395:294,1,240,2|8,0:0|0:0,0:0:0:0:
234,338,19755,6,0,P|122:356|65:241,1,240,2|8,0:0|0:0,0:0:0:0:
28,170,21005,1,2,0:0:0:0:
24,74,21422,2,0,P|136:56|233:143,1,240,8|2,0:0|0:0,0:0:0:0:
271,217,22672,1,2,0:0:0:0:
327,296,23088,6,0,B|324:141|398:230|369:66,1,240,2|8,0:0|0:0,0:0:0:0:
286,19,24338,1,2,0:0:0:0:
190,13,24755,2,0,P|81:57|36:187,1,240,8|2,0:0|0:0,0:0:0:0:
33,259,26005,1,0,0:0:0:0:
73,345,26422,2,0,P|193:347|292:262,1,240,8|8,0:0|0:0,0:0:0:0:
419,140,28088,6,0,P|363:40|225:36,1,240,4|2,0:0|0:0,0:0:0:0:
158,62,29338,1,0,0:0:0:0:
78,118,29755,2,0,P|134:218|272:222,1,240,8|0,0:0|0:0,0:0:0:0:
317,164,31005,1,2,0:0:0:0:
383,95,31422,2,0,P|461:183|447:307,2,240,8|2|8,0:0|0:0|0:0,0:0:0:0:
291,65,33505,1,0,0:0:0:0:
195,52,33922,6,0,P|128:149|136:281,1,240,2|8,0:0|0:0,0:0:0:0:
172,354,35172,1,2,0:0:0:0:
267,360,35588,2,0,P|319:254|293:124,1,240,8|2,0:0|0:0,0:0:0:0:
227,74,36838,1,0,0:0:0:0:
156,9,37255,6,0,P|69:86|66:220,1,240,8|2,0:0|0:0,0:0:0:0:
116,281,38505,1,8,0:0:0:0:
207,309,38922,2,0,B|288:324|359:266|359:266|431:305,2,240,2|8|2,0:0|0:0|0:0,0:0:0:0:
14,304,41422,6,0,P|22:136|48:67,1,240,4|8,0:0|0:0,0:0:0:0:
118,8,42672,1,2,0:0:0:0:
213,12,43088,2,0,P|335:35|436:111,2,240,8|2|8,0:0|0:0|0:0,0:0:0:0:
22,37,45588,6,0,P|39:153|105:262,1,240,2|8,0:0|0:0,0:0:0:0:
177,315,46838,1,2,0:0:0:0:
268,344,47255,2,0,P|385:360|482:288,2,240,8|2|8,0:0|0:0|0:0,0:0:0:0:
185,294,49338,1,0,0:0:0:0:
132,208,49755,6,0,B|188:142|270:131|270:131|343:159,1,240,2|8,0:0|0:0,0:0:0:0:
418,219,51005,1,2,0:0:0:0:
456,307,51422,2,0,P|345:346|219:297,2,240,8|2|8,0:0|0:0|0:0,0:0:0:0:
456,210,53505,1,0,0:0:0:0:
430,117,53922,2,0,B|338:126|338:126|293:99|293:99|198:107,1,240,2|4,0:0|0:0,0:0:0:0:
102,106,55172,1,2,0:0:0:0:
6,106,55588,6,0,P|30:220|128:282,2,240,8|2|8,0:0|0:0|0:0,0:0:0:0:
51,21,57672,1,10,0:0:0:0:
146,26,58088,2,0,P|254:69|298:177,2,240,12|10|8,0:0|0:0|0:0,0:0:0:0:
86,102,60172,1,2,0:0:0:0:
39,186,60588,6,0,B|-13:266|10:347|10:347|90:348,2,240,10|12|10,0:0|0:0|0:0,0:0:0:0:
108,119,62672,1,8,0:0:0:0:
195,79,63088,2,0,B|260:56|260:56|310:124|288:218,2,240,10|8|10,0:0|0:0|0:0,0:0:0:0:
128,149,65172,1,8,0:0:0:0:
56,212,65588,2,0,B|46:271|125:294|125:294|145:357|216:359,1,240,10|10,0:0|0:0,0:0:0:0:
336,209,67255,6,0,B|346:150|267:127|267:127|247:64|176:62,1,240,2|0,3:0|0:0,0:0:0:0:
256,192,68505,12,2,71422,0:0:0:0:
