osu file format v14

[General]
AudioFilename: audio.mp3
AudioLeadIn: 0
PreviewTime: 41210
Countdown: 0
SampleSet: Soft
StackLeniency: 0.7
Mode: 0
LetterboxInBreaks: 0
WidescreenStoryboard: 1

[Editor]
DistanceSpacing: 1.2
BeatDivisor: 4
GridSize: 32
TimelineZoom: 2.5

[Metadata]
Title:Rude
TitleUnicode:Rude
Artist:MAGIC!
ArtistUnicode:MAGIC!
Creator:FaZZeR
Version:Advanced
Source:
Tags:english Don't kill the magic Nasri Atweh Mark Pellizzer Ben Spivak Alex Tanas Adam Messinger love pop band reggae fusion
BeatmapID:2248761
BeatmapSetID:1074582

[Difficulty]
HPDrainRate:5
CircleSize:3.5
OverallDifficulty:5
ApproachRate:6
SliderMultiplier:1.6
SliderTickRate:1

[Events]
//Background and Video events
0,0,"bg.jpg",0,0
//Break Periods
//Storyboard Layer 0 (Background)
//Storyboard Layer 1 (Fail)
//Storyboard Layer 2 (Pass)
//Storyboard Layer 3 (Foreground)
//Storyboard Layer 4 (Overlay)
//Storyboard Sound Samples

[TimingPoints]
1422,416.666666666667,4,2,0,100,1,0
1422,-133.333333333333,4,2,0,60,0,0
41422,-100,4,2,0,65,0,1
68088,-133.333333333333,4,2,0,40,0,0

[Colours]
Combo1 : 244,244,0
Combo2 : 7,240,175
Combo3 : 0,128,255
Combo4 : 0,255,255
Combo5 : 253,171,2

[HitObjects]
458,38,1422,6,0,L|409:170,1,120.000004577637,2|0,0:0|0:0,0:0:0:0:
326,252,2255,2,0,P|362:289|422:292,2,90.0000034332277,2|2|0,0:0|0:0|0:0,0:0:0:0:
317,175,3088,2,0,P|290:113|229:90,1,120.000004577637,2|0,0:3|0:0,0:0:0:0:
185,42,3713,1,0,3:0:0:0:
119,82,3922,2,0,P|62:108|39:166,1,120.000004577637,2|0,0:0|0:0,0:0:0:0:
163,353,4755,6,0,P|205:311|214:246,1,120.000004577637,2|0,3:0|3:0,0:0:0:0:
260,188,5380,1,0,3:0:0:0:
309,249,5588,2,0,P|316:311|359:356,1,120.000004577637,2|2,0:3|0:0,0:0:0:0:
449,170,6422,6,0,L|380:182,1,60.0000022888184,2|0,0:0|3:0,0:0:0:0:
368,256,6838,2,0,L|299:247,1,60.0000022888184
260,188,7255,2,0,L|195:196,1,60.0000022888184,2|0,3:0|0:0,0:0:0:0:
167,266,7672,2,0,P|124:217|142:149,1,120.000004577637,8|2,0:0|0:0,0:0:0:0:
228,62,8505,1,0,3:0:0:0:
346,147,8922,6,0,P|387:99|397:48,2,90.0000034332277,2|2|0,0:0|0:0|0:0,0:0:0:0:
281,191,9755,2,0,P|228:165|154:204,1,120.000004577637,2|0,0:3|0:0,0:0:0:0:
133,254,10380,1,0,3:0:0:0:
187,310,10588,2,0,L|317:300,1,120.000004577637,2|0,0:0|0:0,0:0:0:0:
462,226,11422,6,0,P|457:157|420:113,1,120.000004577637,2|0,0:0|3:0,0:0:0:0:
360,77,12047,1,0,3:0:0:0:
306,133,12255,1,2,0:3:0:0:
212,258,12672,1,2,0:0:0:0:
132,85,13088,6,0,B|166:160|166:160|154:207,2,120.000004577637,0|0|0,0:0|0:0|1:0,0:0:0:0:
76,29,14130,1,0,1:0:0:0:
20,84,14338,1,8,0:3:0:0:
78,289,14755,6,0,L|207:312,1,120.000004577637,4|0,0:3|0:0,0:0:0:0:
336,328,15588,2,0,P|383:342|436:312,2,90.0000034332277,0|2|2,1:0|0:0|0:0,0:0:0:0:
377,257,16422,2,0,P|342:198|284:160,1,120.000004577637,4|8,0:3|0:0,0:0:0:0:
209,98,17255,6,0,P|180:65|113:55,2,90.0000034332277,0|2|2,1:0|0:0|0:0,0:0:0:0:
161,165,18088,2,0,L|102:164,1,60.0000022888184,4|0,0:3|0:0,0:0:0:0:
196,239,18505,2,0,L|256:238,1,60.0000022888184,8|8,0:0|0:0,0:0:0:0:
182,319,18922,2,0,P|111:319|67:278,1,120.000004577637,0|8,1:0|0:0,0:0:0:0:
68,72,19755,6,0,L|69:133,1,60.0000022888184,4|0,0:3|0:0,0:0:0:0:
161,165,20172,2,0,L|161:105,1,60.0000022888184,8|0,0:0|3:0,0:0:0:0:
225,42,20588,1,0,1:0:0:0:
329,173,21005,5,8,0:0:0:0:
328,89,21213,1,8,0:0:0:0:
387,29,21422,2,0,P|425:58|428:127,1,120.000004577637
341,260,22255,6,0,P|376:318|417:335,2,90.0000034332277,0|2|2,1:0|0:0|0:0,0:0:0:0:
341,182,23088,1,0,0:0:0:0:
230,71,23505,1,8,0:0:0:0:
115,176,23922,2,0,P|95:199|83:226,1,60.0000022888184,0|0,1:0|0:0,0:0:0:0:
132,296,24338,2,0,P|151:273|163:246,1,60.0000022888184,8|0,0:0|0:0,0:0:0:0:
206,180,24755,6,0,B|270:188|314:248,1,120.000004577637
193,345,25588,1,0,1:0:0:0:
206,180,26005,1,2,0:3:0:0:
125,156,26213,1,2,0:3:0:0:
83,225,26422,6,0,P|40:190|37:163,2,60.0000022888184,0|0|0,1:0|3:0|1:0,0:0:0:0:
143,67,27255,1,0,1:0:0:0:
223,59,27463,1,8,0:3:0:0:
288,112,27672,2,0,L|335:158,1,60.0000022888184,4|0,0:3|0:0,0:0:0:0:
379,215,28088,6,0,L|458:119,1,120.000004577637,4|0,0:1|0:0,0:0:0:0:
488,275,28922,2,0,L|411:367,1,120.000004577637,8|0,0:0|0:0,0:0:0:0:
334,358,29547,1,0,0:0:0:0:
262,326,29755,2,0,P|227:262|248:194,1,120.000004577637,2|0,0:0|0:0,0:0:0:0:
358,215,30588,2,0,P|362:142|314:89,1,120.000004577637,8|0,0:0|0:0,0:0:0:0:
154,75,31422,5,4,0:1:0:0:
42,145,31838,1,0,0:0:0:0:
42,277,32255,1,8,0:0:0:0:
42,145,32672,5,0,0:0:0:0:
123,126,32880,1,0,0:0:0:0:
158,200,33088,2,0,P|205:248|271:245,1,120.000004577637,2|2,0:0|0:0,0:0:0:0:
293,318,33713,2,0,P|328:271|321:213,1,120.000004577637,8|8,0:0|0:0,0:0:0:0:
306,136,34338,5,4,0:3:0:0:
267,64,34547,1,0,3:0:0:0:
194,101,34755,2,0,P|153:109|129:131,1,60.0000022888184
133,209,35172,2,0,P|163:206|188:190,1,60.0000022888184
269,206,35588,2,0,P|270:176|259:149,1,60.0000022888184
322,82,36005,2,0,P|297:66|268:64,1,60.0000022888184
189,63,36422,6,0,P|126:71|63:115,2,120.000004577637,2|0|8,0:0|0:0|0:0,0:0:0:0:
189,219,37672,1,0,0:3:0:0:
265,233,37880,1,8,0:0:0:0:
299,164,38088,2,0,B|381:143|381:143|421:171,1,120.000004577637,8|0,0:3|0:0,0:0:0:0:
496,293,38922,1,0,0:0:0:0:
358,366,39338,5,2,0:0:0:0:
301,312,39547,1,2,0:3:0:0:
314,237,39755,2,0,P|311:176|269:124,1,120.000004577637,4|0,0:0|0:0,0:0:0:0:
198,264,40588,2,0,P|194:303|205:341,2,80.0000030517579,0|8|4,0:1|0:3|0:3,0:0:0:0:
62,231,41422,6,0,P|81:159|149:84,1,160,4|2,0:2|0:0,0:0:0:0:
307,60,42255,1,8,0:0:0:0:
363,134,42463,1,8,0:0:0:0:
309,214,42672,1,2,0:0:0:0:
370,287,42880,1,8,0:0:0:0:
316,367,43088,2,0,P|245:321|213:244,1,160,4|8,0:3|0:0,0:0:0:0:
94,135,43922,2,0,P|153:73|237:65,1,160,0|8,1:0|0:0,0:0:0:0:
195,162,44547,1,8,0:0:0:0:
94,135,44755,2,0,B|146:290,1,160,0|8,0:0|0:2,0:0:0:0:
265,323,45588,5,0,1:0:0:0:
336,261,45797,1,0,1:0:0:0:
278,187,46005,1,2,0:0:0:0:
340,118,46213,1,2,0:0:0:0:
278,58,46422,2,0,P|219:74|202:177,1,160,4|8,0:3|0:2,0:0:0:0:
243,322,47255,1,0,1:0:0:0:
411,373,47672,1,4,0:2:0:0:
451,304,47880,1,8,0:2:0:0:
404,239,48088,6,0,B|387:140|431:177|407:81,1,160,0|2,0:0|0:0,0:0:0:0:
246,43,48922,2,0,L|246:122,1,80,8|0,0:0|3:0,0:0:0:0:
144,224,49338,2,0,L|144:144,1,80,8|8,0:0|0:0,0:0:0:0:
144,39,49755,1,4,0:3:0:0:
250,218,50172,1,4,0:0:0:0:
343,32,50588,1,0,1:0:0:0:
432,164,51005,2,0,L|324:179,1,80,4|4,0:3|0:3,0:0:0:0:
270,135,51422,6,0,P|332:204|300:287,1,160,0|2,3:0|0:0,0:0:0:0:
205,340,52255,2,0,B|124:272|209:283|117:196,1,160,0|2,1:0|0:3,0:0:0:0:
74,100,53088,2,0,P|198:95|216:139,1,160,0|2,1:0|0:3,0:0:0:0:
275,177,53713,1,8,0:3:0:0:
343,245,53922,2,0,P|384:264|448:240,1,80,0|8,1:0|0:0,0:0:0:0:
485,192,54338,1,4,0:0:0:0:
425,26,54755,5,4,0:0:0:0:
414,122,54963,1,2,0:0:0:0:
326,159,55172,2,0,P|287:89|202:54,1,160,2|0,0:3|0:0,0:0:0:0:
41,55,56005,2,0,L|41:140,1,80,8|0,0:0|3:0,0:0:0:0:
41,223,56422,2,0,B|96:257|164:212|164:212|207:248|266:235,2,240,4|4|0,0:3|0:3|1:0,0:0:0:0:
187,320,58088,5,4,2:0:0:0:
163,218,58297,1,2,2:0:0:0:
252,165,58505,2,0,P|296:220|286:315,1,160,2|0,2:3|2:0,2:0:0:0:
99,290,59338,1,8,0:0:0:0:
291,305,59755,2,0,P|321:233|292:157,1,160,4|0,0:3|0:0,0:0:0:0:
229,87,60380,2,0,P|198:158|231:233,1,160,4|0,0:3|1:0,0:0:0:0:
291,305,61005,1,0,1:0:0:0:
106,317,61422,6,0,L|106:228,1,80,4|2,0:0|0:0,0:0:0:0:
30,167,61838,2,0,P|91:136|176:164,1,160,2|0,0:3|0:0,0:0:0:0:
172,371,62672,1,8,0:0:0:0:
321,310,63088,2,0,L|322:148,1,160,4|0,0:3|0:0,0:0:0:0:
374,75,63713,2,0,B|315:33|251:86|251:86|208:50|149:63,1,240,4|0,0:3|1:0,0:0:0:0:
193,229,64755,6,0,P|157:326|17:331,2,240,4|4|0,0:3|0:3|1:0,0:0:0:0:
306,342,66422,1,2,0:0:0:0:
418,229,66838,2,0,L|321:220,1,80,2|0,0:0|0:0,0:0:0:0:
281,164,67255,2,0,L|281:80,2,80,0|8|4,0:0|0:3|0:2,0:0:0:0:
256,192,68088,12,2,71422,0:0:0:0:
