osu file format v14

[General]
AudioFilename: audio.mp3
AudioLeadIn: 0
PreviewTime: 53811
Countdown: 0
SampleSet: Soft
StackLeniency: 0.4
Mode: 0
LetterboxInBreaks: 0
WidescreenStoryboard: 1

[Editor]
Bookmarks: 6175,54175,64721
DistanceSpacing: 1
BeatDivisor: 4
GridSize: 32
TimelineZoom: 1.8

[Metadata]
Title:RISE (TV Size)
TitleUnicode:RISE (TV Size)
Artist:MADKID
ArtistUnicode:MADKID
Creator:spoes
Version:VANGUARD
Source:盾の勇者の成り上がり
Tags:マッドキッド tate no yuusha no nariagari the rising of the shield hero opening op anime japanese jp
BeatmapID:2262937
BeatmapSetID:1081792

[Difficulty]
HPDrainRate:5.5
CircleSize:4.5
OverallDifficulty:8.5
ApproachRate:9.2
SliderMultiplier:1.65
SliderTickRate:1

[Events]
//Background and Video events
0,0,"1038088.jpg",0,0
Video,-75,"ShieldHero.mp4"
//Break Periods
//Storyboard Layer 0 (Background)
//Storyboard Layer 1 (Fail)
//Storyboard Layer 2 (Pass)
//Storyboard Layer 3 (Foreground)
//Storyboard Layer 4 (Overlay)
//Storyboard Sound Samples

[TimingPoints]
4721,363.636363636364,4,2,1,70,1,0
5811,-100,4,2,1,50,0,0
6175,-76.9230769230769,4,2,1,70,0,0
17811,-76.9230769230769,4,2,2,50,0,0
17993,-125,4,2,2,50,0,0
26539,-100,4,2,1,60,0,0
29459,363.636363636364,4,2,1,70,1,0
29459,-100,4,2,1,70,0,0
34913,-100,4,2,1,70,0,0
35282,363.636363636364,4,2,1,70,1,0
35282,-100,4,2,1,70,0,0
38181,363.636363636364,4,2,1,70,1,0
38181,-100,4,2,1,70,0,0
41084,-111.111111111111,4,2,1,60,0,0
42902,-111.111111111111,4,2,1,60,0,0
43266,-111.111111111111,4,2,1,60,0,0
45811,-111.111111111111,4,2,1,60,0,0
46175,-111.111111111111,4,2,1,60,0,0
48721,-111.111111111111,4,2,1,60,0,0
49084,-111.111111111111,4,2,1,60,0,0
49811,-83.3333333333333,4,2,1,75,0,0
52181,-83.3333333333333,4,2,2,55,0,0
52362,-83.3333333333333,4,2,1,55,0,0
53811,-55.5555555555556,4,2,1,75,0,0
54181,-66.6666666666667,4,2,3,90,0,1
54356,-66.6666666666667,4,2,1,90,0,1
55448,-66.6666666666667,4,2,1,90,0,1
55630,-66.6666666666667,4,2,1,90,0,1
56721,-66.6666666666667,4,2,1,90,0,1
59811,-66.6666666666667,4,2,1,90,0,1
60181,-66.6666666666667,4,2,1,5,0,1
60303,-66.6666666666667,4,2,1,90,0,1
60484,-66.6666666666667,4,2,1,5,0,1
60545,-66.6666666666667,4,2,1,90,0,1
61635,-66.6666666666667,4,2,1,5,0,1
61757,-66.6666666666667,4,2,1,90,0,1
61938,-66.6666666666667,4,2,1,5,0,1
61999,-66.6666666666667,4,2,1,90,0,1
65448,-66.6666666666667,4,2,1,90,0,1
65811,-66.6666666666667,4,2,3,90,0,1
65992,-66.6666666666667,4,2,1,90,0,1
67084,-66.6666666666667,4,2,1,90,0,1
67266,-66.6666666666667,4,2,1,90,0,1
68357,-66.6666666666667,4,2,1,90,0,1
68721,-66.6666666666667,4,2,1,90,0,1
71817,-66.6666666666667,4,2,1,5,0,1
71939,-66.6666666666667,4,2,1,90,0,1
72120,-66.6666666666667,4,2,1,5,0,1
72181,-66.6666666666667,4,2,1,90,0,1
73271,-66.6666666666667,4,2,1,5,0,1
73393,-66.6666666666667,4,2,1,90,0,1
73574,-66.6666666666667,4,2,1,5,0,1
73635,-66.6666666666667,4,2,1,90,0,1
77084,-66.6666666666667,4,2,1,90,0,1
77453,-76.9230769230769,4,2,1,70,0,0
87630,-76.9230769230769,4,2,1,80,0,0

[Colours]
Combo1 : 251,38,102
Combo2 : 97,98,116
Combo3 : 183,184,200
Combo4 : 141,99,99
Combo5 : 189,94,96
Combo6 : 200,11,49

[HitObjects]
256,192,4721,12,12,5811,0:0:0:0:
0,192,6175,38,0,B|54:188|54:188|95:210|95:210|173:203,1,160.874992635727,4|2,1:2|0:0,0:0:0:0:
291,300,6539,2,0,P|254:276|200:285,1,53.6249975452424,8|2,0:0|0:0,0:0:0:0:
166,327,6721,1,2,0:0:0:0:
373,202,6902,1,2,0:0:0:0:
382,241,6993,1,2,0:0:0:0:
389,277,7084,1,2,1:2:0:0:
263,112,7266,1,8,0:0:0:0:
293,123,7357,1,2,0:0:0:0:
325,125,7448,1,2,0:0:0:0:
356,116,7539,1,2,0:0:0:0:
381,96,7630,6,0,P|332:57|199:60,1,160.874992635727,0|2,1:0|0:0,0:0:0:0:
160,185,7993,2,0,L|152:133,1,53.6249975452424,8|2,0:0|0:0,0:0:0:0:
87,69,8175,1,2,0:0:0:0:
66,248,8357,1,2,0:0:0:0:
62,279,8448,1,2,0:0:0:0:
58,310,8539,1,2,1:2:0:0:
310,229,8721,1,8,0:0:0:0:
280,216,8811,1,2,0:0:0:0:
247,217,8902,1,2,0:0:0:0:
216,226,8993,1,2,0:0:0:0:
192,248,9084,70,0,L|166:77,1,160.874992635727,0|2,1:0|0:0,0:0:0:0:
89,15,9448,1,8,0:0:0:0:
369,112,9630,2,0,B|319:133|319:133|250:107|250:107|311:76,1,160.874992635727,2|2,0:0|0:0,0:0:0:0:
409,48,9993,1,0,1:0:0:0:
417,310,10175,1,8,0:0:0:0:
411,278,10266,1,2,0:0:0:0:
406,246,10357,1,2,0:0:0:0:
401,214,10448,1,2,0:0:0:0:
396,188,10539,6,0,B|323:216|323:216|234:183,1,160.874992635727,0|2,1:0|0:0,0:0:0:0:
135,79,10902,2,0,L|148:142,1,53.6249975452424,8|2,0:0|0:0,0:0:0:0:
91,214,11084,1,2,0:0:0:0:
291,9,11266,2,0,L|278:72,1,53.6249975452424,2|2,0:0|0:0,0:0:0:0:
335,144,11448,1,0,1:0:0:0:
491,0,11630,1,8,0:0:0:0:
497,32,11721,1,2,0:0:0:0:
502,64,11811,1,2,0:0:0:0:
507,96,11902,1,2,0:0:0:0:
512,128,11993,70,0,P|447:105|455:187,1,160.874992635727,0|2,1:0|0:0,0:0:0:0:
500,367,12357,2,0,P|512:341|509:303,1,53.6249975452424,8|2,0:0|0:0,0:0:0:0:
473,244,12539,1,2,0:0:0:0:
267,303,12721,1,2,0:0:0:0:
307,313,12811,1,2,0:0:0:0:
342,319,12902,1,2,1:2:0:0:
211,109,13084,1,8,0:0:0:0:
220,140,13175,1,2,0:0:0:0:
216,173,13266,1,2,0:0:0:0:
203,202,13357,1,2,0:0:0:0:
179,224,13448,6,0,B|225:224|254:201|254:201|282:225|346:227,1,160.874992635727,0|2,1:0|0:0,0:0:0:0:
474,155,13811,2,0,P|437:179|383:170,1,53.6249975452424,8|2,0:0|0:0,0:0:0:0:
347,128,13993,1,2,0:0:0:0:
491,336,14175,1,2,0:0:0:0:
495,294,14266,1,2,0:0:0:0:
496,259,14357,1,2,1:2:0:0:
255,332,14539,1,8,0:0:0:0:
280,311,14630,1,2,0:0:0:0:
310,302,14721,1,2,0:0:0:0:
343,303,14811,1,2,0:0:0:0:
373,316,14902,70,0,B|356:251|356:251|368:208|368:208|359:128,1,160.874992635727,0|2,1:0|0:0,0:0:0:0:
298,96,15266,1,8,0:0:0:0:
77,252,15448,2,0,B|110:249|132:264|132:264|162:226|162:226|195:239|240:223,1,160.874992635727,2|2,0:0|0:0,0:0:0:0:
198,153,15811,1,0,1:0:0:0:
188,325,15993,1,8,0:0:0:0:
220,319,16084,1,2,0:0:0:0:
252,314,16175,1,2,0:0:0:0:
284,309,16266,1,2,0:0:0:0:
316,304,16357,6,0,L|331:237,1,53.6249975452424,0|0,1:0|0:0,0:0:0:0:
388,177,16539,2,0,L|373:110,1,53.6249975452424,2|2,0:0|0:0,0:0:0:0:
238,20,16721,1,8,0:0:0:0:
235,51,16811,1,2,0:0:0:0:
240,82,16902,1,2,0:0:0:0:
236,114,16993,1,2,0:0:0:0:
241,146,17084,69,2,0:0:0:0:
63,216,17266,1,0,1:0:0:0:
35,32,17448,1,8,0:0:0:0:
80,24,17539,1,2,0:0:0:0:
121,49,17630,1,2,0:0:0:0:
142,87,17721,1,2,0:0:0:0:
136,137,17811,1,4,0:0:0:0:
63,216,17993,53,2,0:0:0:0:
130,284,18175,2,0,L|201:272,1,66,10|2,0:0|0:0,0:0:0:0:
214,280,18448,1,0,0:0:0:0:
230,286,18539,2,0,L|301:274,1,66,2|2,0:0|0:0,0:0:0:0:
396,311,18902,1,10,0:0:0:0:
396,311,19084,1,2,0:0:0:0:
481,252,19266,5,4,0:0:0:0:
385,218,19448,1,2,0:0:0:0:
287,179,19630,2,0,L|278:107,1,66,8|2,0:0|0:0,0:0:0:0:
267,97,19902,1,0,0:0:0:0:
257,83,19993,2,0,L|248:11,1,66,2|10,0:0|0:0,0:0:0:0:
165,69,20357,1,2,0:0:0:0:
165,69,20539,1,2,0:0:0:0:
75,22,20721,69,4,0:0:0:0:
16,151,20902,1,2,0:0:0:0:
88,201,21084,1,10,0:0:0:0:
159,242,21266,2,0,P|108:281|43:275,1,132,2|2,0:0|0:0,0:0:0:0:
88,201,21811,1,10,0:0:0:0:
213,329,21993,1,2,0:0:0:0:
213,329,22084,1,0,0:0:0:0:
213,329,22175,5,6,0:0:0:0:
275,268,22357,1,2,0:0:0:0:
354,310,22539,2,0,L|427:298,1,66,10|2,0:0|0:0,0:0:0:0:
289,364,22902,1,2,0:0:0:0:
356,229,23084,1,10,0:0:0:0:
356,229,23266,1,8,0:0:0:0:
257,122,23448,1,2,0:0:0:0:
257,122,23539,1,2,0:0:0:0:
257,122,23630,69,4,0:0:0:0:
320,56,23811,1,2,0:0:0:0:
172,119,23993,2,0,L|105:105,1,66,10|2,0:0|0:0,0:0:0:0:
22,79,24357,1,2,0:0:0:0:
89,20,24539,1,2,0:0:0:0:
127,194,24721,1,10,0:0:0:0:
40,166,24902,1,2,0:0:0:0:
176,50,25084,5,4,0:0:0:0:
40,166,25266,1,2,0:0:0:0:
208,222,25448,1,10,0:0:0:0:
333,101,25630,1,2,0:0:0:0:
333,101,25721,1,0,0:0:0:0:
333,101,25811,70,0,P|365:89|411:93,1,66,2|8,0:0|0:0,0:0:0:0:
454,200,26084,2,0,L|464:119,1,66,2|2,0:0|0:0,0:0:0:0:
393,257,26357,1,2,0:0:0:0:
484,359,26539,5,10,0:3:0:0:
23,123,26902,1,8,0:3:0:0:
200,66,27084,1,6,0:3:0:0:
125,132,27266,2,0,P|107:88|104:30,1,82.5,6|0,0:3|1:0,0:0:0:0:
293,306,27630,2,0,P|309:268|317:228,1,82.5,8|2,0:0|0:3,0:0:0:0:
37,332,27993,5,0,1:2:0:0:
200,258,28175,1,0,1:2:0:0:
365,346,28357,1,0,1:2:0:0:
511,267,28539,1,2,1:3:0:0:
291,37,28721,5,0,1:2:0:0:
303,132,28902,1,8,1:3:0:0:
318,228,29084,1,12,0:2:0:0:
291,37,29266,1,0,1:2:0:0:
0,145,29459,5,2,1:2:0:0:
45,149,29580,1,2,0:0:0:0:
87,130,29701,1,2,0:0:0:0:
121,57,29822,5,10,0:0:0:0:
161,35,29943,1,2,0:0:0:0:
205,33,30065,1,2,0:0:0:0:
349,120,30186,69,2,0:0:0:0:
280,86,30307,1,2,0:0:0:0:
342,48,30428,1,2,0:0:0:0:
288,159,30549,1,8,0:0:0:0:
424,341,30913,5,2,1:2:0:0:
382,360,31034,1,2,0:0:0:0:
336,356,31155,1,2,0:0:0:0:
257,303,31277,69,10,0:0:0:0:
212,292,31398,1,2,0:0:0:0:
169,307,31519,1,2,0:0:0:0:
67,338,31640,5,2,0:0:0:0:
107,273,31762,1,2,0:0:0:0:
49,210,31883,1,2,0:0:0:0:
92,117,32004,1,8,0:0:0:0:
101,125,32368,69,2,1:2:0:0:
45,199,32489,1,2,0:0:0:0:
116,262,32610,1,2,0:0:0:0:
62,327,32731,1,8,0:0:0:0:
342,259,32913,5,8,0:3:0:0:
272,323,33095,1,2,0:0:0:0:
270,142,33277,1,4,0:3:0:0:
363,354,33459,1,8,0:0:0:0:
475,193,33640,1,2,0:0:0:0:
481,216,33731,1,2,0:0:0:0:
488,238,33822,70,0,P|442:234|403:167,1,110,4|2,1:3|0:0,0:0:0:0:
423,0,34186,2,0,P|443:41|403:108,1,110,8|2,0:0|0:0,0:0:0:0:
261,175,34549,2,0,P|286:136|364:137,1,110,2|0,0:0|0:0,0:0:0:0:
257,331,34913,1,8,0:0:0:0:
12,145,35282,5,2,1:2:0:0:
54,126,35403,1,2,0:0:0:0:
100,130,35524,1,2,0:0:0:0:
166,179,35645,69,10,0:0:0:0:
212,183,35766,1,2,0:0:0:0:
254,164,35888,1,2,0:0:0:0:
372,68,36009,5,2,0:0:0:0:
302,91,36130,1,2,0:0:0:0:
356,138,36251,1,2,0:0:0:0:
316,23,36372,1,8,0:0:0:0:
295,291,36736,69,2,1:2:0:0:
249,303,36857,1,2,0:0:0:0:
205,292,36978,1,2,0:0:0:0:
143,222,37100,5,10,0:0:0:0:
98,211,37221,1,2,0:0:0:0:
53,224,37342,1,2,0:0:0:0:
99,304,37463,69,2,0:0:0:0:
200,85,37645,1,0,1:2:0:0:
373,305,37827,5,8,0:0:0:0:
400,308,37918,1,2,0:0:0:0:
429,300,38009,1,2,0:0:0:0:
452,281,38100,1,2,0:0:0:0:
466,257,38181,37,2,1:2:0:0:
383,101,38362,1,2,0:0:0:0:
378,123,38453,1,2,0:0:0:0:
373,146,38544,6,0,L|386:200,1,41.25,8|2,0:0|0:0,0:0:0:0:
277,60,38726,1,2,0:0:0:0:
487,155,38908,1,2,0:0:0:0:
487,155,38999,1,2,0:0:0:0:
487,155,39090,1,2,1:2:0:0:
310,259,39271,1,8,0:0:0:0:
285,262,39362,1,2,0:0:0:0:
260,265,39453,1,2,0:0:0:0:
235,268,39544,1,2,0:0:0:0:
210,271,39635,69,2,1:2:0:0:
18,191,39817,1,2,0:0:0:0:
39,198,39908,1,2,0:0:0:0:
61,205,39999,6,0,L|116:197,1,41.25,10|0,0:0|0:0,0:0:0:0:
25,338,40181,1,2,0:0:0:0:
208,152,40362,1,2,0:0:0:0:
65,52,40544,1,2,1:2:0:0:
183,276,40726,1,10,0:0:0:0:
492,191,41090,37,6,1:2:0:0:
398,283,41271,2,0,L|418:135,1,148.49999546814,2|2,0:0|0:0,0:0:0:0:
179,62,41817,2,0,B|255:35|232:144|334:93,1,148.49999546814,8|2,0:0|0:0,0:0:0:0:
191,147,42362,1,2,0:0:0:0:
156,144,42453,1,2,0:0:0:0:
124,142,42544,6,0,B|81:127|81:127|64:35,1,111.374996601105,0|0,1:2|0:0,0:0:0:0:
63,207,42908,2,0,B|106:222|106:222|123:314,1,111.374996601105,2|0,1:2|0:0,0:0:0:0:
0,141,43271,1,10,0:2:0:0:
226,229,43635,1,2,0:0:0:0:
240,226,43726,1,2,0:0:0:0:
254,223,43817,1,2,0:0:0:0:
268,220,43908,1,2,0:0:0:0:
282,217,43999,69,2,1:2:0:0:
153,336,44181,2,0,L|132:168,1,148.49999546814,2|2,0:0|0:0,0:0:0:0:
334,86,44726,2,0,B|258:59|281:168|179:117,1,148.49999546814,8|2,0:0|0:0,0:0:0:0:
344,191,45271,1,2,0:0:0:0:
379,188,45362,1,2,0:0:0:0:
412,185,45453,6,0,B|434:236|434:236|412:303,1,111.374996601105,0|0,1:2|0:0,0:0:0:0:
501,180,45817,1,2,1:2:0:0:
410,53,45999,1,2,0:0:0:0:
416,289,46181,1,10,0:2:0:0:
204,210,46544,1,2,0:0:0:0:
190,213,46635,1,2,0:0:0:0:
176,216,46726,1,2,0:0:0:0:
162,219,46817,1,2,0:0:0:0:
148,222,46908,69,2,1:2:0:0:
286,191,47090,1,2,0:0:0:0:
430,159,47271,1,2,0:0:0:0:
12,256,47635,5,8,0:0:0:0:
148,222,47817,1,2,0:0:0:0:
286,191,47999,1,2,0:0:0:0:
430,159,48181,1,2,0:0:0:0:
420,134,48271,1,2,0:0:0:0:
411,107,48362,70,0,B|430:65|430:65|417:47|417:47|435:-18,1,111.374996601105,2|0,1:2|0:0,0:0:0:0:
313,6,48726,2,0,B|324:47|324:47|311:65|311:65|330:107,1,111.374996601105,2|0,1:2|0:0,0:0:0:0:
378,223,49090,1,10,0:0:0:0:
146,85,49453,1,2,0:0:0:0:
154,105,49544,1,2,0:0:0:0:
159,127,49635,1,2,0:0:0:0:
154,149,49726,1,2,0:0:0:0:
140,172,49817,21,0,1:2:0:0:
67,204,49999,1,0,1:2:0:0:
0,161,50181,1,0,1:2:0:0:
73,126,50362,1,0,1:2:0:0:
241,306,50544,5,2,1:2:0:0:
370,362,50726,1,2,1:2:0:0:
489,286,50908,1,2,1:2:0:0:
360,224,51089,1,2,1:2:0:0:
67,383,51271,69,10,0:0:0:0:
50,278,51453,1,10,0:0:0:0:
33,145,51635,1,10,0:0:0:0:
17,13,51817,1,10,0:0:0:0:
226,230,52181,6,0,B|266:257|310:263|310:263|387:261|381:215|340:191|302:205|304:251|304:251|305:280|315:313,1,296.99999093628,2|4,0:0|0:0,0:0:0:0:
414,166,53817,1,12,0:0:0:0:
414,166,54181,6,0,L|435:35,1,123.750004720688,6|2,1:2|0:0,0:0:0:0:
98,162,54544,2,0,L|77:31,1,123.750004720688,2|2,1:2|0:0,0:0:0:0:
454,352,54908,2,0,L|475:221,1,123.750004720688,0|2,1:2|0:0,0:0:0:0:
80,348,55271,2,0,L|69:273,1,61.875002360344,0|0,1:2|0:0,0:0:0:0:
9,178,55453,2,0,L|0:116,1,61.875002360344,2|0,1:2|0:0,0:0:0:0:
311,88,55635,6,0,L|171:80,1,123.750004720688,0|2,1:2|0:0,0:0:0:0:
395,224,55999,2,0,L|471:106,1,123.750004720688,0|2,1:2|0:0,0:0:0:0:
240,237,56362,2,0,L|303:362,1,123.750004720688,0|0,1:2|0:0,0:0:0:0:
311,88,56726,1,2,1:2:0:0:
23,361,57090,69,2,1:2:0:0:
125,332,57271,1,2,0:0:0:0:
455,231,57453,1,2,1:2:0:0:
353,202,57634,1,2,0:0:0:0:
52,102,57817,1,2,1:2:0:0:
154,73,57998,1,2,0:0:0:0:
221,297,58181,1,2,1:2:0:0:
128,180,58362,1,2,1:2:0:0:
504,93,58544,6,0,L|514:233,1,123.750004720688,0|2,1:2|0:0,0:0:0:0:
224,9,58908,2,0,L|364:-1,1,123.750004720688,0|2,1:2|0:0,0:0:0:0:
259,212,59271,1,0,1:2:0:0:
461,9,59453,1,2,0:0:0:0:
461,9,59544,1,2,0:0:0:0:
461,9,59635,1,2,1:2:0:0:
502,298,59817,1,2,0:0:0:0:
191,380,59999,70,0,P|175:336|199:259,1,123.750004720688,6|0,1:2|0:0,0:0:0:0:
378,207,60302,2,0,B|287:224|287:224|230:200,1,123.750004720688,2|0,3:3|0:0,0:0:0:0:
174,181,60544,1,2,3:2:0:0:
266,323,60726,1,2,0:0:0:0:
266,323,60908,1,2,1:2:0:0:
457,93,61090,1,8,0:0:0:0:
483,219,61271,1,2,0:0:0:0:
234,72,61453,6,0,P|190:56|113:80,1,123.750004720688,6|0,1:2|0:0,0:0:0:0:
46,253,61756,2,0,B|75:165|75:165|59:105,1,123.750004720688,2|0,3:3|0:0,0:0:0:0:
26,59,61998,1,2,3:2:0:0:
189,227,62181,1,2,0:0:0:0:
189,227,62362,1,0,1:2:0:0:
444,35,62544,1,10,0:0:0:0:
444,35,62908,69,2,1:2:0:0:
472,152,63090,1,2,0:0:0:0:
224,152,63271,1,10,0:0:0:0:
269,40,63453,2,0,B|366:90|262:194|396:248,1,247.500009441376,2|2,0:0|1:2,0:0:0:0:
125,214,63999,2,0,L|45:192,1,61.875002360344,8|0,0:0|0:0,0:0:0:0:
224,152,64181,1,2,0:0:0:0:
344,302,64362,5,2,1:2:0:0:
391,313,64453,1,2,0:0:0:0:
437,297,64544,2,0,P|454:263|456:234,1,61.875002360344,2|2,0:0|0:0,0:0:0:0:
253,360,64726,69,10,0:0:0:0:
206,371,64817,1,2,0:0:0:0:
160,355,64908,2,0,P|143:321|141:292,1,61.875002360344,2|2,0:0|0:0,0:0:0:0:
253,68,65090,6,0,L|243:135,1,61.875002360344,2|0,0:0|0:0,0:0:0:0:
217,295,65271,1,0,1:2:0:0:
512,174,65453,1,10,0:0:0:0:
136,62,65817,70,0,L|-7:43,1,123.750004720688,6|2,1:2|0:0,0:0:0:0:
339,278,66181,2,0,L|196:297,1,123.750004720688,2|2,1:2|0:0,0:0:0:0:
504,31,66544,2,0,L|361:12,1,123.750004720688,0|2,1:2|0:0,0:0:0:0:
445,365,66908,2,0,L|431:305,1,61.875002360344,2|0,1:2|0:0,0:0:0:0:
498,183,67090,2,0,L|510:114,1,61.875002360344,2|0,1:2|0:0,0:0:0:0:
148,219,67271,6,0,L|105:397,1,123.750004720688,0|2,1:2|0:0,0:0:0:0:
341,142,67635,2,0,L|206:17,1,123.750004720688,0|2,1:2|0:0,0:0:0:0:
322,344,67999,2,0,L|497:291,1,123.750004720688,0|0,1:2|0:0,0:0:0:0:
148,219,68362,1,2,1:2:0:0:
148,219,68544,1,2,0:0:0:0:
483,55,68726,69,2,1:2:0:0:
362,106,68908,1,2,0:0:0:0:
137,25,69090,1,2,1:2:0:0:
17,77,69271,1,2,0:0:0:0:
267,246,69453,1,0,1:2:0:0:
291,130,69635,1,2,0:0:0:0:
117,317,69817,1,2,1:2:0:0:
6,243,69999,1,2,1:2:0:0:
449,183,70181,6,0,L|466:44,1,123.750004720688,0|2,1:2|0:0,0:0:0:0:
209,335,70544,2,0,L|348:352,1,123.750004720688,0|2,1:2|0:0,0:0:0:0:
45,64,70908,1,0,1:2:0:0:
16,190,71090,2,0,P|53:196|86:185,1,61.875002360344,2|0,0:0|0:0,0:0:0:0:
185,104,71271,2,0,P|236:81|310:90,1,123.750004720688,2|2,1:2|0:0,0:0:0:0:
451,338,71635,70,0,P|467:294|443:217,1,123.750004720688,6|0,1:2|0:0,0:0:0:0:
264,165,71938,2,0,B|355:182|355:182|412:158,1,123.750004720688,2|0,3:3|0:0,0:0:0:0:
468,139,72181,1,2,3:2:0:0:
289,338,72362,1,2,0:0:0:0:
289,338,72544,1,0,1:2:0:0:
105,258,72726,1,10,0:0:0:0:
0,341,72908,1,2,0:0:0:0:
39,0,73090,6,0,P|23:44|47:121,1,123.750004720688,6|0,1:2|0:0,0:0:0:0:
226,173,73393,2,0,B|135:156|135:156|78:180,1,123.750004720688,2|0,3:3|0:0,0:0:0:0:
22,199,73635,1,2,3:2:0:0:
198,47,73817,1,2,0:0:0:0:
198,47,73999,1,0,1:2:0:0:
325,323,74181,1,10,0:0:0:0:
325,323,74544,69,2,1:2:0:0:
507,250,74726,1,2,0:0:0:0:
509,67,74908,1,10,0:0:0:0:
352,152,75090,2,0,B|219:195|226:67|71:132,1,247.500009441376,2|2,0:0|1:2,0:0:0:0:
31,214,75635,2,0,P|19:247|16:276,1,61.875002360344,8|0,0:0|0:0,0:0:0:0:
0,44,75817,1,2,0:0:0:0:
102,256,75999,5,2,1:2:0:0:
149,267,76090,1,2,0:0:0:0:
195,251,76181,2,0,P|212:217|214:188,1,61.875002360344,2|2,0:0|0:0,0:0:0:0:
285,26,76362,69,10,0:0:0:0:
238,14,76453,1,2,0:0:0:0:
192,30,76544,2,0,P|175:64|173:93,1,61.875002360344,2|2,0:0|0:0,0:0:0:0:
386,170,76726,6,0,L|448:163,1,61.875002360344,2|0,0:0|0:0,0:0:0:0:
143,192,76908,1,2,1:2:0:0:
428,20,77090,1,14,0:0:0:0:
512,259,77453,38,0,B|451:255|451:255|419:268|419:268|327:262,1,160.874992635727,4|2,1:2|0:0,0:0:0:0:
198,326,77817,2,0,P|234:301|290:305,1,53.6249975452424,8|2,0:0|0:0,0:0:0:0:
321,348,77999,1,2,0:0:0:0:
116,254,78180,1,2,0:0:0:0:
107,290,78271,1,2,0:0:0:0:
100,324,78362,1,2,1:2:0:0:
237,139,78544,1,8,0:0:0:0:
205,146,78635,1,2,0:0:0:0:
175,142,78726,1,2,0:0:0:0:
143,129,78817,1,2,0:0:0:0:
121,105,78908,6,0,B|198:70|198:70|298:99,1,160.874992635727,0|2,1:0|0:0,0:0:0:0:
336,222,79271,2,0,L|350:153,1,53.6249975452424,8|2,0:0|0:0,0:0:0:0:
417,77,79453,1,2,0:0:0:0:
447,259,79635,1,2,0:0:0:0:
452,293,79726,1,2,0:0:0:0:
459,329,79817,1,2,1:2:0:0:
255,240,79999,1,8,0:0:0:0:
223,233,80090,1,2,0:0:0:0:
193,237,80181,1,2,0:0:0:0:
161,250,80271,1,2,0:0:0:0:
135,270,80362,70,0,B|109:70,1,160.874992635727,0|2,1:0|0:0,0:0:0:0:
53,50,80726,1,8,0:0:0:0:
304,122,80908,2,0,B|248:162|190:113|190:113|202:96|230:88,1,160.874992635727,2|2,0:0|0:0,0:0:0:0:
363,68,81271,1,0,1:0:0:0:
429,325,81453,1,8,0:0:0:0:
431,290,81544,1,2,0:0:0:0:
433,256,81635,1,2,0:0:0:0:
434,223,81726,1,2,0:0:0:0:
434,190,81817,6,0,B|355:220|355:220|263:184,1,160.874992635727,0|2,1:0|0:0,0:0:0:0:
160,84,82181,2,0,L|173:147,1,53.6249975452424,8|2,0:0|0:0,0:0:0:0:
118,209,82363,1,2,0:0:0:0:
302,0,82545,2,0,L|289:63,1,53.6249975452424,2|2,0:0|0:0,0:0:0:0:
346,135,82727,1,0,1:0:0:0:
491,1,82908,1,8,0:0:0:0:
497,33,82999,1,2,0:0:0:0:
502,65,83089,1,2,0:0:0:0:
507,97,83180,1,2,0:0:0:0:
512,129,83271,70,0,P|447:106|455:188,1,160.874992635727,0|2,1:0|0:0,0:0:0:0:
464,348,83635,2,0,P|475:317|475:286,1,53.6249975452424,8|2,0:0|0:0,0:0:0:0:
380,233,83817,1,2,0:0:0:0:
233,334,83999,1,2,0:0:0:0:
270,340,84090,1,2,0:0:0:0:
307,346,84181,1,2,1:2:0:0:
173,251,84362,1,8,0:0:0:0:
139,270,84453,1,2,0:0:0:0:
101,278,84544,1,2,0:0:0:0:
64,273,84635,1,2,0:0:0:0:
31,248,84726,6,0,B|13:236|5:218|5:218|49:171|120:187,1,160.874992635727,0|2,1:0|0:0,0:0:0:0:
317,236,85090,2,0,P|277:217|224:233,1,53.6249975452424,8|2,0:0|0:0,0:0:0:0:
194,280,85272,1,2,0:0:0:0:
311,72,85454,1,2,0:0:0:0:
320,111,85545,1,2,0:0:0:0:
326,146,85636,1,2,1:2:0:0:
70,120,85818,1,8,0:0:0:0:
101,143,85909,1,2,0:0:0:0:
138,144,86000,1,2,0:0:0:0:
171,135,86090,1,2,0:0:0:0:
199,113,86181,70,0,L|219:287,1,160.874992635727,0|2,1:0|0:0,0:0:0:0:
160,346,86544,1,8,0:0:0:0:
482,140,86726,2,0,P|418:148|304:121,1,160.874992635727,8|2,0:3|0:0,0:0:0:0:
286,20,87090,1,4,1:3:0:0:
438,319,87271,2,0,B|450:252|450:252|448:237|448:237|466:147,1,160.874992635727,12|2,0:0|0:0,0:0:0:0:
373,268,87635,21,8,1:2:0:0:
281,205,87817,1,8,1:2:0:0:
79,297,87999,1,8,1:2:0:0:
0,237,88181,1,8,1:2:0:0:
0,237,88544,5,8,1:2:0:0:
373,268,88726,1,12,1:2:0:0:
