osu file format v14

[General]
AudioFilename: audio.mp3
AudioLeadIn: 0
PreviewTime: 53811
Countdown: 0
SampleSet: Soft
StackLeniency: 0.7
Mode: 0
LetterboxInBreaks: 0
WidescreenStoryboard: 0

[Editor]
Bookmarks: 6175,54175
DistanceSpacing: 1
BeatDivisor: 4
GridSize: 32
TimelineZoom: 1.6

[Metadata]
Title:RISE (TV Size)
TitleUnicode:RISE (TV Size)
Artist:MADKID
ArtistUnicode:MADKID
Creator:spoes
Version:NORMAL
Source:盾の勇者の成り上がり
Tags:マッドキッド tate no yuusha no nariagari the rising of the shield hero opening op anime japanese jp
BeatmapID:2262936
BeatmapSetID:1081792

[Difficulty]
HPDrainRate:3
CircleSize:3.4
OverallDifficulty:4
ApproachRate:5
SliderMultiplier:1.15
SliderTickRate:1

[Events]
//Background and Video events
0,0,"1038088.jpg",0,0
Video,-75,"ShieldHero.mp4"
//Break Periods
2,17647,22175
//Storyboard Layer 0 (Background)
//Storyboard Layer 1 (Fail)
//Storyboard Layer 2 (Pass)
//Storyboard Layer 3 (Foreground)
//Storyboard Layer 4 (Overlay)
//Storyboard Sound Samples

[TimingPoints]
4721,363.636363636364,4,2,1,70,1,0
5811,-100,4,2,1,50,0,0
6175,-100,4,2,1,70,0,0
17811,-111.111111111111,4,2,2,50,0,0
26539,-111.111111111111,4,2,1,60,0,0
29459,363.636363636364,4,2,1,70,1,0
35282,363.636363636364,4,2,1,70,1,0
38181,363.636363636364,4,2,1,70,1,0
41090,-100,4,2,1,60,0,0
49817,-100,4,2,1,75,0,0
54181,-90.9090909090909,4,2,3,90,0,1
54362,-90.9090909090909,4,2,1,90,0,1
56726,-90.9090909090909,4,2,1,90,0,1
65817,-90.9090909090909,4,2,3,90,0,1
65998,-90.9090909090909,4,2,1,90,0,1
68726,-90.9090909090909,4,2,1,90,0,1
77453,-100,4,2,1,70,0,0
87635,-90.9090909090909,4,2,1,80,0,0

[Colours]
Combo1 : 251,38,102
Combo2 : 97,98,116
Combo3 : 183,184,200
Combo4 : 141,99,99
Combo5 : 189,94,96
Combo6 : 200,11,49

[HitObjects]
500,215,5811,5,12,0:0:0:0:
447,111,6175,22,0,P|397:83|322:103,1,115,4|8,1:2|0:0,0:0:0:0:
248,157,6902,2,0,L|260:231,1,57.5,2|0,0:0|1:0,0:0:0:0:
238,268,7266,1,8,0:0:0:0:
136,213,7630,6,0,L|118:86,1,115,0|8,1:0|0:0,0:0:0:0:
225,53,8357,2,0,L|294:42,1,57.5,2|0,0:0|1:0,0:0:0:0:
337,61,8721,1,8,0:0:0:0:
434,0,9084,70,0,P|453:55|440:112,1,115,0|8,1:0|0:0,0:0:0:0:
396,145,9630,2,0,P|384:200|403:254,1,115,2|0,0:0|1:0,0:0:0:0:
446,291,10175,1,8,0:0:0:0:
347,350,10539,6,0,B|302:342|302:342|279:350|279:350|206:339,1,115,0|8,1:0|0:0,0:0:0:0:
125,378,11266,2,0,L|112:293,1,57.5,2|0,0:0|1:0,0:0:0:0:
79,276,11630,1,8,0:0:0:0:
6,187,11993,70,0,P|55:160|112:167,1,115,0|8,1:0|0:0,0:0:0:0:
216,217,12721,2,0,L|230:143,1,57.5,2|0,0:0|1:0,0:0:0:0:
206,106,13084,1,8,0:0:0:0:
316,73,13448,6,0,L|436:51,1,115,0|8,1:0|0:0,0:0:0:0:
510,133,14175,2,0,L|496:207,1,57.5,2|0,0:0|1:0,0:0:0:0:
458,230,14539,1,8,0:0:0:0:
353,182,14902,70,0,B|296:164|296:164|226:192,1,115,0|8,1:0|0:0,0:0:0:0:
214,233,15448,2,0,B|162:253|162:253|105:235,1,115,2|0,0:0|1:0,0:0:0:0:
68,191,15993,1,8,0:0:0:0:
166,131,16357,6,0,P|186:87|152:13,1,115,0|8,1:0|0:0,0:0:0:0:
67,84,17084,2,0,L|-4:74,2,57.5,2|0|8,0:0|1:0|0:0,0:0:0:0:
81,96,23630,38,0,B|147:85|147:85|200:103|200:103|318:83,1,206.999993682861,4|2,0:0|0:0,0:0:0:0:
451,208,25084,2,0,B|368:222|368:222|315:204|315:204|249:215,1,206.999993682861,4|2,0:0|0:0,0:0:0:0:
58,297,26539,6,0,P|88:241|75:176,1,103.499996841431,10|8,0:3|0:3,0:0:0:0:
59,157,27084,1,6,0:3:0:0:
59,157,27266,2,0,P|121:166|178:131,1,103.499996841431,6|8,0:3|0:0,0:0:0:0:
196,117,27811,1,2,0:3:0:0:
196,117,27993,5,0,1:2:0:0:
278,180,28357,1,0,1:2:0:0:
355,110,28721,1,0,1:2:0:0:
436,173,29084,1,12,0:2:0:0:
369,266,29459,22,0,P|384:305|379:354,1,76.6666666666667,2|2,1:2|0:0,0:0:0:0:
359,369,29822,1,10,0:0:0:0:
255,319,30186,2,0,L|249:258,2,57.5,2|0|8,0:0|1:2|0:0,0:0:0:0:
147,359,30913,6,0,P|110:362|62:338,1,76.6666666666667,2|2,1:2|0:0,0:0:0:0:
48,320,31277,1,10,0:0:0:0:
57,205,31640,2,0,L|-12:200,2,57.5,2|0|8,0:0|1:2|0:0,0:0:0:0:
96,96,32368,70,0,P|113:80|166:74,1,76.6666666666667,2|2,1:2|0:0,0:0:0:0:
194,98,32731,1,8,0:0:0:0:
309,94,33095,1,2,0:0:0:0:
343,205,33459,1,8,0:0:0:0:
338,319,33822,6,0,P|303:299|257:302,1,76.6666666666667,4|2,1:3|0:0,0:0:0:0:
232,315,34186,2,0,P|197:335|151:332,1,76.6666666666667,8|2,0:0|0:0,0:0:0:0:
125,321,34549,2,0,L|106:387,2,57.5,2|2|8,0:0|1:2|0:0,0:0:0:0:
108,205,35282,70,0,P|100:161|124:106,1,76.6666666666667,2|2,1:2|0:0,0:0:0:0:
139,109,35645,1,10,0:0:0:0:
247,147,36009,2,0,L|253:219,2,57.5,2|0|8,0:0|1:2|0:0,0:0:0:0:
342,82,36736,6,0,P|382:60|421:61,1,76.6666666666667,2|2,1:2|0:0,0:0:0:0:
445,80,37100,1,10,0:0:0:0:
470,192,37463,2,0,L|526:177,2,57.5,2|0|8,0:0|1:2|0:0,0:0:0:0:
413,289,38181,38,0,P|355:314|295:291,1,115,2|8,1:2|0:0,0:0:0:0:
258,270,38726,2,0,L|247:155,1,115,2|2,0:0|1:2,0:0:0:0:
289,116,39271,1,8,0:0:0:0:
213,37,39635,6,0,L|148:44,2,57.5,2|2|10,1:2|0:0|0:0,0:0:0:0:
258,1,40181,1,2,0:0:0:0:
363,46,40544,1,2,1:2:0:0:
363,46,40726,1,10,0:0:0:0:
470,87,41090,37,6,1:2:0:0:
470,87,41271,2,0,L|442:216,1,115,2|2,0:0|0:0,0:0:0:0:
463,254,41817,1,8,0:0:0:0:
404,353,42181,1,2,0:0:0:0:
300,301,42544,2,0,B|249:332|249:332|188:313,2,115,0|2|10,1:2|1:2|0:2,0:0:0:0:
324,188,43635,1,2,0:0:0:0:
268,82,43999,5,2,1:2:0:0:
268,82,44181,2,0,P|210:109|151:91,1,115,2|2,0:0|0:0,0:0:0:0:
113,66,44726,1,8,0:0:0:0:
69,172,45090,1,2,0:0:0:0:
120,274,45453,2,0,B|69:300|69:300|2:268,2,115,0|2|10,1:2|1:2|0:2,0:0:0:0:
224,226,46544,1,2,0:0:0:0:
269,331,46908,70,0,B|392:324,1,115,2|2,1:2|0:0,0:0:0:0:
473,252,47635,2,0,P|493:203|455:145,1,115,8|2,0:0|0:0,0:0:0:0:
349,152,48362,6,0,B|341:111|341:111|347:80|347:80|335:31,2,115,2|2|10,1:2|1:2|0:0,0:0:0:0:
247,207,49453,1,2,0:0:0:0:
142,158,49817,1,0,1:2:0:0:
256,192,49999,12,10,51817,0:0:0:0:
451,182,53817,5,12,0:0:0:0:
372,281,54181,22,0,L|388:360,2,63.2500019302369,6|2|2,1:2|0:0|1:2,0:0:0:0:
324,238,54726,2,0,P|262:217|186:247,1,126.500003860474,2|2,0:0|0:0,0:0:0:0:
103,307,55453,1,2,1:2:0:0:
27,205,55817,1,2,1:2:0:0:
135,139,56181,2,0,B|179:129|179:129|207:141|207:141|262:128,1,126.500003860474,2|0,1:2|0:0,0:0:0:0:
318,145,56726,1,2,1:2:0:0:
420,71,57090,6,0,L|434:5,2,63.2500019302369,2|2|2,1:2|0:0|1:2,0:0:0:0:
465,114,57635,1,2,0:0:0:0:
465,114,57817,2,0,L|476:199,1,63.2500019302369,2|2,1:2|0:0,0:0:0:0:
454,237,58181,1,2,1:2:0:0:
454,237,58362,2,0,P|376:215|314:284,2,126.500003860474,2|2|2,1:2|0:0|0:0,0:0:0:0:
404,353,59453,1,2,0:0:0:0:
344,331,59635,2,0,L|265:342,1,63.2500019302369,2|2,1:2|0:0,0:0:0:0:
220,323,59999,70,0,P|185:264|208:188,1,126.500003860474,6|8,1:2|0:0,0:0:0:0:
239,165,60544,1,2,0:0:0:0:
239,165,60726,1,2,0:0:0:0:
163,63,61090,1,8,0:0:0:0:
53,123,61453,6,0,P|78:185|52:267,1,126.500003860474,6|8,1:2|0:0,0:0:0:0:
30,285,61999,1,2,0:0:0:0:
30,285,62181,1,2,0:0:0:0:
143,340,62544,1,10,0:0:0:0:
233,252,62908,70,0,L|242:176,2,63.2500019302369,2|2|10,1:2|0:0|0:0,0:0:0:0:
279,295,63453,2,0,P|341:313|408:283,1,126.500003860474,2|2,0:0|1:2,0:0:0:0:
440,246,63999,1,8,0:0:0:0:
490,130,64362,6,0,B|449:135|449:135|427:128|427:128|407:140|407:140|363:144,1,126.500003860474,2|10,1:2|0:0,0:0:0:0:
241,148,65090,1,2,0:0:0:0:
175,40,65453,1,10,0:0:0:0:
70,111,65817,70,0,P|37:114|4:105,2,63.2500019302369,6|2|2,1:2|0:0|1:2,0:0:0:0:
129,133,66362,2,0,P|150:195|124:266,1,126.500003860474,2|2,0:0|0:0,0:0:0:0:
79,281,66908,1,2,1:2:0:0:
79,281,67090,1,2,1:2:0:0:
157,379,67453,1,2,1:2:0:0:
246,289,67817,1,2,1:2:0:0:
418,367,68362,2,0,L|482:354,1,63.2500019302369,2|0,1:2|0:0,0:0:0:0:
504,304,68726,6,0,P|508:271|495:234,1,63.2500019302369,2|2,1:2|0:0,0:0:0:0:
449,203,69090,1,2,1:2:0:0:
449,203,69271,1,2,0:0:0:0:
322,200,69635,2,0,P|312:150|325:117,1,63.2500019302369,2|2,0:0|1:2,0:0:0:0:
336,79,69999,2,0,P|402:89|454:39,2,126.500003860474,2|2|2,1:2|0:0|0:0,0:0:0:0:
213,47,71090,1,2,0:0:0:0:
153,26,71271,2,0,L|133:101,1,63.2500019302369,2|2,1:2|0:0,0:0:0:0:
135,151,71635,70,0,P|194:186|270:163,1,126.500003860474,6|8,1:2|0:0,0:0:0:0:
297,141,72181,1,2,0:0:0:0:
297,141,72362,1,2,0:0:0:0:
398,216,72726,1,10,0:0:0:0:
341,325,73090,6,0,P|279:300|197:326,1,126.500003860474,6|8,1:2|0:0,0:0:0:0:
182,359,73635,1,2,0:0:0:0:
60,326,73999,1,0,1:2:0:0:
60,326,74181,1,10,0:0:0:0:
128,219,74544,70,0,L|116:146,2,63.2500019302369,2|2|10,1:2|0:0|0:0,0:0:0:0:
177,258,75090,2,0,B|246:240|229:295|322:268,1,126.500003860474,2|2,0:0|1:2,0:0:0:0:
352,238,75635,1,8,0:0:0:0:
471,279,75999,6,0,B|460:230|460:230|447:220|447:220|432:154,1,126.500003860474,2|10,1:2|0:0,0:0:0:0:
341,74,76726,1,2,0:0:0:0:
243,154,77090,1,14,0:0:0:0:
140,102,77453,38,0,P|126:156|153:218,1,115,4|8,1:2|0:0,0:0:0:0:
239,277,78181,2,0,L|307:265,1,57.5,2|0,0:0|1:0,0:0:0:0:
349,287,78544,1,8,0:0:0:0:
459,316,78908,6,0,L|473:171,1,115,0|8,1:0|0:0,0:0:0:0:
429,93,79635,2,0,L|355:102,1,57.5,2|0,0:0|1:0,0:0:0:0:
323,69,79999,1,8,0:0:0:0:
302,182,80362,70,0,P|245:200|183:180,1,115,0|8,1:0|0:0,0:0:0:0:
160,139,80908,2,0,P|104:125|50:143,1,115,2|0,0:0|1:0,0:0:0:0:
26,196,81453,1,8,0:0:0:0:
101,282,81817,6,0,B|141:277|141:277|168:286|168:286|223:279,1,115,0|8,1:0|0:0,0:0:0:0:
279,185,82544,2,0,L|347:178,1,57.5,2|0,0:0|1:0,0:0:0:0:
389,200,82908,1,8,0:0:0:0:
487,140,83271,70,0,P|512:201|495:261,1,115,0|8,1:0|0:0,0:0:0:0:
399,298,83999,2,0,L|329:287,1,57.5,2|0,0:0|1:0,0:0:0:0:
290,315,84362,1,8,0:0:0:0:
175,299,84726,6,0,L|196:162,1,115,0|8,1:0|0:0,0:0:0:0:
86,140,85453,2,0,L|77:79,1,57.5,2|0,0:0|1:0,0:0:0:0:
43,36,85817,1,8,0:0:0:0:
155,12,86181,70,0,B|208:-2|208:-2|269:18,1,115,0|8,1:0|0:0,0:0:0:0:
297,67,86726,2,0,B|354:85|354:85|407:71,1,115,8|4,0:3|1:3,0:0:0:0:
446,30,87271,1,12,0:0:0:0:
506,141,87635,22,0,L|492:227,1,63.2500019302369,8|8,1:2|1:2,0:0:0:0:
452,249,87999,1,8,1:2:0:0:
452,249,88181,1,8,1:2:0:0:
334,202,88544,5,8,1:2:0:0:
334,202,88726,1,12,1:2:0:0:
