osu file format v14

[General]
AudioFilename: audio.mp3
AudioLeadIn: 0
PreviewTime: 53811
Countdown: 0
SampleSet: Soft
StackLeniency: 0.4
Mode: 0
LetterboxInBreaks: 0
WidescreenStoryboard: 1

[Editor]
Bookmarks: 6175,54175,64721
DistanceSpacing: 1
BeatDivisor: 4
GridSize: 32
TimelineZoom: 1.8

[Metadata]
Title:RISE (TV Size)
TitleUnicode:RISE (TV Size)
Artist:MADKID
ArtistUnicode:MADKID
Creator:spoes
Version:HARD
Source:盾の勇者の成り上がり
Tags:マッドキッド tate no yuusha no nariagari the rising of the shield hero opening op anime japanese jp
BeatmapID:2262934
BeatmapSetID:1081792

[Difficulty]
HPDrainRate:4
CircleSize:3.8
OverallDifficulty:6
ApproachRate:8
SliderMultiplier:1.25
SliderTickRate:1

[Events]
//Background and Video events
0,0,"1038088.jpg",0,0
Video,-75,"ShieldHero.mp4"
//Break Periods
//Storyboard Layer 0 (Background)
//Storyboard Layer 1 (Fail)
//Storyboard Layer 2 (Pass)
//Storyboard Layer 3 (Foreground)
//Storyboard Layer 4 (Overlay)
//Storyboard Sound Samples

[TimingPoints]
4721,363.636363636364,4,2,1,70,1,0
5811,-100,4,2,1,50,0,0
6175,-83.3333333333333,4,2,1,70,0,0
11630,-83.3333333333333,4,2,1,70,0,0
17811,-125,4,2,2,50,0,0
26539,-111.111111111111,4,2,1,60,0,0
29459,363.636363636364,4,2,1,70,1,0
35282,363.636363636364,4,2,1,70,1,0
38181,363.636363636364,4,2,1,70,1,0
41090,-111.111111111111,4,2,1,60,0,0
49817,-83.3333333333333,4,2,1,75,0,0
53817,-83.3333333333333,4,2,1,75,0,0
54181,-76.9230769230769,4,2,3,90,0,1
54362,-76.9230769230769,4,2,1,90,0,1
65817,-76.9230769230769,4,2,3,90,0,1
65998,-76.9230769230769,4,2,1,90,0,1
75453,-76.9230769230769,4,2,1,90,0,1
77453,-83.3333333333333,4,2,1,70,0,0
82908,-83.3333333333333,4,2,1,70,0,0
87635,-76.9230769230769,4,2,1,80,0,0

[Colours]
Combo1 : 251,38,102
Combo2 : 97,98,116
Combo3 : 183,184,200
Combo4 : 141,99,99
Combo5 : 189,94,96
Combo6 : 200,11,49

[HitObjects]
269,35,5811,5,12,0:0:0:0:
430,93,6175,22,0,P|404:135|406:185,1,74.9999977111817,4|2,1:2|0:0,0:0:0:0:
429,261,6539,2,0,P|391:248|276:267,1,149.999995422363,8|2,0:0|0:0,0:0:0:0:
201,352,7084,1,0,1:0:0:0:
95,298,7266,2,0,L|88:212,1,74.9999977111817,8|2,0:0|0:0,0:0:0:0:
118,194,7539,1,2,0:0:0:0:
118,194,7630,6,0,L|111:105,1,74.9999977111817,0|2,1:0|0:0,0:0:0:0:
72,24,7993,2,0,B|121:17|121:17|162:35|162:35|220:26,1,149.999995422363,8|2,0:0|0:0,0:0:0:0:
298,98,8539,1,0,1:0:0:0:
389,34,8721,1,8,0:0:0:0:
476,238,9084,70,0,L|488:146,2,74.9999977111817,0|2|8,1:0|0:0|0:0,0:0:0:0:
499,348,9630,2,0,P|430:320|355:326,1,149.999995422363,2|0,0:0|1:0,0:0:0:0:
240,369,10175,2,0,P|233:332|247:283,1,74.9999977111817,8|2,0:0|0:0,0:0:0:0:
268,271,10448,1,2,0:0:0:0:
268,271,10539,6,0,P|281:237|275:182,1,74.9999977111817,0|2,1:0|0:0,0:0:0:0:
304,58,10902,2,0,P|247:101|182:72,1,149.999995422363,8|2,0:0|0:0,0:0:0:0:
82,4,11448,2,0,L|75:72,1,37.4999988555909,0|0,1:0|0:0,0:0:0:0:
76,83,11630,1,8,0:0:0:0:
173,342,11993,70,0,P|199:300|197:250,1,74.9999977111817,0|2,1:0|0:0,0:0:0:0:
175,171,12357,2,0,P|213:184|328:165,1,149.999995422363,8|2,0:0|0:0,0:0:0:0:
412,106,12902,1,0,1:0:0:0:
501,175,13084,2,0,L|491:257,1,74.9999977111817,8|2,0:0|0:0,0:0:0:0:
470,269,13357,1,2,0:0:0:0:
470,269,13448,6,0,L|458:366,1,74.9999977111817,0|2,1:0|0:0,0:0:0:0:
337,384,13811,2,0,L|358:230,1,149.999995422363,8|2,0:0|0:0,0:0:0:0:
226,285,14357,1,0,1:0:0:0:
137,217,14539,1,8,0:0:0:0:
272,80,14902,70,0,L|282:6,2,74.9999977111817,0|2|8,1:0|0:0|0:0,0:0:0:0:
329,200,15448,2,0,P|260:172|185:178,1,149.999995422363,2|0,0:0|1:0,0:0:0:0:
79,144,15993,2,0,P|72:181|86:230,1,74.9999977111817,8|2,0:0|0:0,0:0:0:0:
107,242,16266,1,2,0:0:0:0:
107,242,16357,6,0,P|120:276|114:331,1,74.9999977111817,0|2,1:0|0:0,0:0:0:0:
25,369,16721,1,8,0:0:0:0:
215,227,17084,1,2,0:0:0:0:
215,227,17266,1,0,1:0:0:0:
304,295,17448,1,8,0:0:0:0:
457,189,17811,37,4,0:0:0:0:
457,189,17993,2,0,L|444:125,2,50,2|10|2,0:0|0:0|0:0,0:0:0:0:
402,264,18539,2,0,L|414:315,1,50,2|2,0:0|0:0,0:0:0:0:
505,344,18902,1,10,0:0:0:0:
505,344,19084,1,2,0:0:0:0:
323,296,19448,6,0,L|298:186,1,100,2|2,0:0|0:0,0:0:0:0:
225,143,19993,2,0,L|213:94,1,50,2|10,0:0|0:0,0:0:0:0:
265,11,20357,1,2,0:0:0:0:
265,11,20539,1,2,0:0:0:0:
174,229,20902,69,2,0:0:0:0:
174,229,21084,1,10,0:0:0:0:
85,189,21266,2,0,L|73:140,1,50,2|0,0:0|0:0,0:0:0:0:
26,263,21630,2,0,L|37:311,2,50,2|10|2,0:0|0:0|0:0,0:0:0:0:
127,344,22175,6,0,P|172:363|238:357,2,100,6|10|2,0:0|0:0|0:0,0:0:0:0:
190,278,23084,1,10,0:0:0:0:
190,278,23266,1,8,0:0:0:0:
239,125,23630,69,4,0:0:0:0:
239,125,23811,2,0,L|252:61,2,50,2|10|2,0:0|0:0|0:0,0:0:0:0:
302,203,24357,2,0,L|290:251,1,50,2|2,0:0|0:0,0:0:0:0:
190,278,24721,1,10,0:0:0:0:
190,278,24902,1,2,0:0:0:0:
329,350,25266,5,2,0:0:0:0:
390,269,25448,1,10,0:0:0:0:
390,269,25630,1,2,0:0:0:0:
302,203,25811,2,0,L|322:123,2,75,2|2|2,0:0|0:0|0:0,0:0:0:0:
223,143,26539,69,10,0:3:0:0:
80,29,26902,1,8,0:3:0:0:
80,29,27084,1,6,0:3:0:0:
112,121,27266,2,0,L|91:193,1,56.2499982833863,6|0,0:3|1:0,0:0:0:0:
140,272,27630,1,8,0:0:0:0:
140,272,27811,1,2,0:3:0:0:
220,326,27993,22,0,L|286:317,1,56.2499982833863,0|0,1:2|1:2,0:0:0:0:
382,363,28357,1,0,1:2:0:0:
382,363,28539,1,2,1:3:0:0:
457,300,28721,2,0,P|460:261|450:235,1,56.2499982833863,0|8,1:2|1:3,0:0:0:0:
367,179,29084,1,12,0:2:0:0:
407,78,29266,1,0,1:2:0:0:
275,52,29459,22,0,P|287:76|293:108,2,41.6666666666667,2|2|2,1:2|0:0|0:0,0:0:0:0:
214,110,29822,2,0,P|211:134|190:162,2,41.6666666666667,10|2|2,0:0|0:0|0:0,0:0:0:0:
136,102,30186,2,0,L|121:30,2,62.5,2|0|8,0:0|1:2|0:0,0:0:0:0:
92,306,30913,6,0,P|80:282|74:250,2,41.6666666666667,2|2|2,1:2|0:0|0:0,0:0:0:0:
160,254,31277,2,0,P|163:230|184:202,2,41.6666666666667,10|2|2,0:0|0:0|0:0,0:0:0:0:
233,297,31640,2,0,L|218:376,2,62.5,2|0|8,0:0|1:2|0:0,0:0:0:0:
464,342,32368,70,0,L|476:384,2,41.6666666666667,2|2|2,1:2|0:0|0:0,0:0:0:0:
420,275,32731,2,0,L|440:202,1,62.5,8|8,0:0|0:3,0:0:0:0:
358,123,33095,2,0,L|411:74,1,62.5,2|4,0:0|0:3,0:0:0:0:
290,20,33459,1,10,0:0:0:0:
290,20,33640,1,2,0:0:0:0:
213,91,33822,6,0,P|231:135|217:200,1,83.3333333333333,4|2,1:3|0:0,0:0:0:0:
172,222,34186,2,0,P|166:262|177:302,1,83.3333333333333,8|2,0:0|0:0,0:0:0:0:
249,335,34549,2,0,B|283:332|283:332|291:326|291:326|300:330|300:330|351:325,1,83.3333333333333,2|2,0:0|0:0,0:0:0:0:
405,352,34913,1,8,0:0:0:0:
465,117,35282,70,0,P|448:143|444:164,2,41.6666666666667,2|2|2,1:2|0:0|0:0,0:0:0:0:
382,91,35645,2,0,P|377:70|366:52,2,41.6666666666667,10|2|2,0:0|0:0|0:0,0:0:0:0:
310,142,36009,2,0,B|323:226,2,62.5,2|0|8,0:0|1:2|0:0,0:0:0:0:
171,78,36736,6,0,P|192:73|210:62,2,41.6666666666667,2|2|2,1:2|0:0|0:0,0:0:0:0:
155,155,37100,2,0,P|135:151|117:140,2,41.6666666666667,10|2|2,0:0|0:0|0:0,0:0:0:0:
165,237,37463,2,0,L|239:248,2,62.5,2|0|8,0:0|1:2|0:0,0:0:0:0:
57,367,38181,37,2,1:2:0:0:
6,292,38362,2,0,L|33:183,1,62.5,2|8,0:0|0:0,0:0:0:0:
136,206,38726,2,0,L|123:137,1,62.5,2|2,0:0|0:0,0:0:0:0:
39,92,39090,2,0,L|57:27,1,62.5,2|8,1:2|0:0,0:0:0:0:
124,144,39453,1,2,0:0:0:0:
215,89,39635,5,2,1:2:0:0:
296,160,39817,2,0,B|334:157|348:132|348:132|378:150|416:135,2,125,2|2|2,0:0|0:0|1:2,0:0:0:0:
249,249,40726,1,10,0:0:0:0:
438,369,41090,37,6,1:2:0:0:
508,321,41271,2,0,L|486:192,1,112.499996566773,2|2,0:0|0:0,0:0:0:0:
355,174,41817,2,0,L|388:56,1,112.499996566773,8|2,0:0|0:0,0:0:0:0:
316,2,42362,1,2,0:0:0:0:
316,2,42453,1,2,0:0:0:0:
316,2,42544,5,0,1:2:0:0:
171,122,42908,1,2,1:2:0:0:
10,23,43271,1,10,0:2:0:0:
170,106,43635,1,2,0:0:0:0:
95,341,43999,69,2,1:2:0:0:
25,293,44181,2,0,L|47:164,1,112.499996566773,2|2,0:0|0:0,0:0:0:0:
178,146,44726,2,0,L|145:28,1,112.499996566773,8|2,0:0|0:0,0:0:0:0:
270,96,45271,1,2,0:0:0:0:
270,96,45362,1,2,0:0:0:0:
270,96,45453,5,0,1:2:0:0:
124,215,45817,1,2,1:2:0:0:
259,344,46181,1,10,0:2:0:0:
137,215,46544,1,2,0:0:0:0:
334,0,46908,70,0,L|348:73,1,56.2499982833863,2|2,1:2|0:0,0:0:0:0:
364,152,47271,1,2,0:0:0:0:
117,54,47635,6,0,L|106:126,1,56.2499982833863,10|2,0:0|0:0,0:0:0:0:
91,218,47999,1,2,0:0:0:0:
16,282,48181,1,2,0:0:0:0:
16,282,48271,1,2,0:0:0:0:
16,282,48362,69,2,1:2:0:0:
189,378,48726,1,2,1:2:0:0:
337,256,49090,1,10,0:0:0:0:
457,329,49453,1,2,0:0:0:0:
337,256,49817,22,0,L|258:243,1,74.9999977111817,0|0,1:2|1:2,0:0:0:0:
167,259,50181,2,0,L|64:273,1,74.9999977111817,0|0,1:2|1:2,0:0:0:0:
95,117,50544,2,0,L|169:129,1,74.9999977111817,2|2,1:2|1:2,0:0:0:0:
268,155,50908,2,0,L|356:134,1,74.9999977111817,2|2,1:2|1:2,0:0:0:0:
490,102,51271,5,10,0:0:0:0:
451,194,51453,1,10,0:0:0:0:
486,284,51635,1,10,0:0:0:0:
439,365,51817,1,10,0:0:0:0:
256,192,52181,12,12,53817,0:0:0:0:
12,244,54181,6,0,L|0:324,2,81.2499962806703,6|2|2,1:2|0:0|1:2,0:0:0:0:
93,176,54726,2,0,B|132:163|132:163|192:187,1,81.2499962806703,2|0,0:0|1:2,0:0:0:0:
216,249,55090,1,2,0:0:0:0:
293,196,55271,1,0,1:2:0:0:
363,296,55453,2,0,B|400:310|400:310|439:297,1,81.2499962806703,2|0,1:2|1:2,0:0:0:0:
500,206,55817,2,0,L|484:121,1,81.2499962806703,2|0,0:0|1:2,0:0:0:0:
384,80,56181,2,0,L|372:-11,1,81.2499962806703,2|0,0:0|1:2,0:0:0:0:
384,80,56726,1,2,1:2:0:0:
128,80,57090,6,0,L|140:-11,2,81.2499962806703,2|2|2,1:2|0:0|1:2,0:0:0:0:
23,126,57635,1,2,0:0:0:0:
94,225,57817,1,2,1:2:0:0:
94,225,57999,1,2,0:0:0:0:
203,169,58181,1,2,1:2:0:0:
260,268,58362,2,0,B|297:282|297:282|336:269,1,81.2499962806703,2|0,1:2|1:2,0:0:0:0:
429,206,58726,2,0,L|413:121,1,81.2499962806703,2|0,0:0|1:2,0:0:0:0:
313,80,59090,2,0,L|301:-11,1,81.2499962806703,2|0,0:0|1:2,0:0:0:0:
201,46,59453,69,2,0:0:0:0:
201,46,59544,1,2,0:0:0:0:
201,46,59635,1,2,1:2:0:0:
217,147,59817,1,2,0:0:0:0:
106,166,59999,6,0,P|73:136|-16:120,2,121.874994421006,6|2|2,1:2|0:0|0:0,0:0:0:0:
15,214,60726,2,0,P|3:250|15:301,1,81.2499962806703,2|2,0:0|1:2,0:0:0:0:
83,348,61090,2,0,P|122:355|160:343,1,81.2499962806703,8|2,0:0|0:0,0:0:0:0:
259,255,61453,70,0,P|292:225|381:209,2,121.874994421006,6|2|2,1:2|0:0|0:0,0:0:0:0:
346,303,62181,1,2,0:0:0:0:
346,303,62362,1,0,1:2:0:0:
255,362,62544,1,10,0:0:0:0:
362,119,62908,5,2,1:2:0:0:
463,72,63090,1,2,0:0:0:0:
458,179,63271,1,10,0:0:0:0:
362,119,63453,2,0,P|321:107|262:112,1,81.2499962806703,2|2,0:0|0:0,0:0:0:0:
187,149,63817,1,2,1:2:0:0:
85,93,63999,2,0,L|70:13,1,81.2499962806703,8|2,0:0|0:0,0:0:0:0:
28,172,64362,70,0,L|17:217,3,40.6249981403352,2|2|2|2,1:2|0:0|0:0|0:0,0:0:0:0:
49,253,64726,2,0,L|60:298,3,40.6249981403352,10|2|2|2,0:0|0:0|0:0|0:0,0:0:0:0:
103,321,65090,2,0,L|195:299,1,81.2499962806703,2|0,0:0|1:2,0:0:0:0:
259,217,65453,2,0,L|350:229,1,81.2499962806703,10|0,0:0|0:0,0:0:0:0:
479,302,65817,6,0,L|491:382,2,81.2499962806703,6|2|2,1:2|0:0|1:2,0:0:0:0:
415,225,66362,2,0,B|376:212|376:212|316:236,1,81.2499962806703,2|0,0:0|1:2,0:0:0:0:
265,287,66726,1,2,0:0:0:0:
196,221,66908,1,2,1:2:0:0:
120,311,67090,2,0,B|83:325|83:325|44:312,1,81.2499962806703,2|0,1:2|1:2,0:0:0:0:
2,206,67453,2,0,L|18:121,1,81.2499962806703,2|0,0:0|1:2,0:0:0:0:
118,80,67817,2,0,L|130:-11,1,81.2499962806703,2|0,0:0|1:2,0:0:0:0:
118,80,68362,1,2,1:2:0:0:
382,83,68726,70,0,L|370:-8,2,81.2499962806703,2|2|2,1:2|0:0|1:2,0:0:0:0:
496,166,69271,2,0,B|444:155|444:155|400:181|400:181|334:167,1,162.499992561341,2|2,0:0|0:0,0:0:0:0:
249,235,69817,1,2,1:2:0:0:
154,290,69999,2,0,B|117:304|117:304|78:291,1,81.2499962806703,2|0,1:2|1:2,0:0:0:0:
2,206,70362,2,0,L|18:121,1,81.2499962806703,2|0,0:0|1:2,0:0:0:0:
118,80,70726,2,0,L|130:-11,2,81.2499962806703,2|0|2,0:0|1:2|0:0,0:0:0:0:
214,130,71271,1,2,1:2:0:0:
214,130,71453,1,2,0:0:0:0:
296,55,71635,6,0,P|329:25|418:9,2,121.874994421006,6|2|2,1:2|0:0|0:0,0:0:0:0:
397,120,72362,2,0,P|409:156|397:207,1,81.2499962806703,2|0,0:0|1:2,0:0:0:0:
331,262,72726,2,0,P|291:269|253:257,1,81.2499962806703,10|2,0:0|0:0,0:0:0:0:
161,176,73090,70,0,B|149:227|149:227|155:240|155:240|142:302,1,121.874994421006,6|2,1:2|0:0,0:0:0:0:
125,320,73453,1,8,0:0:0:0:
233,358,73635,2,0,B|291:341|291:341|326:356|326:356|405:333,1,162.499992561341,2|0,0:0|1:2,0:0:0:0:
466,273,74181,1,10,0:0:0:0:
207,144,74544,5,2,1:2:0:0:
107,97,74726,1,2,0:0:0:0:
115,206,74908,1,10,0:0:0:0:
207,144,75090,2,0,P|248:132|307:137,1,81.2499962806703,2|0,0:0|0:0,0:0:0:0:
382,174,75453,1,2,1:2:0:0:
484,118,75635,2,0,L|498:38,1,81.2499962806703,8|2,0:0|0:0,0:0:0:0:
503,218,75999,70,0,L|514:263,3,40.6249981403352,2|2|2|2,1:2|0:0|0:0|0:0,0:0:0:0:
482,299,76362,2,0,L|471:344,3,40.6249981403352,10|2|2|2,0:0|0:0|0:0|0:0,0:0:0:0:
428,367,76726,2,0,P|387:370|336:345,1,81.2499962806703,2|2,0:0|1:2,0:0:0:0:
259,255,77090,2,0,P|218:254|173:284,1,81.2499962806703,14|0,0:0|0:0,0:0:0:0:
67,334,77453,54,0,B|75:295|75:295|62:249,1,74.9999977111817,4|2,1:2|0:0,0:0:0:0:
0,162,77817,2,0,P|38:175|153:156,1,149.999995422363,8|2,0:0|0:0,0:0:0:0:
241,91,78362,1,0,1:0:0:0:
344,159,78544,2,0,L|359:243,1,74.9999977111817,8|2,0:0|0:0,0:0:0:0:
342,256,78817,1,2,0:0:0:0:
342,256,78908,6,0,L|360:352,1,74.9999977111817,0|2,1:0|0:0,0:0:0:0:
236,310,79271,2,0,B|187:317|187:317|146:299|146:299|88:308,1,149.999995422363,8|2,0:0|0:0,0:0:0:0:
8,375,79817,1,0,1:0:0:0:
0,246,79999,1,8,0:0:0:0:
277,243,80362,70,0,L|369:255,2,74.9999977111817,0|2|8,1:0|0:0|0:0,0:0:0:0:
167,266,80908,2,0,P|195:197|189:122,1,149.999995422363,2|0,0:0|1:0,0:0:0:0:
144,22,81453,2,0,P|181:15|230:29,1,74.9999977111817,8|2,0:0|0:0,0:0:0:0:
242,50,81726,1,2,0:0:0:0:
242,50,81817,6,0,P|276:63|331:57,1,74.9999977111817,0|2,1:0|0:0,0:0:0:0:
428,10,82181,2,0,B|420:63|420:63|433:107|433:107|427:169,1,149.999995422363,8|2,0:0|0:0,0:0:0:0:
339,252,82726,2,0,L|329:184,1,37.4999988555909,0|0,1:0|0:0,0:0:0:0:
326,173,82908,1,8,0:0:0:0:
107,45,83271,70,0,P|133:87|131:137,1,74.9999977111817,0|2,1:0|0:0,0:0:0:0:
109,216,83635,2,0,P|147:203|262:222,1,149.999995422363,8|2,0:0|0:0,0:0:0:0:
340,286,84181,1,0,1:0:0:0:
449,242,84362,2,0,L|439:160,1,74.9999977111817,8|2,0:0|0:0,0:0:0:0:
418,148,84635,1,2,0:0:0:0:
418,148,84726,6,0,L|406:51,1,74.9999977111817,0|2,1:0|0:0,0:0:0:0:
326,0,85090,2,0,B|301:23|301:23|315:146,1,149.999995422363,8|2,0:0|0:0,0:0:0:0:
201,88,85635,1,0,1:0:0:0:
111,164,85817,1,8,0:0:0:0:
206,307,86181,70,0,L|216:381,2,74.9999977111817,0|2|8,1:0|0:0|0:0,0:0:0:0:
263,212,86726,2,0,P|188:217|119:189,1,149.999995422363,8|4,0:3|1:3,0:0:0:0:
7,222,87271,2,0,P|0:185|14:136,1,74.9999977111817,12|2,0:0|0:0,0:0:0:0:
89,290,87635,21,8,1:2:0:0:
89,290,87817,1,8,1:2:0:0:
204,246,87999,5,8,1:2:0:0:
204,246,88181,1,8,1:2:0:0:
468,287,88544,69,8,1:2:0:0:
356,341,88726,1,12,1:2:0:0:
