osu file format v14

[General]
AudioFilename: audio.mp3
AudioLeadIn: 0
PreviewTime: 53717
Countdown: 0
SampleSet: Soft
StackLeniency: 0.2
Mode: 0
LetterboxInBreaks: 0
WidescreenStoryboard: 1

[Editor]
DistanceSpacing: 0.9
BeatDivisor: 4
GridSize: 32
TimelineZoom: 1

[Metadata]
Title:RISE (TV Size)
TitleUnicode:RISE (TV Size)
Artist:MADKID
ArtistUnicode:マッドキッド
Creator:_xyliac
Version:Normal
Source:盾の勇者の成り上がり
Tags:CIRCUS Tate no Yuusha no Nariagari The Rising of the Shield Hero Opening OP
BeatmapID:1888435
BeatmapSetID:904629

[Difficulty]
HPDrainRate:4
CircleSize:3
OverallDifficulty:5
ApproachRate:5
SliderMultiplier:1.15
SliderTickRate:1

[Events]
//Background and Video events
0,0,"yes.jpg",0,0
Video,0,"opening.mp4"
//Break Periods
2,18007,26789
//Storyboard Layer 0 (Background)
//Storyboard Layer 1 (Fail)
//Storyboard Layer 2 (Pass)
//Storyboard Layer 3 (Foreground)
//Storyboard Layer 4 (Overlay)
//Storyboard Sound Samples

[TimingPoints]
4717,363.636363636364,4,2,1,60,1,0
4717,-111.111111111111,4,2,1,60,0,0
6171,-111.111111111111,4,2,1,70,0,0
17807,-111.111111111111,4,2,1,50,0,0
29444,-111.111111111111,4,2,1,60,0,0
41080,-111.111111111111,4,2,1,50,0,0
52717,-111.111111111111,4,2,1,40,0,0
54171,-90.9090909090909,4,2,1,80,0,1
59989,-90.9090909090909,4,2,1,70,0,1
60898,-90.9090909090909,4,2,1,80,0,1
61444,-90.9090909090909,4,2,1,70,0,1
62353,-90.9090909090909,4,2,1,80,0,1
65444,-90.9090909090909,4,2,1,80,0,0
65807,-90.9090909090909,4,2,1,80,0,1
71626,-90.9090909090909,4,2,1,70,0,1
72535,-90.9090909090909,4,2,1,80,0,1
73080,-90.9090909090909,4,2,1,70,0,1
73989,-90.9090909090909,4,2,1,80,0,1
77444,-111.111111111111,4,2,1,70,0,0

[Colours]
Combo1 : 133,59,68
Combo2 : 229,175,137

[HitObjects]
256,192,353,12,2,4717,2:0:0:0:
132,242,5807,5,2,0:1:0:0:
47,209,6171,6,0,P|65:305|160:331,3,206.999993682861,12|2|8|2,0:3|2:0|0:3|2:0,0:0:0:0:
199,306,8534,1,8,0:3:0:0:
221,265,8717,1,4,0:3:0:0:
132,242,9080,2,0,B|130:103|130:103|168:46,1,206.999993682861,8|2,0:3|2:0,0:0:0:0:
212,61,9989,1,8,0:3:0:0:
256,76,10171,1,4,0:3:0:0:
344,46,10535,2,0,B|382:103|382:103|379:242,1,206.999993682861,8|2,0:3|2:0,0:0:0:0:
332,239,11444,1,8,0:3:0:0:
290,260,11626,1,4,0:3:0:0:
351,330,11989,6,0,P|446:305|465:209,3,206.999993682861,8|2|8|2,0:3|2:0|0:3|2:0,0:0:0:0:
439,170,14353,1,8,0:3:0:0:
397,149,14535,1,4,0:3:0:0:
379,241,14898,2,0,B|321:226|306:170|306:170|240:147|215:204,1,206.999993682861,8|2,0:3|2:0,0:0:0:0:
208,240,15807,1,8,0:3:0:0:
196,285,15989,1,4,0:3:0:0:
106,261,16353,2,0,B|60:206|84:132|84:132|106:104|144:90,2,206.999993682861,8|0|2,0:3|0:0|0:0,0:0:0:0:
33,44,27989,6,0,B|83:55|83:55|134:45,1,103.499996841431,2|2,0:1|0:1,0:0:0:0:
174,70,28535,1,2,0:1:0:0:
213,94,28717,2,0,B|263:83|263:83|331:96,1,103.499996841431,2|4,0:1|0:0,0:0:0:0:
395,45,29444,6,0,P|408:98|392:145,2,103.499996841431,2|8|0,0:1|0:3|0:0,0:0:0:0:
315,93,30535,1,8,0:3:0:0:
234,48,30898,2,0,P|273:10|322:0,2,103.499996841431,2|8|0,0:1|0:3|0:0,0:0:0:0:
315,93,31989,1,8,0:3:0:0:
317,187,32353,2,0,P|264:171|231:134,2,103.499996841431,2|8|2,0:1|0:3|2:0,0:0:0:0:
315,93,33444,1,8,0:3:0:0:
233,48,33807,5,2,0:1:0:0:
154,97,34171,1,8,0:3:0:0:
157,190,34535,1,0,0:0:0:0:
239,234,34898,1,8,0:3:0:0:
317,187,35262,6,0,B|367:175|367:175|421:187,2,103.499996841431,2|8|0,0:1|0:3|0:0,0:0:0:0:
237,142,36353,1,8,0:3:0:0:
239,234,36717,2,0,B|224:283|224:283|186:324,2,103.499996841431,2|8|0,0:1|0:3|0:0,0:0:0:0:
237,142,37807,1,8,0:3:0:0:
157,190,38171,6,0,B|53:197,1,103.499996841431,2|8,0:1|0:3,0:0:0:0:
11,114,38898,2,0,P|-4:64|8:16,1,103.499996841431,2|8,2:0|0:3,0:0:0:0:
90,63,39626,1,2,0:1:0:0:
177,22,39989,2,0,B|279:30,1,103.499996841431,8|2,0:3|2:0,0:0:0:0:
359,85,40717,1,8,0:3:0:0:
272,126,41080,5,2,0:1:0:0:
431,236,41807,1,2,0:3:0:0:
446,44,42535,1,2,0:1:0:0:
359,85,42898,1,2,0:1:0:0:
272,126,43262,1,2,0:3:0:0:
257,318,43989,5,2,0:1:0:0:
98,208,44717,1,2,0:3:0:0:
272,126,45444,1,2,0:1:0:0:
265,222,45807,1,2,0:1:0:0:
257,318,46171,1,2,0:3:0:0:
98,208,46898,6,0,L|46:206,2,51.7499984207154,2|0|0,0:1|0:0|0:0,0:0:0:0:
186,163,47626,2,0,L|290:159,1,103.499996841431,2|0,0:3|0:0,0:0:0:0:
284,257,48353,2,0,L|180:261,2,103.499996841431,2|2|2,0:1|0:1|0:3,0:0:0:0:
256,192,49807,12,2,51807,0:3:0:0:
26,135,53807,5,2,0:3:0:0:
119,69,54171,6,0,P|140:128|121:197,1,126.500003860474,4|4,0:3|0:3,0:0:0:0:
88,231,54717,2,0,L|217:224,1,126.500003860474,2|0,0:0|0:0,0:0:0:0:
302,152,55444,1,4,0:3:0:0:
374,240,55807,1,2,0:0:0:0:
286,312,56170,1,2,0:0:0:0:
446,328,56717,5,4,0:3:0:0:
374,240,57080,2,0,L|379:172,1,63.2500019302369,4|0,0:3|0:0,0:0:0:0:
425,143,57444,2,0,L|430:75,1,63.2500019302369,4|0,0:3|0:0,0:0:0:0:
396,34,57807,2,0,P|372:17|339:6,2,63.2500019302369,4|0|4,0:3|0:0|0:3,0:0:0:0:
430,80,58353,5,4,0:3:0:0:
319,119,58717,1,2,0:0:0:0:
218,59,59080,1,2,0:0:0:0:
159,160,59444,2,0,P|121:162|85:160,2,63.2500019302369,0|4|0,0:0|0:3|0:0,0:0:0:0:
214,151,59989,6,0,P|228:212|214:273,1,126.500003860474,12|0,0:1|0:0,0:0:0:0:
176,316,60535,1,4,0:1:0:0:
231,302,60717,2,0,L|294:302,1,63.2500019302369,4|4,0:1|0:3,0:0:0:0:
349,316,61080,1,2,0:3:0:0:
458,292,61444,6,0,P|444:231|458:170,1,126.500003860474,12|0,0:1|0:0,0:0:0:0:
419,128,61990,1,4,0:1:0:0:
364,142,62172,2,0,L|301:142,1,63.2500019302369,4|4,0:1|0:3,0:0:0:0:
246,128,62535,1,2,0:3:0:0:
147,185,62898,6,0,P|167:211|192:229,2,63.2500019302369,4|0|2,0:3|0:0|0:3,0:0:0:0:
132,130,63444,1,2,0:0:0:0:
181,27,63807,1,4,0:3:0:0:
246,128,64171,1,2,0:0:0:0:
246,128,64353,6,0,P|309:134|370:112,1,126.500003860474,4|2,0:3|0:3,0:0:0:0:
452,35,65080,2,0,P|415:86|403:150,1,126.500003860474,2|2,2:0|0:3,0:0:0:0:
429,259,65807,6,0,P|403:201|353:159,1,126.500003860474,4|4,0:3|0:3,0:0:0:0:
301,175,66353,2,0,B|290:235|290:235|233:271,1,126.500003860474,2|0,0:0|0:0,0:0:0:0:
207,220,66898,1,4,0:3:0:0:
179,170,67080,1,4,0:3:0:0:
94,96,67444,1,2,0:0:0:0:
169,10,67808,1,2,0:0:0:0:
8,21,68353,5,4,0:3:0:0:
94,96,68717,2,0,L|92:164,2,63.2500019302369,4|0|4,0:3|0:0|0:3,0:0:0:0:
129,53,69262,2,0,P|186:28|247:38,1,126.500003860474,2|0,0:0|0:0,0:0:0:0:
286,80,69807,1,4,0:3:0:0:
336,53,69989,6,0,L|401:53,1,63.2500019302369,4|4,0:3|0:3,0:0:0:0:
449,80,70353,1,2,0:0:0:0:
367,159,70717,1,2,0:0:0:0:
463,221,71080,2,0,P|476:193|481:159,2,63.2500019302369,0|4|0,0:0|0:3|0:0,0:0:0:0:
419,258,71626,6,0,B|383:246|383:246|342:273|297:254,1,126.500003860474,12|0,0:1|0:0,0:0:0:0:
257,215,72171,1,4,0:1:0:0:
205,192,72353,2,0,P|191:220|186:257,1,63.2500019302369,4|4,0:1|0:3,0:0:0:0:
202,312,72717,1,2,0:3:0:0:
96,357,73080,6,0,P|96:294|72:236,1,126.500003860474,12|0,0:1|0:0,0:0:0:0:
35,192,73626,1,4,0:1:0:0:
88,212,73807,2,0,L|151:211,1,63.2500019302369,4|0,0:1|0:0,0:0:0:0:
205,192,74171,1,2,0:3:0:0:
282,108,74535,6,0,P|257:90|215:77,2,63.2500019302369,4|0|2,0:3|0:0|0:3,0:0:0:0:
320,151,75080,1,2,0:0:0:0:
381,242,75444,1,4,0:3:0:0:
471,181,75807,1,2,0:0:0:0:
471,181,75989,6,0,P|489:121|475:61,1,126.500003860474,4|2,0:3|0:3,0:0:0:0:
379,121,76717,2,0,P|363:181|380:241,1,126.500003860474,2|2,2:0|0:3,0:0:0:0:
465,209,77444,6,0,P|447:305|352:331,3,206.999993682861,8|2|8|2,0:3|2:0|0:3|2:0,0:0:0:0:
313,306,79807,1,8,0:3:0:0:
291,265,79990,1,4,0:3:0:0:
380,242,80353,2,0,B|382:103|382:103|344:46,1,206.999993682861,8|2,0:3|2:0,0:0:0:0:
300,61,81262,1,8,0:3:0:0:
256,76,81444,1,4,0:3:0:0:
168,46,81808,2,0,B|130:103|130:103|133:242,1,206.999993682861,8|2,0:3|2:0,0:0:0:0:
180,239,82717,1,8,0:3:0:0:
222,260,82899,1,4,0:3:0:0:
161,330,83262,6,0,P|66:305|47:209,3,206.999993682861,8|2|8|2,0:3|2:0|0:3|2:0,0:0:0:0:
73,170,85626,1,8,0:3:0:0:
115,149,85808,1,4,0:3:0:0:
133,241,86171,2,0,B|191:226|206:170|206:170|272:147|297:204,1,206.999993682861,8|2,0:3|2:0,0:0:0:0:
304,240,87080,1,8,0:3:0:0:
316,285,87262,1,4,0:3:0:0:
406,261,87626,1,12,0:3:0:0:
406,261,87807,2,0,B|460:262,2,51.7499984207154,8|8|8,0:3|0:3|0:3,0:0:0:0:
382,171,88535,1,8,0:3:0:0:
382,171,88717,1,14,0:3:0:0:
