osu file format v14

[General]
AudioFilename: audio.mp3
AudioLeadIn: 0
PreviewTime: 54234
Countdown: 0
SampleSet: Soft
StackLeniency: 0.3
Mode: 0
LetterboxInBreaks: 0
WidescreenStoryboard: 1

[Editor]
Bookmarks: 29870
DistanceSpacing: 1
BeatDivisor: 2
GridSize: 4
TimelineZoom: 3.399999

[Metadata]
Title:RISE (TV Size)
TitleUnicode:RISE (TV Size)
Artist:MADKID
ArtistUnicode:MADKID
Creator:Gear
Version:SHIELD
Source:盾の勇者の成り上がり
Tags:マッドキッド the rising of the shield hero tate no yuusha nariagari opening
BeatmapID:1938598
BeatmapSetID:928119

[Difficulty]
HPDrainRate:5.5
CircleSize:4.2
OverallDifficulty:8.5
ApproachRate:9
SliderMultiplier:2
SliderTickRate:1

[Events]
//Background and Video events
0,0,"shield.jpg",0,0
Video,-100,"shieldo.avi"
//Break Periods
//Storyboard Layer 0 (Background)
//Storyboard Layer 1 (Fail)
//Storyboard Layer 2 (Pass)
//Storyboard Layer 3 (Foreground)
//Storyboard Layer 4 (Overlay)
//Storyboard Sound Samples

[TimingPoints]
780,363.636363636364,4,2,0,40,1,0
780,-125,4,2,0,40,0,0
5143,-125,4,2,1,60,0,0
6234,-83.3333333333333,4,2,1,75,0,0
6598,-100,4,2,1,75,0,0
18234,-125,4,2,1,60,0,0
28416,-125,4,2,1,65,0,0
29507,-166.666666666667,4,2,1,65,0,0
29870,-100,4,2,1,70,0,0
33234,-100,4,2,1,5,0,0
33325,-100,4,2,1,70,0,0
33416,-100,4,2,1,5,0,0
33507,-100,4,2,1,70,0,0
33598,-100,4,2,1,5,0,0
33689,-100,4,2,1,70,0,0
33780,-100,4,2,1,5,0,0
33870,-100,4,2,1,70,0,0
41497,-125,4,2,1,60,0,0
53143,-500,4,2,0,40,0,0
53507,-250,4,2,0,60,0,0
53780,-250,4,2,0,5,0,0
53870,-166.666666666667,4,2,0,60,0,0
54143,-166.666666666667,4,2,0,5,0,0
54234,-125,4,2,1,75,0,0
54507,-125,4,2,1,5,0,0
54598,-100,4,2,1,85,0,1
77507,-80,4,2,1,75,0,1
77870,-100,4,2,1,75,0,0
87689,-80,4,2,1,75,0,0
88052,-100,4,2,1,75,0,0

[Colours]
Combo1 : 241,251,60
Combo2 : 3,199,28
Combo3 : 16,171,245
Combo4 : 253,60,49

[HitObjects]
116,140,780,6,0,B|163:168|163:168|266:149,1,160,2|0,0:0|0:0,0:0:0:0:
94,224,1325,2,0,B|141:252|141:252|244:233,1,160,2|0,0:0|0:0,0:0:0:0:
417,159,1870,2,0,B|370:131|370:131|266:149,1,160,2|0,0:0|0:0,0:0:0:0:
395,243,2416,2,0,B|348:215|348:215|244:233,1,160,2|0,0:0|0:0,0:0:0:0:
116,140,2961,6,0,L|184:180,1,80,2|0,0:0|0:0,0:0:0:0:
348,118,3325,2,0,L|416:158,1,80,2|0,0:0|0:0,0:0:0:0:
244,233,3689,6,0,B|348:215|348:215|395:243,1,160,2|0,0:0|0:0,0:0:0:0:
266,149,4234,2,0,B|370:131|370:131|417:159,1,160,2|0,0:0|0:0,0:0:0:0:
244,233,4780,2,0,B|322:218,1,80,2|0,0:0|0:0,0:0:0:0:
482,207,5143,6,0,L|477:246,1,40
391,269,5325,2,0,L|394:243,2,26.6666666666667
364,298,5507,2,0,B|286:313,1,80,2|0,0:0|0:0,0:0:0:0:
124,296,5870,2,0,L|135:216,1,80,2|0,0:0|0:0,0:0:0:0:
205,169,6113,1,0,0:0:0:0:
207,161,6173,1,0,0:0:0:0:
209,153,6234,6,0,L|225:34,1,119.999996337891,6|0,0:0|0:0,0:0:0:0:
464,41,6598,6,0,P|453:140|443:239,1,200,2|8,1:2|0:0,0:0:0:0:
433,348,7143,1,0,0:0:0:0:
433,348,7325,1,2,0:0:0:0:
359,192,7507,1,0,1:0:0:0:
283,349,7689,2,0,P|212:323|138:315,1,150,8|0,0:0|0:0,0:0:0:0:
51,355,8052,6,0,P|44:255|29:156,1,200,2|8,1:2|0:0,0:0:0:0:
74,44,8598,1,0,0:0:0:0:
178,144,8780,2,0,P|228:150|278:151,1,100,2|0,0:0|1:0,0:0:0:0:
443,38,9143,2,0,P|393:43|343:44,1,100,8|0,0:0|0:0,0:0:0:0:
428,141,9416,1,0,0:0:0:0:
428,141,9507,6,0,P|451:237|433:334,2,200,2|8|0,1:2|0:0|0:0,0:0:0:0:
343,44,10416,1,0,1:0:0:0:
274,194,10598,2,0,L|174:186,1,100,8|0,0:0|0:0,0:0:0:0:
134,64,10870,1,0,0:0:0:0:
134,64,10961,6,0,P|130:164|122:264,1,200,2|8,1:2|0:0,0:0:0:0:
158,378,11507,1,0,0:0:0:0:
158,378,11689,1,2,0:0:0:0:
221,222,11870,1,0,1:0:0:0:
316,374,12052,1,8,0:0:0:0:
468,278,12234,1,0,0:0:0:0:
468,278,12325,1,0,0:0:0:0:
468,278,12416,6,0,P|457:179|447:80,1,200,2|8,1:2|0:0,0:0:0:0:
338,28,12961,1,0,0:0:0:0:
338,28,13143,1,2,0:0:0:0:
302,183,13325,1,0,1:0:0:0:
207,31,13507,2,0,P|133:43|58:50,1,150,8|0,0:0|0:0,0:0:0:0:
31,130,13870,6,0,P|37:229|32:329,1,200,2|8,1:2|0:0,0:0:0:0:
135,261,14416,1,0,0:0:0:0:
244,360,14598,2,0,P|293:355|341:342,1,100,2|0,0:0|1:0,0:0:0:0:
466,201,14961,2,0,P|416:196|368:183,1,100,8|0,0:0|0:0,0:0:0:0:
245,150,15234,1,0,0:0:0:0:
245,150,15325,6,0,P|335:108|396:31,2,200,2|8|0,1:2|0:0|0:0,0:0:0:0:
146,52,16234,1,0,1:0:0:0:
56,201,16416,2,0,L|67:300,1,100,8|0,0:0|0:0,0:0:0:0:
169,375,16689,1,0,0:0:0:0:
168,375,16780,6,0,P|180:326|200:281,1,100,2|0,1:2|0:0,0:0:0:0:
385,370,17143,2,0,P|335:365|287:351,1,100,8|0,0:0|0:0,0:0:0:0:
245,214,17507,1,2,0:0:0:0:
168,375,17689,1,0,1:0:0:0:
88,179,17870,1,8,0:0:0:0:
127,295,18052,1,0,0:0:0:0:
127,295,18143,1,0,0:0:0:0:
127,295,18234,6,0,L|206:298,1,80,2|0,0:0|0:0,0:0:0:0:
300,305,18598,1,0,0:0:0:0:
300,305,18780,1,0,0:0:0:0:
394,312,18961,1,0,0:0:0:0:
394,312,19143,1,0,0:0:0:0:
440,214,19325,1,0,0:0:0:0:
477,316,19507,1,0,0:0:0:0:
357,210,19689,6,0,P|277:209|190:204,1,160,2|0,0:0|0:0,0:0:0:0:
107,179,20234,1,0,0:0:0:0:
94,271,20416,1,0,0:0:0:0:
94,271,20598,1,0,0:0:0:0:
185,331,20780,1,0,0:0:0:0:
81,363,20961,1,0,0:0:0:0:
198,239,21143,6,0,P|237:239|277:238,1,80,2|0,0:0|0:0,0:0:0:0:
369,215,21507,1,0,0:0:0:0:
443,349,21689,2,0,P|442:309|444:270,1,80
444,270,22052,1,0,0:0:0:0:
323,361,22234,1,0,0:0:0:0:
323,361,22416,1,0,0:0:0:0:
198,239,22598,6,0,P|237:240|277:243,1,80,2|0,0:0|0:0,0:0:0:0:
368,226,22961,1,0,0:0:0:0:
192,139,23143,2,0,P|231:142|271:149,1,80,2|0,0:0|0:0,0:0:0:0:
387,140,23507,1,0,0:0:0:0:
348,27,23689,1,0,0:0:0:0:
348,27,23870,1,0,0:0:0:0:
387,140,24052,6,0,P|387:219|393:307,1,160,2|0,0:0|0:0,0:0:0:0:
319,358,24598,1,0,0:0:0:0:
271,278,24780,1,0,0:0:0:0:
271,278,24961,1,0,0:0:0:0:
176,343,25143,1,0,0:0:0:0:
152,229,25325,1,0,0:0:0:0:
56,293,25507,6,0,P|51:254|42:215,1,80,2|0,0:0|0:0,0:0:0:0:
91,109,25870,1,0,0:0:0:0:
91,109,26052,1,0,0:0:0:0:
200,134,26234,2,0,P|239:131|279:128,1,80
347,70,26507,2,0,P|351:109|356:149,1,80
379,218,26780,1,0,0:0:0:0:
483,55,26961,5,2,3:0:0:0:
483,55,27325,1,2,3:0:0:0:
461,221,27507,1,0,1:0:0:0:
461,221,27689,1,0,0:0:0:0:
328,118,27870,1,0,1:0:0:0:
306,285,28052,1,8,1:3:0:0:
306,285,28416,5,0,1:0:0:0:
461,221,28598,1,0,1:0:0:0:
328,118,28780,1,0,1:0:0:0:
411,312,28962,1,0,1:0:0:0:
452,109,29143,1,0,1:0:0:0:
258,192,29325,1,0,1:0:0:0:
490,320,29507,6,0,B|495:302|495:302|490:282|490:282|490:261,1,59.9999981689454,2|0,1:2|1:0,0:0:0:0:
349,250,29870,5,2,1:2:0:0:
319,323,29992,2,0,B|349:330|349:330|383:322,1,66.6666666666667
348,151,30234,1,8,0:0:0:0:
421,181,30356,2,0,B|428:150|428:150|420:116,1,66.6666666666667
263,202,30598,5,2,0:0:0:0:
349,250,30719,1,0,0:0:0:0:
348,151,30840,1,0,0:0:0:0:
263,202,30961,2,0,B|230:208|230:208|166:197|166:197|131:204,1,133.333333333333,10|0,0:0|0:0,0:0:0:0:
55,225,31325,5,2,1:2:0:0:
97,291,31446,2,0,L|162:278,1,66.6666666666667
339,181,31689,1,8,0:0:0:0:
297,115,31810,2,0,L|231:127,1,66.6666666666667
263,266,32052,6,0,B|270:235|270:235|262:201,1,66.6666666666667,2|0,0:0|0:0,0:0:0:0:
231,126,32295,1,0,0:0:0:0:
86,191,32416,2,0,B|134:235|134:235|185:191,1,133.333333333333,10|0,0:0|0:0,0:0:0:0:
152,118,32780,5,2,1:2:0:0:
187,46,32901,2,0,L|256:33,1,66.6666666666667
279,117,33143,6,0,L|230:127,1,50,10|0,0:0|0:0,0:0:0:0:
396,159,33325,2,0,L|406:110,1,50,0|0,0:0|0:0,0:0:0:0:
262,201,33507,6,0,L|213:211,1,50,2|0,0:0|0:0,0:0:0:0:
399,284,33689,2,0,L|409:235,1,50,0|0,1:0|0:0,0:0:0:0:
245,286,33870,6,0,B|238:316|238:316|246:350,1,66.6666666666667,10|0,0:0|0:0,0:0:0:0:
328,316,34113,1,0,0:0:0:0:
165,377,34234,2,0,L|137:246,1,133.333333333333,2|0,1:2|0:0,0:0:0:0:
122,168,34598,1,8,0:0:0:0:
198,145,34719,2,0,L|212:209,1,66.6666666666667
134,83,34961,6,0,P|184:74|232:61,1,100,2|0,0:0|1:0,0:0:0:0:
419,243,35325,2,0,P|369:234|321:221,1,100,10|0,0:0|0:0,0:0:0:0:
137,246,35689,5,2,1:2:0:0:
169,319,35810,2,0,B|195:302|195:302|213:273,1,66.6666666666667
271,113,36052,1,8,0:0:0:0:
198,145,36173,2,0,B|214:171|214:171|243:189,1,66.6666666666667
412,126,36416,5,2,0:0:0:0:
348,49,36537,1,0,0:0:0:0:
271,113,36658,1,0,0:0:0:0:
412,126,36780,2,0,B|418:159|418:159|407:223|407:223|414:258,1,133.333333333333,10|0,0:0|0:0,0:0:0:0:
456,324,37143,5,2,1:2:0:0:
389,365,37264,2,0,L|323:376,1,66.6666666666667
280,179,37507,2,0,L|345:167,1,66.6666666666667,8|0,0:0|0:0,0:0:0:0:
412,126,37749,1,0,0:0:0:0:
413,257,37870,6,0,P|364:267|314:275,1,100,2|0,0:0|1:0,0:0:0:0:
89,104,38234,2,0,P|137:114|187:122,1,100,10|0,0:0|0:0,0:0:0:0:
414,24,38598,6,0,P|407:99|423:172,1,150,2|0,1:2|0:0,0:0:0:0:
412,256,38961,2,0,P|370:231|344:189,2,100,8|0|0,0:0|0:0|0:0,0:0:0:0:
290,273,39507,1,0,1:0:0:0:
483,349,39689,2,0,L|383:355,1,100,8|0,0:0|0:0,0:0:0:0:
152,357,40052,6,0,P|141:308|137:258,1,100,2|0,1:2|0:0,0:0:0:0:
304,173,40416,1,8,0:0:0:0:
290,272,40598,2,0,P|300:223|304:174,1,100
335,9,40961,1,0,1:0:0:0:
237,115,41143,2,0,P|306:141|381:142,1,150,8|0,0:0|0:0,0:0:0:0:
420,211,41507,5,0,1:0:0:0:
390,367,41689,2,0,P|398:287|420:210,1,160,2|0,0:0|0:0,0:0:0:0:
253,362,42234,2,0,P|245:282|223:205,1,160,10|0,0:0|0:0,0:0:0:0:
223,205,42780,1,2,0:0:0:0:
126,246,42961,2,0,P|86:251|46:250,1,80,0|0,1:0|0:0,0:0:0:0:
292,130,43325,1,2,1:2:0:0:
292,130,43507,1,0,0:0:0:0:
253,362,43689,5,10,1:2:0:0:
374,232,43870,1,0,0:0:0:0:
253,362,44052,2,0,P|195:349|136:339,1,120,2|0,0:0|0:0,0:0:0:0:
64,300,44416,5,0,1:0:0:0:
73,140,44598,2,0,L|64:299,1,160,2|0,0:0|0:0,0:0:0:0:
202,119,45143,2,0,L|212:278,1,160,10|0,0:0|0:0,0:0:0:0:
212,278,45689,1,2,0:0:0:0:
310,234,45870,6,0,P|349:229|388:235,1,80,0|0,1:0|0:0,0:0:0:0:
230,360,46234,2,0,P|191:365|152:359,1,80,0|0,1:0|0:0,0:0:0:0:
202,119,46598,2,0,L|207:198,1,80,10|0,1:2|0:0,0:0:0:0:
318,353,46961,2,0,L|310:234,1,120,2|0,0:0|0:0,0:0:0:0:
303,158,47325,5,2,1:2:0:0:
207,198,47507,1,0,0:0:0:0:
303,157,47689,2,0,P|359:173|387:224,1,120,2|0,0:0|0:0,0:0:0:0:
314,313,48052,2,0,L|310:234,1,80,10|0,1:2|0:0,0:0:0:0:
207,198,48416,2,0,L|202:118,1,80
330,18,48780,6,0,L|325:97,1,80,2|0,1:2|0:0,0:0:0:0:
129,226,49143,2,0,L|124:146,1,80,0|0,1:0|0:0,0:0:0:0:
305,362,49507,2,0,L|316:202,1,160,8|0,1:2|0:0,0:0:0:0:
202,118,50052,1,0,0:0:0:0:
203,126,50143,1,0,0:0:0:0:
204,134,50234,5,0,1:0:0:0:
192,41,50416,1,0,1:0:0:0:
308,134,50598,5,0,1:0:0:0:
320,41,50780,1,0,1:0:0:0:
141,195,50961,5,0,1:0:0:0:
371,195,51143,1,0,1:0:0:0:
153,288,51325,5,0,1:0:0:0:
359,288,51507,1,0,1:0:0:0:
182,27,51689,5,8,0:0:0:0:
78,262,51870,1,8,0:0:0:0:
315,366,52052,1,8,0:0:0:0:
418,129,52234,1,8,0:0:0:0:
272,204,53143,6,0,L|268:184,1,20,2|0,0:0|0:0,0:0:0:0:
276,100,53507,2,0,P|304:108|330:123,1,60,2|0,0:0|0:0,0:0:0:0:
418,129,53870,2,0,P|374:119|329:123,1,89.9999972534181,2|0,0:0|0:0,0:0:0:0:
282,303,54234,6,0,L|268:183,1,120,2|0,0:2|0:0,0:0:0:0:
317,23,54598,6,0,L|329:123,1,100,2|0,1:2|0:0,0:0:0:0:
429,228,54961,2,0,L|418:129,1,100,0|0,1:0|0:0,0:0:0:0:
282,303,55325,2,0,L|270:203,1,100,0|0,1:0|0:0,0:0:0:0:
108,52,55689,5,0,1:0:0:0:
108,52,55870,1,0,1:0:0:0:
115,277,56052,2,0,P|120:227|129:178,1,100,2|0,1:2|0:0,0:0:0:0:
233,343,56416,2,0,P|225:293|221:243,1,100,0|0,1:0|0:0,0:0:0:0:
364,376,56780,2,0,P|343:330|326:283,1,100,0|0,1:0|0:0,0:0:0:0:
471,108,57143,2,0,P|469:157|457:206,1,100,0|0,1:0|0:0,0:0:0:0:
221,243,57507,5,2,1:2:0:0:
222,123,57689,1,0,0:0:0:0:
325,184,57870,1,2,1:2:0:0:
152,182,58052,5,0,0:0:0:0:
308,93,58234,1,2,1:2:0:0:
306,273,58415,1,0,0:0:0:0:
388,105,58598,5,0,1:2:0:0:
227,262,58779,1,0,1:2:0:0:
138,83,58961,2,0,P|149:132|152:182,1,100,2|0,1:2|0:0,0:0:0:0:
308,93,59325,2,0,P|281:135|247:172,1,100,0|0,1:0|0:0,0:0:0:0:
420,219,59689,2,0,P|371:229|321:232,1,100,0|0,1:0|0:0,0:0:0:0:
152,181,60052,1,2,0:0:0:0:
308,93,60234,1,0,0:0:0:0:
246,272,60416,6,0,B|190:311|130:270|103:266,1,150,2|0,1:2|0:0,0:0:0:0:
8,273,60780,2,0,P|54:256|103:266,1,100,10|0,0:0|0:0,0:0:0:0:
321,231,61143,1,2,0:0:0:0:
152,181,61325,1,0,1:0:0:0:
333,153,61507,1,10,0:0:0:0:
139,258,61689,1,0,0:0:0:0:
239,62,61870,6,0,B|295:23|355:64|382:68,1,150,2|0,1:2|0:0,0:0:0:0:
478,62,62234,2,0,P|430:77|382:68,1,100,10|0,0:0|0:0,0:0:0:0:
164,103,62597,1,2,0:0:0:0:
333,153,62779,1,0,1:0:0:0:
91,235,62961,2,0,L|190:245,1,100,10|0,0:0|0:0,0:0:0:0:
453,348,63325,5,2,1:2:0:0:
453,348,63507,1,0,0:0:0:0:
333,153,63689,2,0,B|309:201|333:249|333:249|357:297|333:345,1,200,10|0,0:0|0:0,0:0:0:0:
411,201,64234,1,2,1:2:0:0:
254,297,64416,2,0,L|155:287,1,100,8|0,0:0|0:0,0:0:0:0:
21,79,64780,6,0,P|37:60|59:50,1,50,2|0,1:2|0:0,0:0:0:0:
144,55,64961,2,0,P|162:71|172:93,1,50,2|0,0:0|0:0,0:0:0:0:
86,229,65143,2,0,L|94:130,1,100,8|0,0:0|0:0,0:0:0:0:
245,38,65416,1,0,0:0:0:0:
245,38,65507,2,0,L|248:87,1,50,2|0,0:0|0:0,0:0:0:0:
211,190,65689,5,2,1:2:0:0:
355,57,65870,2,0,L|454:65,1,100,12|0,0:0|0:0,0:0:0:0:
486,172,66143,1,0,0:0:0:0:
486,172,66234,6,0,L|387:164,1,100,2|0,1:2|0:0,0:0:0:0:
286,264,66598,2,0,L|385:256,1,100,0|0,1:0|0:0,0:0:0:0:
255,65,66961,2,0,L|354:57,1,100,0|0,1:0|0:0,0:0:0:0:
485,253,67325,5,0,1:0:0:0:
485,253,67507,1,0,1:0:0:0:
310,320,67689,2,0,P|344:283|385:255,1,100,2|0,1:2|0:0,0:0:0:0:
220,183,68052,2,0,P|269:181|319:190,1,100,0|0,1:0|0:0,0:0:0:0:
253,22,68416,2,0,P|289:56|317:97,1,100,0|0,1:0|0:0,0:0:0:0:
107,210,68780,2,0,P|114:160|128:112,1,100,0|0,1:0|0:0,0:0:0:0:
319,190,69143,5,2,1:2:0:0:
244,288,69325,1,0,0:0:0:0:
196,174,69507,1,2,1:2:0:0:
319,190,69689,2,0,L|418:204,1,100,0|2,0:0|1:2,0:0:0:0:
424,300,70052,1,0,0:0:0:0:
376,109,70234,5,0,1:0:0:0:
331,321,70416,1,0,1:0:0:0:
219,192,70598,2,0,P|269:187|319:190,1,100,2|0,1:2|0:0,0:0:0:0:
153,128,70961,2,0,P|185:89|221:55,1,100,0|0,1:0|0:0,0:0:0:0:
60,129,71325,2,0,P|55:79|57:29,1,100,0|0,1:0|0:0,0:0:0:0:
102,218,71689,1,2,0:0:0:0:
221,55,71870,1,0,0:0:0:0:
397,104,72052,6,0,B|298:112|298:112|264:150|264:150,1,150,2|0,1:2|0:0,0:0:0:0:
165,160,72416,2,0,L|264:151,1,100,10|0,0:0|0:0,0:0:0:0:
413,23,72780,1,2,0:0:0:0:
222,54,72961,1,0,1:0:0:0:
352,184,73143,1,10,0:2:0:0:
139,46,73324,1,0,0:0:0:0:
174,261,73507,6,0,P|235:219|265:151,1,150,2|0,1:2|0:0,0:0:0:0:
248,55,73870,2,0,P|266:101|265:150,1,100,10|0,0:0|0:0,0:0:0:0:
93,336,74234,1,2,0:0:0:0:
165,139,74416,1,0,1:0:0:0:
368,300,74598,2,0,L|269:290,1,100,10|0,0:0|0:0,0:0:0:0:
14,197,74961,5,2,1:2:0:0:
14,197,75143,1,0,0:0:0:0:
134,2,75325,2,0,B|158:50|134:98|134:98|110:146|134:194,1,200,10|0,0:0|0:0,0:0:0:0:
56,50,75870,1,2,1:2:0:0:
213,146,76052,2,0,L|312:136,1,100,8|0,0:0|0:0,0:0:0:0:
498,33,76416,6,0,L|494:83,1,50,2|0,1:2|0:0,0:0:0:0:
411,133,76598,2,0,L|406:83,1,50,2|0,0:0|0:0,0:0:0:0:
478,207,76780,2,0,P|433:228|383:228,1,100,8|0,0:0|0:0,0:0:0:0:
316,86,77052,1,0,0:0:0:0:
316,86,77143,6,0,L|311:135,1,50,2|0,0:0|0:0,0:0:0:0:
254,279,77325,2,0,L|249:230,1,50,2|0,1:2|0:0,0:0:0:0:
163,46,77507,2,0,L|153:170,1,125,12|0,0:0|0:0,0:0:0:0:
130,339,77870,6,0,P|229:328|328:318,1,200,2|8,1:2|0:0,0:0:0:0:
442,282,78416,1,0,0:0:0:0:
442,282,78598,1,2,0:0:0:0:
392,118,78780,1,0,1:0:0:0:
268,246,78961,2,0,P|265:196|257:146,1,100,8|0,0:0|0:0,0:0:0:0:
151,64,79234,1,0,0:0:0:0:
151,64,79325,6,0,P|250:57|348:41,1,200,2|8,1:2|0:0,0:0:0:0:
479,43,79870,1,0,0:0:0:0:
372,229,80052,2,0,P|369:179|366:129,1,100,2|0,0:0|1:0,0:0:0:0:
480,353,80416,2,0,P|482:303|485:253,1,100,8|0,0:0|0:0,0:0:0:0:
381,324,80689,1,0,0:0:0:0:
379,322,80780,6,0,P|280:325|193:372,2,200,2|8|0,1:2|0:0|0:0,0:0:0:0:
485,253,81689,1,0,1:0:0:0:
366,129,81870,2,0,P|369:179|372:229,1,100,8|0,0:0|0:0,0:0:0:0:
463,122,82143,1,0,0:0:0:0:
463,122,82234,6,0,P|363:118|263:110,1,200,2|8,1:2|0:0,0:0:0:0:
142,150,82780,1,0,0:0:0:0:
142,150,82961,1,2,0:0:0:0:
159,317,83143,1,0,1:0:0:0:
304,203,83325,1,8,0:0:0:0:
425,351,83507,1,0,0:0:0:0:
425,351,83598,1,0,0:0:0:0:
425,351,83689,6,0,P|436:252|446:153,1,200,2|8,1:2|0:0,0:0:0:0:
423,31,84234,1,0,0:0:0:0:
423,31,84416,1,2,0:0:0:0:
341,183,84598,1,0,1:0:0:0:
240,35,84780,2,0,P|190:42|140:44,1,100,8|0,0:0|0:0,0:0:0:0:
42,120,85052,1,0,0:0:0:0:
42,120,85143,6,0,P|140:138|239:140,1,200,2|8,1:2|0:0,0:0:0:0:
345,81,85689,1,0,0:0:0:0:
429,239,85870,2,0,P|432:189|439:139,1,100,2|0,0:0|1:0,0:0:0:0:
318,330,86234,2,0,P|314:280|307:230,1,100,8|0,0:0|0:0,0:0:0:0:
142,49,86598,6,0,P|192:42|242:39,1,100,2|0,1:2|0:0,0:0:0:0:
365,86,86961,1,8,0:0:0:0:
183,217,87143,6,0,P|213:177|246:140,1,100,2|0,0:0|0:0,0:0:0:0:
365,86,87506,1,0,1:0:0:0:
356,356,87689,6,0,L|368:231,1,125,6|0,1:2|0:0,0:0:0:0:
245,43,88052,5,8,1:2:0:0:
54,166,88234,1,8,0:0:0:0:
177,355,88416,1,8,0:0:0:0:
367,231,88598,1,8,0:0:0:0:
245,43,88961,5,8,0:0:0:0:
177,355,89143,1,4,1:1:0:0:
