osu file format v14

[General]
AudioFilename: audio.mp3
AudioLeadIn: 0
PreviewTime: 54234
Countdown: 0
SampleSet: Soft
StackLeniency: 0.3
Mode: 0
LetterboxInBreaks: 0
WidescreenStoryboard: 1

[Editor]
Bookmarks: 29870
DistanceSpacing: 1.3
BeatDivisor: 4
GridSize: 4
TimelineZoom: 2.399999

[Metadata]
Title:RISE (TV Size)
TitleUnicode:RISE (TV Size)
Artist:MADKID
ArtistUnicode:MADKID
Creator:Gear
Version:NORMAL
Source:盾の勇者の成り上がり
Tags:マッドキッド the rising of the shield hero tate no yuusha nariagari opening
BeatmapID:1938594
BeatmapSetID:928119

[Difficulty]
HPDrainRate:3
CircleSize:3.5
OverallDifficulty:5
ApproachRate:5.5
SliderMultiplier:1.2
SliderTickRate:1

[Events]
//Background and Video events
0,0,"shield.jpg",0,0
Video,-100,"shieldo.avi"
//Break Periods
//Storyboard Layer 0 (Background)
//Storyboard Layer 1 (Fail)
//Storyboard Layer 2 (Pass)
//Storyboard Layer 3 (Foreground)
//Storyboard Sound Samples

[TimingPoints]
780,363.636363636364,4,2,0,40,1,0
5143,-100,4,2,1,60,0,0
6598,-100,4,2,1,75,0,0
18234,-100,4,2,1,60,0,0
28416,-100,4,2,1,65,0,0
29870,-100,4,2,1,70,0,0
41497,-100,4,2,1,60,0,0
41507,-100,4,2,1,60,0,0
54598,-100,4,2,1,85,0,1
77507,-100,4,2,1,75,0,1
77870,-100,4,2,1,75,0,0
88052,-100,4,2,1,75,0,0

[Colours]
Combo1 : 241,251,60
Combo2 : 3,199,28
Combo3 : 16,171,245
Combo4 : 253,60,49

[HitObjects]
285,287,780,6,0,B|312:299|312:299|398:273,1,120,2|0,0:0|0:0,0:0:0:0:
417,198,1325,2,0,B|390:186|390:186|303:211,1,120,2|0,0:0|0:0,0:0:0:0:
228,232,1870,2,0,B|201:244|201:244|114:218,1,120,2|0,0:0|0:0,0:0:0:0:
96,143,2416,2,0,B|123:131|123:131|209:156,1,120,2|0,0:0|0:0,0:0:0:0:
286,137,2961,2,0,L|343:120,1,60,2|0,0:0|0:0,0:0:0:0:
419,142,3325,1,2,0:0:0:0:
452,294,3689,6,0,B|425:282|425:282|338:307,1,120,2|0,0:0|0:0,0:0:0:0:
260,307,4234,2,0,B|173:281|173:281|146:293,1,120,2|0,0:0|0:0,0:0:0:0:
99,230,4780,2,0,L|152:203,1,60,2|0,0:0|0:0,0:0:0:0:
199,140,5143,2,0,L|172:125,2,30
225,66,5507,2,0,L|278:93,1,60,2|0,0:0|0:0,0:0:0:0:
345,133,5870,2,0,L|372:80,1,60,2|0,0:0|0:0,0:0:0:0:
433,30,6234,1,6,0:0:0:0:
491,176,6598,6,0,P|492:235|489:295,1,120,2|8,1:2|0:0,0:0:0:0:
429,346,7143,1,0,0:0:0:0:
361,306,7325,2,0,P|331:302|301:303,1,60,2|0,0:0|1:0,0:0:0:0:
226,327,7689,1,8,0:0:0:0:
92,247,8052,6,0,P|95:187|92:127,1,120,2|8,1:2|0:0,0:0:0:0:
116,52,8598,1,0,0:0:0:0:
192,34,8780,2,0,P|221:39|251:40,1,60,2|0,0:0|1:0,0:0:0:0:
286,110,9143,2,0,P|315:104|345:103,1,60,8|0,0:0|0:0,0:0:0:0:
421,83,9507,6,0,P|464:123|471:181,2,120,2|8|0,1:2|0:0|0:0,0:0:0:0:
366,27,10416,1,0,1:0:0:0:
345,103,10598,2,0,P|315:103|286:110,1,60,8|0,0:0|0:0,0:0:0:0:
215,74,10961,6,0,P|160:95|101:106,1,120,2|8,1:2|0:0,0:0:0:0:
25,128,11507,1,0,0:0:0:0:
48,202,11689,2,0,P|48:231|47:261,2,60,2|0|8,0:0|1:0|0:0,0:0:0:0:
157,313,12416,6,0,P|216:312|276:315,1,120,2|8,1:2|0:0,0:0:0:0:
351,338,12961,1,0,0:0:0:0:
401,278,13143,2,0,P|402:248|405:218,1,60,2|0,0:0|1:0,0:0:0:0:
392,140,13507,1,8,0:0:0:0:
272,40,13870,6,0,P|212:43|152:40,1,120,2|8,1:2|0:0,0:0:0:0:
74,53,14416,1,0,0:0:0:0:
49,127,14598,2,0,P|54:156|55:186,1,60,2|0,0:0|1:0,0:0:0:0:
125,221,14961,2,0,P|119:250|118:280,1,60,8|0,0:0|0:0,0:0:0:0:
155,348,15325,6,0,P|97:355|50:320,2,120,2|8|0,1:2|0:0|0:0,0:0:0:0:
215,297,16234,1,0,1:0:0:0:
280,339,16416,2,0,P|309:345|339:346,1,60,8|0,0:0|0:0,0:0:0:0:
399,295,16780,6,0,P|401:235|412:176,1,120,2|8,1:2|0:0,0:0:0:0:
439,102,17325,1,0,0:0:0:0:
379,51,17507,2,0,P|349:55|319:57,2,60,2|0|8,0:0|1:0|0:0,0:0:0:0:
302,187,18234,6,0,P|244:177|184:170,1,120,2|0,0:0|0:0,0:0:0:0:
116,210,18780,1,0,0:0:0:0:
116,210,18961,2,0,P|132:267|140:327,1,120,0|0,0:0|0:0,0:0:0:0:
295,350,19689,6,0,P|353:340|413:333,1,120,2|0,0:0|0:0,0:0:0:0:
461,271,20234,1,0,0:0:0:0:
460,270,20416,2,0,P|456:241|454:211,2,60,0|0|0,0:0|0:0|0:0,0:0:0:0:
317,209,21143,6,0,P|259:199|199:192,1,120,2|0,0:0|0:0,0:0:0:0:
171,118,21689,1,0,0:0:0:0:
170,118,21870,2,0,P|200:111|230:107,1,60,0|0,0:0|0:0,0:0:0:0:
277,45,22234,2,0,P|305:54|333:65,1,60,0|0,0:0|0:0,0:0:0:0:
392,116,22598,6,0,P|419:105|448:95,2,60,2|0|0,0:0|0:0|0:0,0:0:0:0:
338,172,23143,2,0,P|333:231|345:290,1,120,2|0,0:0|0:0,0:0:0:0:
395,351,23689,1,0,0:0:0:0:
239,351,24052,6,0,P|179:341|119:337,1,120,2|0,0:0|0:0,0:0:0:0:
55,292,24598,1,0,0:0:0:0:
55,291,24780,2,0,P|58:262|60:232,1,60,0|0,0:0|0:0,0:0:0:0:
125,188,25143,2,0,P|121:158|119:128,1,60,0|0,0:0|0:0,0:0:0:0:
152,57,25507,6,0,P|211:59|271:57,1,120,2|0,0:0|0:0,0:0:0:0:
349,46,26052,1,0,0:0:0:0:
382,116,26234,2,0,L|375:227,2,90,0|0|0,0:0|0:0|0:0,0:0:0:0:
459,125,26961,6,0,L|452:244,1,120,2|2,3:0|3:0,0:0:0:0:
458,323,27507,1,0,1:0:0:0:
388,359,27689,2,0,P|358:361|328:363,2,60,0|0|8,0:0|1:0|1:3,0:0:0:0:
376,205,28416,5,0,1:0:0:0:
376,205,28598,1,0,1:0:0:0:
316,256,28780,2,0,P|289:242|263:226,1,60,0|0,1:0|1:0,0:0:0:0:
198,270,29143,2,0,P|188:241|181:212,1,60,0|0,1:0|1:0,0:0:0:0:
104,196,29507,2,0,P|117:169|133:143,1,60,2|0,1:2|1:0,0:0:0:0:
175,77,29870,6,0,L|234:70,1,60,2|0,1:2|0:0,0:0:0:0:
255,146,30234,2,0,L|314:152,1,60,8|0,0:0|0:0,0:0:0:0:
340,78,30598,2,0,L|399:71,2,60,2|0|10,0:0|0:0|0:0,0:0:0:0:
316,232,31325,6,0,L|256:238,1,60,2|0,1:2|0:0,0:0:0:0:
220,308,31689,2,0,L|173:270,1,60,8|0,0:0|0:0,0:0:0:0:
98,294,32052,2,0,L|91:234,1,60,2|0,0:0|0:0,0:0:0:0:
83,156,32416,1,10,0:0:0:0:
189,41,32780,6,0,P|248:48|308:51,1,120,2|10,1:2|0:0,0:0:0:0:
386,51,33325,1,0,0:0:0:0:
434,112,33507,2,0,L|429:171,1,60,2|0,0:0|1:0,0:0:0:0:
352,181,33870,2,0,L|356:240,1,60,10|0,0:0|0:0,0:0:0:0:
358,319,34234,6,0,P|298:311|238:308,1,120,2|8,1:2|0:0,0:0:0:0:
179,256,34780,1,0,0:0:0:0:
115,300,34961,2,0,L|116:359,2,60,2|0|10,0:0|1:0|0:0,0:0:0:0:
47,158,35689,6,0,L|58:99,1,60,2|0,1:2|0:0,0:0:0:0:
132,76,36052,2,0,L|143:134,1,60,8|0,0:0|0:0,0:0:0:0:
218,156,36416,2,0,L|229:97,2,60,2|0|10,0:0|0:0|0:0,0:0:0:0:
271,302,37143,6,0,L|330:308,1,60,2|0,1:2|0:0,0:0:0:0:
334,229,37507,2,0,L|393:235,1,60,8|0,0:0|0:0,0:0:0:0:
397,156,37870,2,0,L|456:162,1,60,2|0,0:0|1:0,0:0:0:0:
460,83,38234,1,10,0:0:0:0:
305,108,38598,6,0,L|185:95,2,120,2|8|0,1:2|0:0|0:0,0:0:0:0:
378,81,39507,1,0,1:0:0:0:
397,156,39689,2,0,L|456:162,1,60,8|0,0:0|0:0,0:0:0:0:
453,241,40052,6,0,L|394:235,1,60,2|0,1:2|0:0,0:0:0:0:
325,195,40416,2,0,L|205:208,1,120,8|0,0:0|0:0,0:0:0:0:
130,186,40961,1,0,1:0:0:0:
84,249,41143,2,0,P|87:278|94:308,1,60,8|0,0:0|0:0,0:0:0:0:
161,347,41507,6,0,B|213:317|213:317|330:342,1,180,0|0,1:0|0:0,0:0:0:0:
399,306,42234,2,0,P|410:247|436:193,1,120,10|0,0:0|0:0,0:0:0:0:
441,37,42961,1,0,1:0:0:0:
285,20,43325,2,0,L|291:79,1,60,2|0,1:2|0:0,0:0:0:0:
357,122,43689,2,0,L|350:181,2,60,10|0|2,1:2|0:0|0:0,0:0:0:0:
431,259,44416,6,0,B|379:289|379:289|262:264,1,180,0|0,1:0|0:0,0:0:0:0:
207,207,45143,2,0,P|162:246|106:266,1,120,10|0,0:0|0:0,0:0:0:0:
31,129,45870,1,0,1:0:0:0:
148,26,46234,2,0,L|207:30,1,60,0|0,1:0|0:0,0:0:0:0:
207,108,46597,2,0,L|326:101,1,120,10|2,1:2|0:0,0:0:0:0:
219,215,47325,6,0,L|160:210,2,60,2|0|2,1:2|0:0|0:0,0:0:0:0:
281,357,48052,2,0,L|400:346,1,120,10|0,1:2|0:0,0:0:0:0:
483,214,48780,2,0,L|476:154,1,60,2|0,1:2|0:0,0:0:0:0:
398,157,49143,2,0,L|404:97,1,60,0|0,1:0|0:0,0:0:0:0:
350,40,49507,2,0,L|230:50,1,120,8|0,1:2|0:0,0:0:0:0:
85,108,50234,6,0,L|78:167,1,60,0|0,1:0|1:0,0:0:0:0:
156,173,50598,2,0,L|180:227,1,60,0|0,1:0|1:0,0:0:0:0:
249,193,50961,2,0,L|297:228,1,60,0|0,1:0|1:0,0:0:0:0:
340,164,51325,2,0,L|399:170,1,60,0|0,1:0|1:0,0:0:0:0:
420,94,51689,6,0,L|361:88,1,60,8|8,0:0|0:0,0:0:0:0:
282,82,52052,1,8,0:0:0:0:
282,82,52234,1,8,0:0:0:0:
256,192,52325,12,0,53870,0:0:0:0:
282,82,54598,6,0,L|222:78,1,60,2|0,1:2|0:0,0:0:0:0:
166,23,54961,2,0,L|121:62,1,60,0|0,1:0|0:0,0:0:0:0:
42,63,55325,2,0,L|34:182,1,120,0|0,1:0|1:0,0:0:0:0:
29,260,55870,1,0,1:0:0:0:
96,298,56052,6,0,L|155:293,1,60,2|0,1:2|0:0,0:0:0:0:
169,215,56416,2,0,L|228:219,1,60,0|0,1:0|0:0,0:0:0:0:
284,274,56780,1,0,1:0:0:0:
384,155,57143,1,0,1:0:0:0:
462,289,57507,6,0,L|470:229,2,60,2|0|2,1:2|0:0|1:2,0:0:0:0:
407,344,58052,1,0,0:0:0:0:
340,302,58234,2,0,B|314:319|314:319|225:313,1,120,2|0,1:2|1:2,0:0:0:0:
147,302,58780,1,0,1:2:0:0:
145,224,58961,6,0,L|153:85,2,120,2|0|0,1:2|1:0|1:0,0:0:0:0:
273,135,60052,2,0,L|332:130,1,60,2|0,0:0|0:0,0:0:0:0:
411,116,60416,6,0,P|408:175|397:234,1,120,2|10,1:2|0:0,0:0:0:0:
348,296,60961,1,0,0:0:0:0:
347,296,61143,2,0,P|318:299|289:306,1,60,2|0,0:0|1:0,0:0:0:0:
243,242,61507,2,0,P|219:260|197:280,1,60,10|0,0:0|0:0,0:0:0:0:
120,293,61870,6,0,P|112:233|112:173,1,120,2|10,1:2|0:0,0:0:0:0:
154,107,62415,1,0,0:0:0:0:
154,107,62598,2,0,P|182:115|210:127,1,60,2|0,0:0|1:0,0:0:0:0:
287,127,62961,2,0,P|315:115|344:107,1,60,10|0,0:0|0:0,0:0:0:0:
420,91,63325,6,0,P|422:120|423:150,1,60,2|0,1:2|0:0,0:0:0:0:
429,229,63689,2,0,P|370:241|320:273,1,120,10|0,0:0|0:0,0:0:0:0:
282,341,64234,1,2,1:2:0:0:
204,328,64416,2,0,L|144:322,1,60,8|0,0:0|0:0,0:0:0:0:
69,298,64780,6,0,L|77:238,1,60,2|2,1:2|0:0,0:0:0:0:
154,224,65143,2,0,L|145:164,1,60,8|0,0:0|0:0,0:0:0:0:
73,133,65507,2,0,L|81:73,1,60,2|2,0:0|1:2,0:0:0:0:
147,31,65870,1,12,0:0:0:0:
303,29,66234,6,0,L|327:84,1,60,2|0,1:2|0:0,0:0:0:0:
398,118,66598,2,0,L|376:173,1,60,0|0,1:0|0:0,0:0:0:0:
402,248,66961,2,0,L|292:296,1,120,0|0,1:0|1:0,0:0:0:0:
223,333,67507,1,0,1:0:0:0:
152,300,67689,6,0,L|155:240,1,60,2|0,1:2|0:0,0:0:0:0:
225,205,68052,2,0,L|221:145,1,60,0|0,1:0|0:0,0:0:0:0:
169,85,68416,1,0,1:0:0:0:
309,16,68780,1,0,1:0:0:0:
312,171,69143,6,0,L|316:231,2,60,2|0|2,1:2|0:0|1:2,0:0:0:0:
370,118,69689,1,0,0:0:0:0:
370,117,69870,2,0,P|429:119|486:138,1,120,2|0,1:2|1:0,0:0:0:0:
496,216,70416,1,0,1:0:0:0:
486,294,70598,6,0,L|367:310,2,120,2|0|0,1:2|1:0|1:0,0:0:0:0:
486,138,71689,2,0,L|426:130,1,60,2|0,0:0|0:0,0:0:0:0:
377,68,72052,6,0,P|319:80|259:87,1,120,2|10,1:2|0:0,0:0:0:0:
191,123,72598,1,0,0:0:0:0:
191,123,72780,2,0,P|196:152|196:182,1,60,2|0,0:0|1:0,0:0:0:0:
267,215,73143,2,0,P|261:244|261:274,1,60,10|0,0:2|0:0,0:0:0:0:
239,350,73507,6,0,P|298:356|358:355,1,120,2|10,1:2|0:0,0:0:0:0:
423,311,74052,1,0,0:0:0:0:
423,311,74234,2,0,P|418:281|417:251,1,60,2|0,0:0|1:0,0:0:0:0:
349,212,74598,2,0,P|354:182|363:154,1,60,10|0,0:0|0:0,0:0:0:0:
373,76,74961,6,0,L|313:76,1,60,2|0,1:2|0:0,0:0:0:0:
237,50,75325,2,0,P|196:91|138:106,1,120,10|0,0:0|0:0,0:0:0:0:
60,94,75870,1,2,1:2:0:0:
29,164,76052,2,0,P|32:194|33:224,1,60,8|0,0:0|0:0,0:0:0:0:
80,287,76416,6,0,L|139:281,1,60,2|2,1:2|0:0,0:0:0:0:
160,205,76780,2,0,L|219:210,1,60,8|0,0:0|0:0,0:0:0:0:
232,287,77143,2,0,L|291:281,1,60,2|2,0:0|1:2,0:0:0:0:
312,205,77507,2,0,L|371:210,1,60,12|0,0:0|0:0,0:0:0:0:
445,184,77870,6,0,P|446:124|456:64,1,120,2|8,1:2|0:0,0:0:0:0:
385,29,78416,1,0,0:0:0:0:
316,67,78598,2,0,P|286:73|256:77,1,60,2|0,0:0|1:0,0:0:0:0:
184,46,78961,1,8,0:0:0:0:
43,113,79325,6,0,P|40:172|32:232,1,120,2|8,1:2|0:0,0:0:0:0:
40,310,79870,1,0,0:0:0:0:
111,281,80052,2,0,P|141:275|171:273,1,60,2|0,0:0|1:0,0:0:0:0:
231,222,80416,2,0,P|260:227|290:229,1,60,8|0,0:0|0:0,0:0:0:0:
361,196,80780,6,0,P|350:137|309:95,2,120,2|8|0,1:2|0:0|0:0,0:0:0:0:
357,273,81689,1,0,1:0:0:0:
406,333,81870,2,0,L|465:332,1,60,8|0,0:0|0:0,0:0:0:0:
492,257,82234,6,0,P|486:198|490:138,1,120,2|8,1:2|0:0,0:0:0:0:
468,62,82780,1,0,0:0:0:0:
390,58,82961,2,0,P|360:62|330:60,2,60,2|0|8,0:0|1:0|0:0,0:0:0:0:
369,213,83689,6,0,P|309:205|250:193,1,120,2|8,1:2|0:0,0:0:0:0:
187,148,84234,1,0,0:0:0:0:
110,162,84416,2,0,P|89:183|74:209,1,60,2|0,0:0|1:0,0:0:0:0:
61,287,84780,1,8,0:0:0:0:
201,354,85143,6,0,P|260:347|320:345,1,120,2|8,1:2|0:0,0:0:0:0:
399,341,85689,1,0,0:0:0:0:
461,295,85870,2,0,P|461:265|465:235,1,60,2|0,0:0|1:0,0:0:0:0:
392,206,86234,2,0,P|391:176|387:146,1,60,8|0,0:0|0:0,0:0:0:0:
367,70,86598,6,0,L|247:60,1,120,2|8,1:2|0:0,0:0:0:0:
174,31,87143,2,0,L|82:108,1,120,2|0,0:0|1:0,0:0:0:0:
30,167,87689,2,0,P|55:182|85:185,1,60,6|0,1:2|0:2,0:0:0:0:
159,209,88052,6,0,L|159:280,2,60,8|8|8,0:0|0:0|0:0,0:0:0:0:
204,144,88598,1,8,0:0:0:0:
95,31,88961,5,8,0:0:0:0:
50,96,89143,1,4,1:1:0:0:
