osu file format v14

[General]
AudioFilename: audio.mp3
AudioLeadIn: 0
PreviewTime: 54234
Countdown: 0
SampleSet: Soft
StackLeniency: 0.3
Mode: 0
LetterboxInBreaks: 0
WidescreenStoryboard: 1

[Editor]
Bookmarks: 29870
DistanceSpacing: 1.4
BeatDivisor: 4
GridSize: 4
TimelineZoom: 2.399999

[Metadata]
Title:RISE (TV Size)
TitleUnicode:RISE (TV Size)
Artist:MADKID
ArtistUnicode:MADKID
Creator:Gear
Version:HARD
Source:盾の勇者の成り上がり
Tags:マッドキッド the rising of the shield hero tate no yuusha nariagari opening
BeatmapID:1938595
BeatmapSetID:928119

[Difficulty]
HPDrainRate:4
CircleSize:3.5
OverallDifficulty:6.5
ApproachRate:7.5
SliderMultiplier:1.5
SliderTickRate:1

[Events]
//Background and Video events
0,0,"shield.jpg",0,0
Video,-100,"shieldo.avi"
//Break Periods
//Storyboard Layer 0 (Background)
//Storyboard Layer 1 (Fail)
//Storyboard Layer 2 (Pass)
//Storyboard Layer 3 (Foreground)
//Storyboard Sound Samples

[TimingPoints]
780,363.636363636364,4,2,0,40,1,0
780,-125,4,2,0,40,0,0
5143,-125,4,2,1,60,0,0
6234,-100,4,2,1,75,0,0
6598,-100,4,2,1,75,0,0
18234,-125,4,2,1,60,0,0
28416,-125,4,2,1,65,0,0
29870,-100,4,2,1,70,0,0
41497,-100,4,2,1,60,0,0
41507,-125,4,2,1,60,0,0
54234,-125,4,2,1,75,0,0
54598,-100,4,2,1,85,0,1
77507,-100,4,2,1,75,0,1
77870,-100,4,2,1,75,0,0
88052,-100,4,2,1,75,0,0

[Colours]
Combo1 : 241,251,60
Combo2 : 3,199,28
Combo3 : 16,171,245
Combo4 : 253,60,49

[HitObjects]
304,279,780,6,0,B|331:291|331:291|417:265,1,120,2|0,0:0|0:0,0:0:0:0:
445,179,1325,2,0,B|418:167|418:167|332:193,1,120,2|0,0:0|0:0,0:0:0:0:
304,279,1870,2,0,B|331:291|331:291|417:265,1,120,2|0,0:0|0:0,0:0:0:0:
445,179,2416,2,0,B|418:167|418:167|332:193,1,120,2|0,0:0|0:0,0:0:0:0:
304,279,2961,2,0,L|358:304,1,60,2|0,0:0|0:0,0:0:0:0:
445,179,3325,2,0,L|390:153,1,60,2|0,0:0|0:0,0:0:0:0:
285,93,3689,6,0,B|297:120|297:120|271:206,1,120,2|0,0:0|0:0,0:0:0:0:
185,233,4234,2,0,B|173:206|173:206|199:120,1,120,2|0,0:0|0:0,0:0:0:0:
285,93,4780,2,0,L|310:147,1,60,2|0,0:0|0:0,0:0:0:0:
385,197,5143,2,0,L|397:169,2,30
340,274,5507,2,0,P|313:289|284:295,1,60,2|0,0:0|0:0,0:0:0:0:
193,191,5870,2,0,P|222:197|249:212,1,60,2|0,0:0|0:0,0:0:0:0:
171,301,6234,1,6,0:0:0:0:
171,301,6598,6,0,P|96:303|21:309,1,150,2|8,1:2|0:0,0:0:0:0:
8,212,7143,1,0,0:0:0:0:
68,135,7325,2,0,P|116:130|155:124,1,75,2|0,0:0|1:0,0:0:0:0:
200,47,7689,2,0,P|248:52|317:67,1,112.5,8|0,0:0|0:0,0:0:0:0:
356,47,8052,6,0,P|350:121|359:196,1,150,2|8,1:2|0:0,0:0:0:0:
419,273,8598,1,0,0:0:0:0:
341,332,8780,2,0,P|303:334|267:343,1,75,2|0,0:0|1:0,0:0:0:0:
225,255,9143,2,0,P|188:262|150:262,1,75,8|0,0:0|0:0,0:0:0:0:
24,229,9507,6,0,P|22:303|64:363,2,150,2|8|0,1:2|0:0|0:0,0:0:0:0:
52,136,10416,1,0,1:0:0:0:
148,150,10598,2,0,P|185:153|222:156,1,75,8|0,0:0|0:0,0:0:0:0:
298,96,10961,6,0,P|373:105|448:103,1,150,2|8,1:2|0:0,0:0:0:0:
486,193,11507,1,0,0:0:0:0:
395,228,11689,2,0,P|395:265|398:302,2,75,2|0|8,0:0|1:0|0:0,0:0:0:0:
302,196,12234,1,0,0:0:0:0:
302,196,12325,1,0,0:0:0:0:
302,196,12416,6,0,P|227:200|152:207,1,150,2|8,1:2|0:0,0:0:0:0:
66,160,12961,1,0,0:0:0:0:
14,242,13143,2,0,P|20:278|23:316,1,75,2|0,0:0|1:0,0:0:0:0:
117,343,13507,2,0,P|172:334|228:337,1,112.5,8|0,0:0|0:0,0:0:0:0:
270,362,13870,6,0,P|272:287|284:213,1,150,2|8,1:2|0:0,0:0:0:0:
255,119,14416,1,0,0:0:0:0:
319,45,14598,2,0,P|354:58|390:65,1,75,2|0,0:0|1:0,0:0:0:0:
470,122,14961,2,0,P|456:157|449:193,1,75,8|0,0:0|0:0,0:0:0:0:
357,290,15325,6,0,P|422:327|495:317,2,150,2|8|0,1:2|0:0|0:0,0:0:0:0:
309,206,16234,1,0,1:0:0:0:
218,242,16416,2,0,P|180:242|143:245,1,75,8|0,0:0|0:0,0:0:0:0:
48,272,16780,6,0,P|57:197|63:122,1,150,2|8,1:2|0:0,0:0:0:0:
108,36,17325,1,0,0:0:0:0:
195,76,17507,2,0,P|232:82|270:86,1,75,2|0,0:0|1:0,0:0:0:0:
357,43,17870,1,8,0:0:0:0:
357,43,18052,1,0,0:0:0:0:
432,104,18234,6,0,L|427:227,1,120,2|0,0:0|0:0,0:0:0:0:
384,296,18779,2,0,L|306:290,1,60,0|0,0:0|0:0,0:0:0:0:
274,223,19143,1,0,0:0:0:0:
274,223,19325,2,0,L|196:229,1,60,0|0,0:0|0:0,0:0:0:0:
121,292,19689,6,0,P|113:232|105:172,1,120,2|0,0:0|0:0,0:0:0:0:
141,96,20234,2,0,P|170:98|200:101,1,60,0|0,0:0|0:0,0:0:0:0:
270,53,20598,1,0,0:0:0:0:
270,53,20780,2,0,P|299:50|329:47,1,60,0|0,0:0|0:0,0:0:0:0:
442,38,21143,6,0,L|435:157,1,120,2|0,0:0|0:0,0:0:0:0:
435,242,21689,2,0,P|464:244|494:248,2,60,0|0|0,0:0|0:0|0:0,0:0:0:0:
355,213,22234,1,0,0:0:0:0:
304,280,22416,1,0,0:0:0:0:
303,279,22598,6,0,P|274:279|244:281,1,60,2|0,0:0|0:0,0:0:0:0:
165,311,22961,1,0,0:0:0:0:
111,247,23143,2,0,P|113:187|99:128,1,120,2|0,0:0|0:0,0:0:0:0:
144,57,23689,2,0,L|203:50,1,60,0|0,0:0|0:0,0:0:0:0:
317,33,24052,6,0,P|369:61|427:77,1,120,2|0,0:0|0:0,0:0:0:0:
493,130,24598,1,0,0:0:0:0:
429,184,24780,2,0,L|436:243,1,60,0|0,0:0|0:0,0:0:0:0:
468,321,25143,2,0,L|409:328,1,60,0|0,0:0|0:0,0:0:0:0:
320,264,25507,6,0,P|260:274|201:281,1,120,2|0,0:0|0:0,0:0:0:0:
142,220,26052,1,0,0:0:0:0:
68,260,26234,2,0,P|70:304|67:349,2,90,0|0|0,0:0|0:0|0:0,0:0:0:0:
54,158,26961,6,0,P|98:121|157:115,1,120,2|2,3:0|3:0,0:0:0:0:
231,160,27507,1,0,1:0:0:0:
294,104,27689,1,0,0:0:0:0:
260,27,27871,1,0,1:0:0:0:
176,33,28052,1,8,1:3:0:0:
176,33,28416,5,0,1:0:0:0:
154,132,28598,1,0,1:0:0:0:
242,185,28780,1,0,1:0:0:0:
317,119,28961,1,0,1:0:0:0:
404,169,29143,1,0,1:0:0:0:
381,269,29325,1,0,1:0:0:0:
278,276,29507,2,0,P|249:275|219:271,1,60,2|0,1:2|1:0,0:0:0:0:
307,146,29870,6,0,B|291:167|291:167|271:180,2,50,2|0|0,1:2|0:0|0:0,0:0:0:0:
353,80,30234,2,0,B|331:69|331:69|304:66,2,50,8|0|0,0:0|0:0|0:0,0:0:0:0:
237,106,30598,2,0,B|226:81|226:81|225:57,2,50,2|0|0,0:0|0:0|0:0,0:0:0:0:
271,179,30961,2,0,L|196:189,1,75,10|0,0:0|0:0,0:0:0:0:
70,215,31325,6,0,B|66:188|66:188|71:165,2,50,2|0|0,1:2|0:0|0:0,0:0:0:0:
48,292,31689,2,0,B|23:281|23:281|5:266,2,50,8|0|0,0:0|0:0|0:0,0:0:0:0:
103,349,32052,2,0,B|82:365|82:365|59:372,2,50,2|0|0,0:0|0:0|0:0,0:0:0:0:
161,293,32416,2,0,L|235:297,1,75,10|0,0:0|0:0,0:0:0:0:
357,281,32780,6,0,B|359:308|359:308|355:331,2,50,2|0|0,1:2|0:0|0:0,0:0:0:0:
394,210,33143,2,0,L|468:207,1,75,10|0,0:0|0:0,0:0:0:0:
498,113,33507,1,2,0:0:0:0:
498,113,33689,1,0,1:0:0:0:
404,71,33870,6,0,B|401:43|401:43|405:20,2,50,10|0|0,0:0|0:0|0:0,0:0:0:0:
345,126,34234,2,0,L|245:122,1,100,2|0,1:2|0:0,0:0:0:0:
173,86,34598,2,0,B|190:64|190:64|209:51,2,50,8|0|0,0:0|0:0|0:0,0:0:0:0:
100,118,34961,2,0,P|105:154|109:192,1,75,2|0,0:0|1:0,0:0:0:0:
31,283,35325,2,0,P|61:294|100:311,1,75,10|0,0:0|0:0,0:0:0:0:
218,344,35689,6,0,B|240:327|240:327|253:308,2,50,2|0|0,1:2|0:0|0:0,0:0:0:0:
180,273,36052,2,0,B|193:254|193:254|215:237,2,50,8|0|0,0:0|0:0|0:0,0:0:0:0:
288,209,36416,2,0,B|272:185|272:185|255:170,2,50,2|0|0,0:0|0:0|0:0,0:0:0:0:
330,277,36780,2,0,L|419:271,1,75,10|0,0:0|0:0,0:0:0:0:
478,176,37143,6,0,B|481:148|481:148|477:125,2,50,2|0|0,1:2|0:0|0:0,0:0:0:0:
401,150,37507,2,0,B|390:124|390:124|375:106,2,50,8|0|0,0:0|0:0|0:0,0:0:0:0:
321,165,37870,2,0,P|283:167|246:171,1,75,2|0,0:0|1:0,0:0:0:0:
203,61,38234,2,0,P|164:66|128:67,1,75,10|0,0:0|0:0,0:0:0:0:
30,134,38598,6,0,P|35:209|38:284,1,150,2|8,1:2|0:0,0:0:0:0:
96,362,39143,2,0,P|132:354|169:349,1,75,0|0,0:0|0:0,0:0:0:0:
210,260,39507,1,0,1:0:0:0:
290,314,39689,2,0,L|364:317,1,75,8|0,0:0|0:0,0:0:0:0:
474,265,40052,6,0,P|475:190|482:115,1,150,2|8,1:2|0:0,0:0:0:0:
410,47,40598,2,0,P|372:52|335:57,1,75,0|0,0:0|0:0,0:0:0:0:
242,28,40961,1,0,1:0:0:0:
181,104,41143,2,0,L|188:178,1,75,8|0,0:0|0:0,0:0:0:0:
168,289,41507,5,0,1:0:0:0:
168,288,41689,2,0,P|226:282|275:314,1,120,2|0,0:0|0:0,0:0:0:0:
362,241,42234,2,0,P|417:260|473:240,1,120,10|0,0:0|0:0,0:0:0:0:
480,155,42780,1,2,0:0:0:0:
480,155,42961,6,0,L|469:95,1,60,0|0,1:0|0:0,0:0:0:0:
386,114,43325,2,0,L|375:54,1,60,2|0,1:2|0:0,0:0:0:0:
255,55,43689,2,0,L|244:114,1,60,10|0,1:2|0:0,0:0:0:0:
200,185,44052,1,2,0:0:0:0:
232,350,44416,5,0,1:0:0:0:
231,349,44598,2,0,P|181:319|122:317,1,120,2|0,0:0|0:0,0:0:0:0:
39,240,45143,2,0,L|37:120,1,120,10|0,0:0|0:0,0:0:0:0:
76,45,45689,1,2,0:0:0:0:
76,45,45870,6,0,L|134:57,1,60,0|0,1:0|0:0,0:0:0:0:
158,138,46234,2,0,L|216:125,1,60,0|0,1:0|0:0,0:0:0:0:
297,42,46598,2,0,L|355:54,1,60,10|0,1:2|0:0,0:0:0:0:
439,50,46961,2,0,P|432:94|431:139,1,90,2|0,0:0|0:0,0:0:0:0:
433,181,47325,6,0,P|462:176|492:174,2,60,2|0|2,1:2|0:0|0:0,0:0:0:0:
281,108,48052,2,0,L|221:116,1,60,10|0,1:2|0:0,0:0:0:0:
188,194,48416,2,0,L|128:185,1,60,0|0,0:0|0:0,0:0:0:0:
44,174,48780,6,0,L|52:233,1,60,2|0,1:2|0:0,0:0:0:0:
90,308,49143,2,0,L|149:299,1,60,0|0,1:0|0:0,0:0:0:0:
188,194,49507,2,0,L|306:210,1,120,8|0,1:2|0:0,0:0:0:0:
450,297,50234,5,0,1:0:0:0:
450,297,50416,1,0,1:0:0:0:
460,213,50598,1,0,1:0:0:0:
460,213,50780,1,0,1:0:0:0:
432,133,50961,2,0,L|437:73,1,60,0|0,1:0|1:0,0:0:0:0:
353,56,51325,1,0,1:0:0:0:
318,133,51507,1,0,1:0:0:0:
226,28,51689,5,8,0:0:0:0:
181,160,51870,1,8,0:0:0:0:
318,133,52052,1,8,0:0:0:0:
362,257,52234,1,8,0:0:0:0:
256,192,52325,12,0,53870,0:0:0:0:
81,159,54234,5,2,0:2:0:0:
81,159,54598,2,0,L|74:233,1,75,2|0,1:2|0:0,0:0:0:0:
171,237,54961,2,0,L|177:311,1,75,0|0,1:0|0:0,0:0:0:0:
275,308,55325,2,0,L|424:294,1,150,0|0,1:0|1:0,0:0:0:0:
502,352,55870,1,0,1:0:0:0:
499,218,56052,6,0,L|492:143,1,75,2|0,1:2|0:0,0:0:0:0:
397,170,56416,2,0,L|390:95,1,75,0|0,1:0|0:0,0:0:0:0:
295,122,56780,2,0,L|288:47,1,75,0|0,1:0|0:0,0:0:0:0:
193,72,57143,2,0,P|155:75|118:76,1,75,0|0,1:0|0:0,0:0:0:0:
20,67,57507,6,0,P|26:103|29:141,1,75,2|0,1:2|0:0,0:0:0:0:
65,231,57870,1,2,1:2:0:0:
144,174,58052,1,0,0:0:0:0:
190,259,58234,2,0,P|226:252|264:249,1,75,2|0,1:2|0:0,0:0:0:0:
367,208,58598,1,0,1:2:0:0:
420,306,58780,1,0,1:2:0:0:
502,198,58961,6,0,L|490:123,1,75,2|0,1:2|0:0,0:0:0:0:
391,120,59325,2,0,L|330:76,1,75,0|0,1:0|0:0,0:0:0:0:
257,143,59689,2,0,L|182:154,1,75,0|0,1:0|0:0,0:0:0:0:
86,135,60052,1,2,0:0:0:0:
86,135,60234,1,0,0:0:0:0:
37,253,60416,6,0,P|93:252|147:266,1,112.5,2|0,1:2|0:0,0:0:0:0:
193,248,60780,2,0,P|228:258|265:264,1,75,10|0,0:0|0:0,0:0:0:0:
344,322,61143,2,0,P|377:305|413:293,1,75,2|0,0:0|1:0,0:0:0:0:
417,195,61507,1,10,0:0:0:0:
503,244,61689,1,0,0:0:0:0:
501,118,61870,6,0,P|444:118|390:104,1,112.5,2|0,1:2|0:0,0:0:0:0:
345,123,62234,2,0,P|309:112|272:106,1,75,10|0,0:0|0:0,0:0:0:0:
194,49,62598,2,0,P|160:65|124:77,1,75,2|0,0:0|1:0,0:0:0:0:
27,93,62961,2,0,P|37:129|41:166,1,75,10|0,0:0|0:0,0:0:0:0:
87,290,63325,6,0,P|124:285|161:281,1,75,2|0,1:2|0:0,0:0:0:0:
227,208,63689,2,0,P|298:233|373:243,1,150,10|0,0:0|0:0,0:0:0:0:
469,247,64234,1,2,1:2:0:0:
496,153,64416,2,0,P|488:116|483:79,1,75,8|0,0:0|0:0,0:0:0:0:
388,54,64780,6,0,L|394:17,2,37.5,2|0|2,1:2|0:0|0:0,0:0:0:0:
292,72,65143,2,0,L|304:145,1,75,8|0,0:0|0:0,0:0:0:0:
395,183,65507,2,0,L|382:256,1,75,2|2,0:0|1:2,0:0:0:0:
261,317,65870,2,0,P|224:308|187:304,1,75,12|0,0:0|0:0,0:0:0:0:
89,311,66234,6,0,L|82:236,1,75,2|0,1:2|0:0,0:0:0:0:
176,205,66598,2,0,L|182:130,1,75,0|0,1:0|0:0,0:0:0:0:
156,36,66961,2,0,L|305:31,1,150,0|0,1:0|1:0,0:0:0:0:
404,27,67507,1,0,1:0:0:0:
454,152,67689,6,0,L|446:226,1,75,2|0,1:2|0:0,0:0:0:0:
355,190,68052,2,0,L|347:264,1,75,0|0,1:0|0:0,0:0:0:0:
256,228,68416,2,0,L|248:302,1,75,0|0,1:0|0:0,0:0:0:0:
156,265,68780,2,0,P|119:265|82:270,1,75,0|0,1:0|0:0,0:0:0:0:
21,194,69143,6,0,P|26:156|34:120,1,75,2|0,1:2|0:0,0:0:0:0:
95,43,69507,1,2,1:2:0:0:
183,95,69689,1,0,0:0:0:0:
183,95,69870,2,0,P|254:95|339:90,1,150,2|0,1:2|1:0,0:0:0:0:
421,48,70416,1,0,1:0:0:0:
474,163,70598,6,0,L|469:237,1,75,2|0,1:2|0:0,0:0:0:0:
380,197,70961,2,0,L|338:259,1,75,0|0,1:0|0:0,0:0:0:0:
282,180,71325,2,0,L|214:213,1,75,0|0,1:0|0:0,0:0:0:0:
205,115,71689,1,2,0:0:0:0:
205,115,71870,1,0,0:0:0:0:
84,62,72052,6,0,P|81:118|79:174,1,112.5,2|0,1:2|0:0,0:0:0:0:
61,220,72416,2,0,P|66:257|67:294,1,75,10|0,0:0|0:0,0:0:0:0:
149,349,72780,2,0,P|186:346|223:343,1,75,2|0,0:0|1:0,0:0:0:0:
286,268,73143,1,10,0:2:0:0:
347,344,73325,1,0,0:0:0:0:
428,245,73507,6,0,P|424:189|429:133,1,112.5,2|0,1:2|0:0,0:0:0:0:
435,84,73870,2,0,P|397:84|360:79,1,75,10|0,0:0|0:0,0:0:0:0:
273,33,74234,2,0,P|235:33|198:38,1,75,2|0,0:0|1:0,0:0:0:0:
123,101,74598,2,0,P|122:138|119:175,1,75,10|0,0:0|0:0,0:0:0:0:
83,301,74961,6,0,P|120:300|157:297,1,75,2|0,1:2|0:0,0:0:0:0:
243,345,75325,2,0,P|240:270|248:195,1,150,10|0,0:0|0:0,0:0:0:0:
273,101,75870,1,2,1:2:0:0:
370,97,76052,2,0,P|406:104|443:112,1,75,8|0,0:0|0:0,0:0:0:0:
463,208,76416,6,0,L|498:196,2,37.5,2|0|2,1:2|0:0|0:0,0:0:0:0:
365,194,76780,2,0,L|376:268,1,75,8|0,0:0|0:0,0:0:0:0:
334,355,77143,2,0,L|269:316,1,75,2|2,0:0|1:2,0:0:0:0:
220,189,77507,2,0,P|186:206|151:218,1,75,12|0,0:0|0:0,0:0:0:0:
40,265,77870,6,0,P|44:190|42:115,1,150,2|8,1:2|0:0,0:0:0:0:
101,36,78416,1,0,0:0:0:0:
189,77,78598,2,0,P|225:86|262:93,1,75,2|0,0:0|1:0,0:0:0:0:
337,31,78961,2,0,P|391:42|443:64,1,112.5,8|0,0:0|0:0,0:0:0:0:
492,69,79325,6,0,P|476:142|473:217,1,150,2|8,1:2|0:0,0:0:0:0:
452,312,79870,1,0,0:0:0:0:
368,261,80052,2,0,P|330:258|293:261,1,75,2|0,0:0|1:0,0:0:0:0:
216,322,80416,2,0,P|178:324|141:322,1,75,8|0,0:0|0:0,0:0:0:0:
15,298,80780,6,0,P|49:232|115:200,2,150,2|8|0,1:2|0:0|0:0,0:0:0:0:
84,366,81689,1,0,1:0:0:0:
170,321,81870,2,0,P|207:317|244:316,1,75,8|0,0:0|0:0,0:0:0:0:
266,220,82234,6,0,P|265:145|270:70,1,150,2|8,1:2|0:0,0:0:0:0:
352,16,82780,1,0,0:0:0:0:
418,86,82961,2,0,L|492:75,2,75,2|0|8,0:0|1:0|0:0,0:0:0:0:
395,181,83507,1,0,0:0:0:0:
395,181,83598,1,0,0:0:0:0:
395,181,83689,6,0,P|393:239|384:342,1,150,2|8,1:2|0:0,0:0:0:0:
292,359,84234,1,0,0:0:0:0:
247,271,84416,2,0,P|210:278|174:290,1,75,2|0,0:0|1:0,0:0:0:0:
99,353,84780,2,0,P|62:345|26:333,1,75,8|0,0:0|0:0,0:0:0:0:
32,236,85143,6,0,P|47:162|52:87,1,150,2|8,1:2|0:0,0:0:0:0:
133,32,85689,1,0,0:0:0:0:
199,103,85870,2,0,P|234:113|272:114,1,75,2|0,0:0|1:0,0:0:0:0:
323,30,86234,2,0,P|357:47|386:71,1,75,8|0,0:0|0:0,0:0:0:0:
483,87,86598,6,0,L|470:160,1,75,2|0,1:2|0:0,0:0:0:0:
433,251,86961,1,8,0:0:0:0:
358,188,87143,2,0,B|320:181|320:181|213:214,1,150,2|0,0:0|1:0,0:0:0:0:
59,195,87689,2,0,L|130:172,1,75,6|0,1:2|0:0,0:0:0:0:
263,321,88052,5,8,1:2:0:0:
154,372,88234,1,8,0:0:0:0:
105,263,88416,1,8,0:0:0:0:
213,214,88598,1,8,0:0:0:0:
213,214,88961,5,8,0:0:0:0:
154,372,89143,1,4,1:1:0:0:
