osu file format v14

[General]
AudioFilename: audio.mp3
AudioLeadIn: 0
PreviewTime: 54226
Countdown: 0
SampleSet: Soft
StackLeniency: 0.7
Mode: 2
LetterboxInBreaks: 0
WidescreenStoryboard: 1

[Editor]
DistanceSpacing: 1.8
BeatDivisor: 4
GridSize: 32
TimelineZoom: 2.2

[Metadata]
Title:RISE (TV Size)
TitleUnicode:RISE (TV Size)
Artist:MADKID
ArtistUnicode:マッドキッド
Creator:Bastian
Version:Salad
Source:盾の勇者の成り上がり
Tags:-vale tate no yuusya no nariagari The Rising of the Shield Hero anime op opening マッドキッド
BeatmapID:2032723
BeatmapSetID:970726

[Difficulty]
HPDrainRate:4
CircleSize:3
OverallDifficulty:7
ApproachRate:7
SliderMultiplier:1.4
SliderTickRate:1

[Events]
//Background and Video events
Video,0,"TateNoYuushaNoNariagariOP.mp4"
0,0,"loliraphtalia.jpg",0,0
//Break Periods
//Storyboard Layer 0 (Background)
//Storyboard Layer 1 (Fail)
//Storyboard Layer 2 (Pass)
//Storyboard Layer 3 (Foreground)
//Storyboard Sound Samples

[TimingPoints]
772,363.636363636364,4,2,1,55,1,0
16772,-100,4,2,1,50,0,0
17135,-100,4,2,1,45,0,0
17499,-100,4,2,1,40,0,0
17862,-100,4,2,1,35,0,0
18226,-100,4,2,2,55,0,0
28408,-100,4,2,1,55,0,0
54590,-100,4,2,2,65,0,1
60408,-100,4,2,1,65,0,1
65862,-100,4,2,1,55,0,0
66226,-100,4,2,2,65,0,1
72044,-100,4,2,1,65,0,1
77862,-100,4,2,1,55,0,0
77862,-100,4,2,1,55,0,0

[Colours]
Combo1 : 0,128,192
Combo2 : 198,0,0
Combo3 : 255,201,147
Combo4 : 188,122,122

[HitObjects]
207,323,772,6,0,P|166:263|220:220,1,140,2|0,3:0|0:0,0:0:0:0:
302,221,1317,2,0,P|343:171|304:119,1,140,2|0,3:0|0:0,0:0:0:0:
135,118,1862,6,0,L|303:118,1,140,2|0,3:0|0:0,0:0:0:0:
176,118,2408,2,0,P|136:169|177:220,1,140,2|0,3:0|0:0,0:0:0:0:
344,219,2953,5,2,3:0:0:0:
404,192,3134,1,0,0:0:0:0:
405,126,3316,1,2,3:0:0:0:
345,99,3498,1,0,0:0:0:0:
175,99,3681,6,0,L|19:99,1,140,2|0,3:0|0:0,0:0:0:0:
132,99,4226,2,0,L|291:99,1,140,2|0,3:0|0:0,0:0:0:0:
102,99,4772,1,2,3:0:0:0:
297,99,5135,6,0,L|362:99,2,35,2|0|2,3:0|0:0|3:0,0:0:0:0:
198,99,5499,2,0,L|106:99,1,70,0|0,0:0|0:0,0:0:0:0:
296,99,5862,2,0,P|335:150|295:200,1,140,2|12,3:0|3:0,0:0:0:0:
154,200,6590,6,0,L|-1:200,1,140,4|8,0:0|0:0,0:0:0:0:
84,200,7135,1,0,0:0:0:0:
252,200,7317,2,0,L|354:200,2,70,0|2|8,0:0|0:0|0:0,0:0:0:0:
111,200,8044,6,0,L|280:200,1,140,2|8,0:0|0:0,0:0:0:0:
180,200,8590,1,0,0:0:0:0:
348,200,8772,2,0,L|434:200,2,70,0|2|8,0:0|0:0|0:0,0:0:0:0:
151,200,9499,6,0,P|110:149|150:98,1,140,2|8,0:0|0:0,0:0:0:0:
248,98,10044,1,0,0:0:0:0:
416,98,10226,2,0,L|499:98,2,70,0|2|8,0:0|0:0|0:0,0:0:0:0:
219,98,10953,6,0,L|133:98,1,70,2|0,0:0|0:0,0:0:0:0:
247,98,11317,2,0,L|326:98,1,70,8|0,0:0|0:0,0:0:0:0:
149,98,11681,5,0,0:0:0:0:
89,125,11863,1,2,0:0:0:0:
90,191,12045,1,8,0:0:0:0:
150,218,12226,1,0,0:0:0:0:
318,218,12408,6,0,P|357:269|316:319,1,140,4|8,0:0|0:0,0:0:0:0:
218,319,12953,1,0,0:0:0:0:
49,319,13135,2,0,L|49:231,1,70,0|2,0:0|0:0,0:0:0:0:
147,249,13499,1,8,0:0:0:0:
342,249,13862,6,0,L|187:249,1,140,2|8,0:0|0:0,0:0:0:0:
272,249,14408,1,0,0:0:0:0:
103,249,14590,2,0,L|25:249,2,70,0|2|8,0:0|0:0|0:0,0:0:0:0:
299,249,15317,6,0,P|341:199|302:147,1,140,2|8,0:0|0:0,0:0:0:0:
203,147,15862,1,0,0:0:0:0:
104,147,16044,2,0,L|20:147,2,70,0|2|8,0:0|0:0|0:0,0:0:0:0:
300,147,16772,6,0,L|371:147,1,70,2|0,0:0|0:0,0:0:0:0:
271,147,17135,2,0,L|201:147,1,70,8|0,0:0|0:0,0:0:0:0:
370,147,17499,2,0,P|408:198|366:248,1,140,0|8,0:0|0:0,0:0:0:0:
170,248,18226,6,0,L|319:248,1,140,2|0,0:0|0:0,0:0:0:0:
113,248,18953,2,0,L|29:248,2,70,0|0|0,0:0|0:0|0:0,0:0:0:0:
211,248,19499,1,0,0:0:0:0:
379,248,19681,6,0,P|421:199|384:146,1,140,2|0,0:0|0:0,0:0:0:0:
285,146,20226,2,0,L|199:146,2,70,0|0|0,0:0|0:0|0:0,0:0:0:0:
383,146,20772,1,0,0:0:0:0:
285,146,20953,1,0,0:0:0:0:
116,146,21135,6,0,P|78:198|121:247,1,140,2|0,0:0|0:0,0:0:0:0:
290,247,21681,2,0,L|132:247,1,140,0|0,0:0|0:0,0:0:0:0:
248,247,22226,1,0,0:0:0:0:
346,247,22408,1,0,0:0:0:0:
177,247,22590,6,0,P|133:198|171:145,1,140,2|0,0:0|0:0,0:0:0:0:
269,145,23135,2,0,P|312:96|274:43,1,140,0|0,0:0|0:0,0:0:0:0:
175,43,23681,2,0,L|88:43,1,70,0|0,0:0|0:0,0:0:0:0:
273,43,24044,5,2,0:0:0:0:
371,43,24226,2,0,L|469:43,2,70,0|0|0,0:0|0:0|0:0,0:0:0:0:
201,43,24772,6,0,L|131:43,2,70,0|0|0,0:0|0:0|0:0,0:0:0:0:
299,43,25317,1,0,0:0:0:0:
130,43,25499,6,0,P|92:96|135:144,1,140,2|0,0:0|0:0,0:0:0:0:
233,144,26044,1,0,0:0:0:0:
394,144,26226,2,0,L|500:144,2,105,0|0|0,0:0|0:0|0:0,0:0:0:0:
233,144,26953,6,0,L|69:144,1,140,8|2,0:0|0:0,0:0:0:0:
191,144,27499,1,8,0:0:0:0:
359,144,27681,6,0,L|454:144,2,70,0|2|8,0:0|0:0|0:0,0:0:0:0:
260,144,28226,1,0,0:0:0:0:
91,144,28408,6,0,L|0:144,2,70,2|2|2,0:0|0:0|0:0,0:0:0:0:
189,144,28953,1,2,0:0:0:0:
357,144,29135,5,2,0:0:0:0:
417,171,29317,1,2,0:0:0:0:
416,237,29499,1,2,0:0:0:0:
356,264,29680,1,0,0:0:0:0:
187,264,29862,6,0,L|99:264,1,70,2|0,0:0|0:0,0:0:0:0:
215,264,30226,2,0,L|291:264,1,70,8|0,0:0|0:0,0:0:0:0:
115,264,30590,2,0,L|31:264,2,70,0|0|8,0:0|0:0|0:0,0:0:0:0:
311,264,31317,6,0,L|402:264,2,70,2|0|8,0:0|0:0|0:0,0:0:0:0:
212,264,31862,2,0,L|142:264,2,70,0|0|0,0:0|0:0|0:0,0:0:0:0:
381,264,32408,1,8,0:0:0:0:
184,264,32772,6,0,L|104:264,2,70,2|0|8,0:0|0:0|0:0,0:0:0:0:
282,264,33317,1,0,0:0:0:0:
380,264,33499,6,0,L|476:264,2,70,0|0|8,0:0|0:0|0:0,0:0:0:0:
281,264,34044,1,0,0:0:0:0:
112,264,34226,6,0,P|68:215|113:172,1,140,2|8,0:0|0:0,0:0:0:0:
210,172,34772,1,0,0:0:0:0:
377,172,34953,2,0,L|463:172,2,70,0|0|8,0:0|0:0|0:0,0:0:0:0:
180,172,35681,6,0,L|101:172,2,70,2|0|8,0:0|0:0|0:0,0:0:0:0:
278,172,36226,1,0,0:0:0:0:
376,172,36408,2,0,L|446:172,2,70,0|0|8,0:0|0:0|0:0,0:0:0:0:
179,172,37135,5,2,0:0:0:0:
277,172,37317,1,0,0:0:0:0:
375,172,37499,1,8,0:0:0:0:
276,172,37681,1,0,0:0:0:0:
108,172,37862,6,0,P|64:218|108:263,1,140,0|8,0:0|0:0,0:0:0:0:
305,263,38590,6,0,P|349:217|305:171,1,140,2|8,0:0|0:0,0:0:0:0:
207,171,39135,2,0,P|163:122|208:79,1,140,0|2,0:0|0:0,0:0:0:0:
305,79,39681,1,8,0:0:0:0:
109,79,40044,6,0,L|25:79,2,70,2|0|8,0:0|0:0|0:0,0:0:0:0:
207,79,40590,2,0,L|45:79,1,140,0|2,0:0|0:0,0:0:0:0:
235,79,41135,1,8,0:0:0:0:
333,79,41317,1,0,0:0:0:0:
164,79,41499,6,0,P|120:125|164:170,1,140,6|0,0:0|0:0,0:0:0:0:
262,170,42044,1,0,0:0:0:0:
360,170,42226,2,0,P|403:216|359:261,1,140,8|0,0:0|0:0,0:0:0:0:
190,261,42772,1,0,0:0:0:0:
385,261,43135,6,0,L|480:261,2,70,0|2|0,0:0|0:0|0:0,0:0:0:0:
286,261,43681,2,0,L|194:261,2,70,8|0|0,0:0|0:0|0:0,0:0:0:0:
89,261,44408,6,0,P|45:215|88:169,1,140,2|0,0:0|0:0,0:0:0:0:
186,169,44953,1,0,0:0:0:0:
284,169,45135,2,0,P|328:123|284:77,1,140,8|0,0:0|0:0,0:0:0:0:
115,77,45681,1,0,0:0:0:0:
310,77,46044,6,0,L|470:77,1,140,0|0,0:0|0:0,0:0:0:0:
351,77,46590,2,0,L|211:77,1,140,8|0,0:0|0:0,0:0:0:0:
407,77,47317,6,0,L|488:77,2,70,2|0|0,0:0|0:0|0:0,0:0:0:0:
308,77,47862,1,0,0:0:0:0:
139,77,48044,6,0,L|43:77,2,70,8|0|0,0:0|0:0|0:0,0:0:0:0:
237,77,48590,1,0,0:0:0:0:
335,77,48772,6,0,L|424:77,2,70,2|0|2,0:0|0:0|0:0,0:0:0:0:
138,77,49499,2,0,P|94:123|138:168,1,140,8|0,0:0|0:0,0:0:0:0:
334,168,50226,6,0,L|423:168,1,70,2|2,0:0|0:0,0:0:0:0:
305,168,50590,2,0,L|222:168,1,70,2|2,0:0|0:0,0:0:0:0:
404,168,50953,5,2,0:0:0:0:
464,195,51135,1,2,0:0:0:0:
463,261,51317,1,2,0:0:0:0:
403,288,51498,1,2,0:0:0:0:
233,288,51681,6,0,L|145:288,1,70,8|8,0:0|0:0,0:0:0:0:
289,288,52044,2,0,L|289:191,1,70,8|8,0:0|0:0,0:0:0:0:
256,192,52590,12,4,54226,3:0:0:0:
292,193,54590,6,0,L|392:193,2,70,14|0|8,0:0|0:0|0:0,0:0:0:0:
193,193,55135,2,0,L|357:193,1,140,2|2,0:0|0:0,0:0:0:0:
238,193,55681,1,8,0:0:0:0:
70,193,55862,5,8,0:0:0:0:
266,193,56226,1,0,0:0:0:0:
70,193,56590,2,0,L|289:193,1,210,0|10,0:0|0:0,0:0:0:0:
181,193,57317,1,2,0:0:0:0:
349,193,57499,6,0,L|445:193,2,70,14|0|8,0:0|0:0|0:0,0:0:0:0:
250,193,58044,1,2,0:0:0:0:
151,193,58226,2,0,L|81:193,2,70,10|2|10,0:0|0:0|0:0,0:0:0:0:
320,193,58772,6,0,L|477:193,2,140,10|0|0,0:0|0:0|0:0,0:0:0:0:
124,193,59862,2,0,L|25:193,2,70,0|8|0,0:0|0:0|0:0,0:0:0:0:
293,193,60408,6,0,P|336:144|298:91,1,140,6|8,0:0|0:0,0:0:0:0:
199,91,60953,1,0,0:0:0:0:
340,91,61135,1,0,0:0:0:0:
170,91,61499,2,0,L|87:91,1,70,8|0,0:0|0:0,0:0:0:0:
268,91,61862,6,0,P|306:143|262:192,1,140,6|8,0:0|0:0,0:0:0:0:
164,192,62408,1,0,0:0:0:0:
332,192,62590,1,0,0:0:0:0:
136,192,62953,6,0,P|97:244|141:293,1,140,8|6,0:0|0:0,0:0:0:0:
337,293,63681,2,0,L|433:293,1,70,8|0,0:0|0:0,0:0:0:0:
210,293,64226,2,0,L|126:293,2,70,2|8|0,0:0|0:0|0:0,0:0:0:0:
379,293,64772,6,0,P|422:244|384:191,1,140,6|8,0:0|0:0,0:0:0:0:
285,191,65317,1,0,0:0:0:0:
116,191,65499,2,0,P|73:142|110:89,1,140,0|8,0:0|0:0,0:0:0:0:
306,89,66226,6,0,L|397:89,2,70,14|0|8,0:0|0:0|0:0,0:0:0:0:
136,89,66772,2,0,P|98:142|141:190,1,140,2|2,0:0|0:0,0:0:0:0:
43,190,67317,1,8,0:0:0:0:
211,190,67499,6,0,L|363:190,1,140,10|0,0:0|0:0,0:0:0:0:
154,190,68226,2,0,P|111:141|148:88,1,140,0|0,0:0|0:0,0:0:0:0:
247,88,68772,1,10,0:0:0:0:
148,88,68953,1,2,0:0:0:0:
316,88,69135,6,0,L|419:88,2,70,14|0|8,0:0|0:0|0:0,0:0:0:0:
217,88,69681,1,2,0:0:0:0:
119,88,69862,6,0,L|49:88,2,70,8|2|8,0:0|0:0|0:0,0:0:0:0:
288,88,70408,6,0,L|451:88,1,140,10|0,0:0|0:0,0:0:0:0:
231,88,71135,2,0,L|72:88,1,140,0|0,0:0|0:0,0:0:0:0:
189,88,71681,1,8,0:0:0:0:
286,88,71862,1,0,0:0:0:0:
117,88,72044,6,0,P|79:141|122:189,1,140,6|8,0:0|0:0,0:0:0:0:
221,189,72590,1,0,0:0:0:0:
52,189,72772,1,0,0:0:0:0:
247,189,73135,2,0,L|333:189,1,70,8|0,0:0|0:0,0:0:0:0:
218,189,73499,6,0,L|218:304,1,105,6|0,0:0|0:0,0:0:0:0:
365,294,74044,2,0,P|407:245|370:192,1,140,0|2,0:0|0:0,0:0:0:0:
271,192,74590,1,8,0:0:0:0:
369,192,74772,1,0,0:0:0:0:
201,192,74953,6,0,L|40:192,1,140,6|8,0:0|0:0,0:0:0:0:
229,192,75499,2,0,L|369:192,1,140,0|2,0:0|0:0,0:0:0:0:
270,192,76044,1,8,0:0:0:0:
73,192,76408,6,0,P|35:245|78:293,1,140,6|8,0:0|0:0,0:0:0:0:
176,293,76953,1,0,0:0:0:0:
344,293,77135,2,0,P|386:244|349:191,1,140,0|8,0:0|0:0,0:0:0:0:
153,191,77862,6,0,L|315:191,1,140,4|8,0:0|0:0,0:0:0:0:
194,191,78408,1,0,0:0:0:0:
362,191,78590,2,0,L|456:191,2,70,0|2|8,0:0|0:0|0:0,0:0:0:0:
165,191,79317,6,0,P|122:142|159:89,1,140,2|8,0:0|0:0,0:0:0:0:
257,89,79862,1,0,0:0:0:0:
425,89,80044,1,0,0:0:0:0:
354,89,80226,1,2,0:0:0:0:
283,89,80408,1,8,0:0:0:0:
86,89,80772,6,0,L|239:89,1,140,2|8,0:0|0:0,0:0:0:0:
127,89,81317,1,0,0:0:0:0:
295,89,81499,2,0,L|396:89,2,70,0|2|8,0:0|0:0|0:0,0:0:0:0:
98,89,82226,6,0,P|60:142|103:190,1,140,2|8,0:0|0:0,0:0:0:0:
202,190,82772,1,0,0:0:0:0:
369,190,82953,2,0,P|406:243|363:291,1,140,0|8,0:0|0:0,0:0:0:0:
264,291,83499,1,0,0:0:0:0:
95,291,83681,6,0,P|52:242|89:189,1,140,4|8,0:0|0:0,0:0:0:0:
187,189,84226,1,0,0:0:0:0:
355,189,84408,2,0,L|457:189,2,70,0|2|8,0:0|0:0|0:0,0:0:0:0:
158,189,85135,6,0,L|324:189,1,140,2|8,0:0|0:0,0:0:0:0:
199,189,85681,1,0,0:0:0:0:
366,189,85862,2,0,L|453:189,2,70,0|2|8,0:0|0:0|0:0,0:0:0:0:
169,189,86590,6,0,L|104:189,2,35,2|0|0,0:0|0:0|0:0,0:0:0:0:
267,189,86953,1,8,0:0:0:0:
98,189,87135,6,0,P|55:140|92:87,1,140,0|2,0:0|0:0,0:0:0:0:
191,87,87681,1,12,0:0:0:0:
93,87,87862,1,0,0:0:0:0:
261,87,88044,6,0,L|362:87,2,70,2|8|8,0:0|0:0|0:0,0:0:0:0:
162,87,88590,2,0,P|124:140|167:188,1,140,8|8,0:0|0:0,0:0:0:0:
335,188,89135,1,10,3:0:0:0:
