osu file format v14

[General]
AudioFilename: audio.mp3
AudioLeadIn: 0
PreviewTime: 54226
Countdown: 0
SampleSet: Soft
StackLeniency: 0.7
Mode: 2
LetterboxInBreaks: 0
WidescreenStoryboard: 0

[Editor]
DistanceSpacing: 1.8
BeatDivisor: 4
GridSize: 32
TimelineZoom: 2.2

[Metadata]
Title:RISE (TV Size)
TitleUnicode:RISE (TV Size)
Artist:MADKID
ArtistUnicode:マッドキッド
Creator:Bastian
Version:Overdose
Source:盾の勇者の成り上がり
Tags:-vale tate no yuusya no nariagari The Rising of the Shield Hero anime op opening マッドキッド
BeatmapID:2032721
BeatmapSetID:970726

[Difficulty]
HPDrainRate:6.5
CircleSize:4.2
OverallDifficulty:9.2
ApproachRate:9.2
SliderMultiplier:1.8
SliderTickRate:2

[Events]
//Background and Video events
Video,0,"TateNoYuushaNoNariagariOP.mp4"
0,0,"TheRisingOfTheShieldHero.jpg",0,0
//Break Periods
//Storyboard Layer 0 (Background)
//Storyboard Layer 1 (Fail)
//Storyboard Layer 2 (Pass)
//Storyboard Layer 3 (Foreground)
//Storyboard Sound Samples

[TimingPoints]
772,363.636363636364,4,2,1,55,1,0
16772,-100,4,2,1,50,0,0
17135,-100,4,2,1,45,0,0
17499,-100,4,2,1,40,0,0
17862,-100,4,2,1,35,0,0
18226,-100,4,2,2,55,0,0
28408,-100,4,2,1,55,0,0
54226,-66.6666666666667,4,2,1,55,0,0
54499,-100,4,2,1,55,0,0
54590,-100,4,2,2,65,0,1
60408,-100,4,2,1,65,0,1
65862,-100,4,2,1,55,0,0
66226,-100,4,2,2,65,0,1
72044,-100,4,2,1,65,0,1
77862,-100,4,2,1,55,0,0

[Colours]
Combo1 : 0,145,0
Combo2 : 210,63,0
Combo3 : 255,201,147
Combo4 : 255,255,4

[HitObjects]
390,328,772,6,0,P|449:272|374:230,1,180,2|0,3:0|0:0,0:0:0:0:
135,225,1317,2,0,L|343:225,1,180,2|0,3:0|0:0,0:0:0:0:
62,225,1862,6,0,P|3:169|78:127,1,180,2|0,3:0|0:0,0:0:0:0:
317,122,2408,2,0,L|137:122,1,180,2|0,3:0|0:0,0:0:0:0:
389,122,2953,6,0,L|485:122,1,90,2|0,3:0|0:0,0:0:0:0:
225,122,3317,2,0,L|135:122,1,90,2|0,3:0|0:0,0:0:0:0:
388,122,3681,6,0,L|177:122,1,180,2|0,3:0|0:0,0:0:0:0:
460,122,4226,2,0,L|460:307,1,180,2|0,3:0|0:0,0:0:0:0:
206,302,4772,6,0,P|147:246|222:204,1,180,2|2,3:0|3:0,0:0:0:0:
370,199,5317,2,0,L|483:199,2,90,2|0|0,3:0|0:0|0:0,0:0:0:0:
117,199,5862,5,2,3:0:0:0:
56,183,5952,1,0,0:0:0:0:
56,120,6043,1,0,0:0:0:0:
117,106,6134,1,0,0:0:0:0:
299,106,6226,6,0,L|344:106,1,45,12|0,3:0|0:0,0:0:0:0:
161,106,6408,2,0,L|116:106,1,45,0|0,0:0|0:0,0:0:0:0:
389,106,6590,6,0,L|497:106,1,90,4|0,0:0|0:0,0:0:0:0:
316,106,6953,2,0,L|212:106,2,90,8|0|0,0:0|0:0|0:0,0:0:0:0:
62,106,7499,5,2,0:0:0:0:
332,106,7681,1,8,0:0:0:0:
170,106,7862,1,0,0:0:0:0:
422,106,8044,6,0,L|483:186,1,90,2|0,0:0|0:0,0:0:0:0:
222,177,8408,2,0,L|111:177,2,90,8|0|0,0:0|0:0|0:0,0:0:0:0:
384,177,8953,1,2,0:0:0:0:
132,177,9135,1,8,0:0:0:0:
402,177,9317,1,0,0:0:0:0:
149,177,9499,6,0,L|47:177,1,90,2|0,0:0|0:0,0:0:0:0:
221,177,9862,1,8,0:0:0:0:
383,177,10044,1,0,0:0:0:0:
130,177,10226,2,0,L|191:257,1,90,0|2,0:0|0:0,0:0:0:0:
438,248,10590,2,0,L|323:248,1,90,8|0,0:0|0:0,0:0:0:0:
95,248,10953,6,0,L|2:248,1,90,2|0,0:0|0:0,0:0:0:0:
168,248,11317,1,8,0:0:0:0:
330,248,11499,1,0,0:0:0:0:
77,248,11681,5,0,0:0:0:0:
238,248,11862,1,2,0:0:0:0:
400,248,12044,1,8,0:0:0:0:
147,248,12226,1,0,0:0:0:0:
399,248,12408,6,0,L|502:248,1,90,4|0,0:0|0:0,0:0:0:0:
325,248,12772,2,0,L|220:248,1,90,8|0,0:0|0:0,0:0:0:0:
397,248,13135,2,0,L|397:137,1,90,0|2,0:0|0:0,0:0:0:0:
143,158,13499,1,8,0:0:0:0:
395,158,13681,1,0,0:0:0:0:
54,158,13862,6,0,L|179:158,1,90,2|0,0:0|0:0,0:0:0:0:
307,158,14226,2,0,L|194:158,1,90,8|0,0:0|0:0,0:0:0:0:
470,158,14590,5,0,0:0:0:0:
217,158,14772,1,2,0:0:0:0:
467,158,14953,1,8,0:0:0:0:
304,158,15135,1,0,0:0:0:0:
51,158,15317,6,0,L|51:256,1,90,2|0,0:0|0:0,0:0:0:0:
304,248,15681,1,8,0:0:0:0:
53,248,15862,1,0,0:0:0:0:
305,248,16044,6,0,L|193:248,1,90,0|2,0:0|0:0,0:0:0:0:
378,248,16408,2,0,L|491:248,1,90,8|0,0:0|0:0,0:0:0:0:
141,248,16772,5,2,0:0:0:0:
80,232,16862,1,0,0:0:0:0:
80,169,16953,1,0,0:0:0:0:
141,155,17044,1,0,0:0:0:0:
323,155,17136,6,0,L|368:155,1,45,8|0,0:0|0:0,0:0:0:0:
185,155,17318,2,0,L|140:155,1,45,0|0,0:0|0:0,0:0:0:0:
410,155,17499,5,0,0:0:0:0:
471,169,17590,1,0,0:0:0:0:
471,232,17681,1,2,0:0:0:0:
410,248,17771,1,0,0:0:0:0:
207,248,17862,6,0,L|291:248,1,45,8|0,0:0|0:0,0:0:0:0:
456,248,18044,2,0,L|411:248,1,45,0|0,0:0|0:0,0:0:0:0:
137,248,18226,5,2,0:0:0:0:
299,248,18408,1,0,0:0:0:0:
299,248,18590,1,0,0:0:0:0:
46,248,18772,1,0,0:0:0:0:
296,248,18953,6,0,L|296:132,1,90,0|0,0:0|0:0,0:0:0:0:
459,158,19317,2,0,L|357:158,1,90,0|0,0:0|0:0,0:0:0:0:
115,158,19681,6,0,P|59:123|126:50,1,180,2|0,0:0|0:0,0:0:0:0:
274,47,20226,2,0,L|151:47,2,90,0|0|0,0:0|0:0|0:0,0:0:0:0:
110,47,20772,1,0,0:0:0:0:
360,47,20953,1,0,0:0:0:0:
107,47,21135,6,0,L|232:47,1,90,2|0,0:0|0:0,0:0:0:0:
450,47,21499,2,0,L|337:47,1,90,0|0,0:0|0:0,0:0:0:0:
197,47,21862,5,0,0:0:0:0:
359,47,22044,1,0,0:0:0:0:
106,47,22226,2,0,L|106:155,1,90,0|0,0:0|0:0,0:0:0:0:
359,137,22590,5,2,0:0:0:0:
106,137,22772,2,0,L|300:137,2,180,0|0|0,0:0|0:0|0:0,0:0:0:0:
268,137,23681,1,0,0:0:0:0:
429,137,23862,1,0,0:0:0:0:
176,137,24044,6,0,L|61:137,1,90,2|0,0:0|0:0,0:0:0:0:
339,137,24408,2,0,L|440:137,2,90,0|0|0,0:0|0:0|0:0,0:0:0:0:
176,137,24953,5,0,0:0:0:0:
428,137,25135,1,0,0:0:0:0:
103,137,25317,1,0,0:0:0:0:
355,137,25499,6,0,L|355:255,1,90,2|0,0:0|0:0,0:0:0:0:
192,227,25862,1,0,0:0:0:0:
354,227,26044,1,0,0:0:0:0:
101,227,26226,2,0,L|273:226,2,135,0|0|0,0:0|0:0|0:0,0:0:0:0:
354,227,26953,6,0,P|412:166|344:119,1,180,8|2,0:0|0:0,0:0:0:0:
190,117,27499,1,8,0:0:0:0:
442,117,27681,2,0,L|501:47,1,90,0|2,0:0|0:0,0:0:0:0:
248,48,28044,6,0,L|189:116,1,90,8|0,0:0|0:0,0:0:0:0:
443,116,28408,1,2,0:0:0:0:
280,116,28590,1,2,0:0:0:0:
117,116,28772,1,2,0:0:0:0:
278,116,28953,1,2,0:0:0:0:
25,116,29135,6,0,L|115:116,1,90,2|2,0:0|0:0,0:0:0:0:
368,116,29499,2,0,L|427:46,1,90,2|0,0:0|0:0,0:0:0:0:
173,47,29862,6,0,L|85:47,2,60,2|0|0,0:0|0:0|0:0,0:0:0:0:
354,47,30226,2,0,L|414:47,2,60,8|0|0,0:0|0:0|0:0,0:0:0:0:
173,47,30590,5,0,0:0:0:0:
268,47,30711,1,0,0:0:0:0:
363,47,30832,1,0,0:0:0:0:
81,47,30953,2,0,P|39:102|86:141,1,135,8|0,0:0|0:0,0:0:0:0:
352,167,31317,6,0,L|257:167,2,60,2|0|0,0:0|0:0|0:0,0:0:0:0:
81,167,31681,2,0,L|183:167,2,60,8|0|0,0:0|0:0|0:0,0:0:0:0:
379,167,32044,6,0,L|471:167,2,60,0|0|0,0:0|0:0|0:0,0:0:0:0:
197,167,32408,2,0,L|350:166,1,120,8|0,0:0|0:0,0:0:0:0:
135,166,32772,6,0,L|75:166,2,60,2|0|0,0:0|0:0|0:0,0:0:0:0:
314,166,33135,2,0,L|406:166,2,60,8|0|0,0:0|0:0|0:0,0:0:0:0:
132,166,33499,6,0,L|218:166,2,60,0|0|0,0:0|0:0|0:0,0:0:0:0:
434,166,33862,2,0,L|327:166,2,60,8|0|0,0:0|0:0|0:0,0:0:0:0:
252,166,34226,6,0,L|155:166,2,60,2|0|0,0:0|0:0|0:0,0:0:0:0:
433,166,34590,2,0,L|508:166,2,60,8|0|0,0:0|0:0|0:0,0:0:0:0:
253,166,34953,5,0,0:0:0:0:
156,166,35075,1,0,0:0:0:0:
60,166,35196,1,0,0:0:0:0:
239,166,35317,1,8,0:0:0:0:
334,166,35438,1,0,0:0:0:0:
429,166,35559,1,0,0:0:0:0:
187,166,35681,6,0,L|102:166,2,60,2|0|0,0:0|0:0|0:0,0:0:0:0:
366,166,36044,2,0,L|456:166,2,60,8|0|0,0:0|0:0|0:0,0:0:0:0:
184,166,36408,5,0,0:0:0:0:
279,166,36529,1,0,0:0:0:0:
374,166,36650,1,0,0:0:0:0:
132,166,36772,2,0,P|87:203|136:239,1,135,8|0,0:0|0:0,0:0:0:0:
404,239,37135,6,0,L|404:162,1,60,2|0,0:0|0:0,0:0:0:0:
307,239,37378,1,0,0:0:0:0:
127,239,37499,2,0,L|127:136,1,60,8|0,0:0|0:0,0:0:0:0:
222,239,37741,1,0,0:0:0:0:
401,239,37862,6,0,L|230:239,1,135,0|0,0:0|0:0,0:0:0:0:
83,239,38226,2,0,P|35:203|80:165,1,135,8|0,0:0|0:0,0:0:0:0:
354,165,38590,6,0,L|478:165,2,90,2|0|8,0:0|0:0|0:0,0:0:0:0:
101,165,39135,2,0,L|191:165,1,90,0|0,0:0|0:0,0:0:0:0:
354,165,39499,5,2,0:0:0:0:
29,165,39681,1,8,0:0:0:0:
172,165,39862,1,0,0:0:0:0:
424,165,40044,5,2,0:0:0:0:
485,149,40134,1,0,0:0:0:0:
485,86,40225,1,0,0:0:0:0:
424,72,40316,1,0,0:0:0:0:
241,72,40408,6,0,L|177:72,1,45,8|0,0:0|0:0,0:0:0:0:
378,72,40590,2,0,L|449:72,1,45,0|0,0:0|0:0,0:0:0:0:
149,72,40772,6,0,L|76:72,1,45,0|0,0:0|0:0,0:0:0:0:
149,72,40953,2,0,L|194:72,1,45,2|0,0:0|0:0,0:0:0:0:
376,72,41135,6,0,L|441:72,1,45,8|0,0:0|0:0,0:0:0:0:
221,72,41317,2,0,L|149:72,1,45,0|0,0:0|0:0,0:0:0:0:
403,72,41499,6,0,P|459:101|394:172,1,180,6|0,0:0|0:0,0:0:0:0:
151,174,42044,1,0,0:0:0:0:
403,174,42226,2,0,L|194:174,1,180,8|0,0:0|0:0,0:0:0:0:
476,174,42772,2,0,L|476:361,1,180,0|0,0:0|0:0,0:0:0:0:
223,354,43317,6,0,L|102:354,1,90,2|0,0:0|0:0,0:0:0:0:
386,354,43681,2,0,L|265:354,1,90,8|0,0:0|0:0,0:0:0:0:
43,354,44044,2,0,L|43:185,1,135,0|0,0:0|0:0,0:0:0:0:
316,219,44408,6,0,L|475:219,2,135,2|0|0,0:0|0:0|0:0,0:0:0:0:
63,219,45135,2,0,L|259:219,1,180,8|0,0:0|0:0,0:0:0:0:
79,219,45681,2,0,P|20:163|95:121,1,180,0|0,0:0|0:0,0:0:0:0:
333,116,46226,6,0,L|438:116,1,90,2|0,0:0|0:0,0:0:0:0:
169,116,46590,2,0,L|74:116,1,90,8|0,0:0|0:0,0:0:0:0:
331,116,46953,2,0,L|392:196,1,90,0|0,0:0|0:0,0:0:0:0:
131,187,47317,6,0,L|0:187,1,90,2|0,0:0|0:0,0:0:0:0:
294,187,47681,2,0,L|355:267,1,90,0|0,0:0|0:0,0:0:0:0:
186,258,48044,5,8,0:0:0:0:
438,258,48226,1,0,0:0:0:0:
185,258,48408,2,0,L|80:258,1,90,0|0,0:0|0:0,0:0:0:0:
348,258,48772,2,0,L|460:258,2,90,2|0|2,0:0|0:0|0:0,0:0:0:0:
95,258,49317,6,0,L|40:186,1,90,0|8,0:0|0:0,0:0:0:0:
294,186,49681,2,0,L|348:114,1,90,0|0,0:0|0:0,0:0:0:0:
186,114,50044,1,0,0:0:0:0:
438,114,50226,5,2,0:0:0:0:
275,114,50408,1,2,0:0:0:0:
112,114,50590,1,2,0:0:0:0:
364,114,50772,1,2,0:0:0:0:
113,114,50953,6,0,L|1:114,1,90,2|2,0:0|0:0,0:0:0:0:
186,114,51317,1,2,0:0:0:0:
348,114,51499,1,2,0:0:0:0:
95,114,51681,6,0,L|29:114,1,45,8|0,0:0|0:0,0:0:0:0:
230,114,51862,2,0,L|275:114,1,45,8|0,0:0|0:0,0:0:0:0:
92,114,52044,2,0,L|47:114,1,45,8|0,0:0|0:0,0:0:0:0:
425,113,52226,5,8,0:0:0:0:
200,114,52590,2,0,L|391:113,1,180
27,112,53135,6,0,L|27:228,1,90,0|0,0:0|0:0,0:0:0:0:
279,202,53499,2,0,L|279:112,1,90,0|0,0:0|0:0,0:0:0:0:
27,112,53862,1,0,0:0:0:0:
297,112,54226,2,0,L|41:112,1,202.500007724762,4|0,3:0|0:0,0:0:0:0:
383,112,54590,6,0,L|489:112,2,90,14|0|8,0:0|0:0|0:0,0:0:0:0:
130,112,55135,2,0,L|18:112,1,90,2|8,0:0|0:0,0:0:0:0:
203,112,55499,1,2,0:0:0:0:
40,112,55681,1,8,0:0:0:0:
290,112,55862,6,0,L|403:112,1,90,8|10,0:0|0:0,0:0:0:0:
126,112,56226,2,0,L|126:216,1,90,0|10,0:0|0:0,0:0:0:0:
379,202,56590,2,0,L|253:202,1,90,0|10,0:0|0:0,0:0:0:0:
126,202,56953,5,0,0:0:0:0:
378,202,57135,1,10,0:0:0:0:
215,202,57317,1,2,0:0:0:0:
467,202,57499,6,0,L|467:89,1,90,14|0,0:0|0:0,0:0:0:0:
214,112,57862,2,0,L|89:112,1,90,8|2,0:0|0:0,0:0:0:0:
287,112,58226,1,10,0:0:0:0:
34,112,58408,1,2,0:0:0:0:
196,112,58590,1,10,0:0:0:0:
448,112,58772,6,0,L|502:184,1,90,10|10,0:0|0:0,0:0:0:0:
249,184,59135,2,0,L|195:256,1,90,0|10,0:0|0:0,0:0:0:0:
358,256,59499,2,0,L|463:256,1,90,0|10,0:0|0:0,0:0:0:0:
195,256,59862,6,0,L|82:256,2,90,0|8|0,0:0|0:0|0:0,0:0:0:0:
448,256,60408,2,0,L|243:256,1,180,6|8,0:0|0:0,0:0:0:0:
430,256,60953,1,0,0:0:0:0:
177,256,61135,5,0,0:0:0:0:
429,256,61317,1,2,0:0:0:0:
266,256,61499,1,8,0:0:0:0:
103,256,61681,1,0,0:0:0:0:
353,256,61862,6,0,L|157:255,1,180,6|8,0:0|0:0,0:0:0:0:
336,255,62408,1,0,0:0:0:0:
83,255,62590,1,0,0:0:0:0:
335,255,62772,2,0,L|335:143,1,90,2|8,0:0|0:0,0:0:0:0:
82,165,63135,1,0,0:0:0:0:
334,165,63317,6,0,L|426:165,1,90,6|0,0:0|0:0,0:0:0:0:
170,165,63681,2,0,L|68:165,2,90,8|0|0,0:0|0:0|0:0,0:0:0:0:
332,165,64226,5,2,0:0:0:0:
79,165,64408,1,8,0:0:0:0:
421,165,64590,1,0,0:0:0:0:
168,165,64772,6,0,L|100:165,1,45,6|0,0:0|0:0,0:0:0:0:
168,165,64953,2,0,L|100:165,1,45,0|0,0:0|0:0,0:0:0:0:
305,165,65135,6,0,L|371:165,1,45,8|0,0:0|0:0,0:0:0:0:
168,165,65317,2,0,L|123:165,1,45,0|0,0:0|0:0,0:0:0:0:
396,165,65499,5,0,0:0:0:0:
457,149,65589,1,0,0:0:0:0:
457,86,65680,1,2,0:0:0:0:
396,72,65771,1,0,0:0:0:0:
123,72,65862,5,8,0:0:0:0:
62,86,65953,1,0,0:0:0:0:
62,149,66044,1,0,0:0:0:0:
123,165,66134,1,0,0:0:0:0:
305,165,66226,6,0,L|406:165,1,90,14|0,0:0|0:0,0:0:0:0:
141,165,66590,2,0,L|51:165,1,90,8|2,0:0|0:0,0:0:0:0:
213,165,66953,2,0,L|334:165,1,90,8|2,0:0|0:0,0:0:0:0:
49,165,67317,1,8,0:0:0:0:
301,165,67499,6,0,L|410:166,1,90,10|10,0:0|0:0,0:0:0:0:
228,165,67862,1,0,0:0:0:0:
65,165,68044,1,10,0:0:0:0:
317,165,68226,6,0,L|425:165,2,90,0|10|0,0:0|0:0|0:0,0:0:0:0:
153,165,68772,1,10,0:0:0:0:
403,165,68953,1,2,0:0:0:0:
153,165,69135,6,0,L|99:93,1,90,14|0,0:0|0:0,0:0:0:0:
352,93,69499,2,0,L|406:21,1,90,8|2,0:0|0:0,0:0:0:0:
153,21,69862,2,0,L|36:21,2,90,8|2|8,0:0|0:0|0:0,0:0:0:0:
406,21,70408,6,0,L|289:21,1,90,10|10,0:0|0:0,0:0:0:0:
152,21,70772,1,0,0:0:0:0:
313,21,70953,1,10,0:0:0:0:
60,21,71135,2,0,L|60:129,1,90,0|10,0:0|0:0,0:0:0:0:
313,111,71499,5,0,0:0:0:0:
150,111,71681,1,8,0:0:0:0:
311,111,71862,1,0,0:0:0:0:
58,111,72044,6,0,L|264:111,1,180,6|8,0:0|0:0,0:0:0:0:
74,111,72590,1,0,0:0:0:0:
326,111,72772,5,0,0:0:0:0:
75,111,72953,1,2,0:0:0:0:
237,111,73135,1,8,0:0:0:0:
399,111,73317,1,0,0:0:0:0:
146,111,73499,6,0,L|306:112,2,135,6|0|0,0:0|0:0|0:0,0:0:0:0:
399,111,74226,2,0,L|345:183,1,90,0|2,0:0|0:0,0:0:0:0:
91,183,74590,2,0,L|145:255,1,90,8|0,0:0|0:0,0:0:0:0:
397,255,74953,6,0,L|397:134,1,90,6|0,0:0|0:0,0:0:0:0:
143,165,75317,2,0,L|29:165,1,90,8|0,0:0|0:0,0:0:0:0:
306,165,75681,5,0,0:0:0:0:
467,165,75862,1,2,0:0:0:0:
306,165,76044,1,8,0:0:0:0:
143,165,76226,1,0,0:0:0:0:
395,165,76408,6,0,L|479:165,1,45,6|0,0:0|0:0,0:0:0:0:
257,165,76590,2,0,L|212:165,1,45,0|0,0:0|0:0,0:0:0:0:
395,165,76772,6,0,L|479:165,1,45,8|0,0:0|0:0,0:0:0:0:
257,165,76954,2,0,L|212:165,1,45,0|0,0:0|0:0,0:0:0:0:
413,165,77135,5,0,0:0:0:0:
474,179,77226,1,0,0:0:0:0:
474,242,77317,1,2,0:0:0:0:
413,258,77407,1,0,0:0:0:0:
230,258,77499,6,0,L|144:258,1,45,8|0,0:0|0:0,0:0:0:0:
367,258,77681,2,0,L|412:258,1,45,0|0,0:0|0:0,0:0:0:0:
141,258,77862,6,0,L|28:258,1,90,4|0,0:0|0:0,0:0:0:0:
304,258,78226,2,0,L|416:258,2,90,8|0|0,0:0|0:0|0:0,0:0:0:0:
140,258,78772,5,2,0:0:0:0:
390,258,78953,1,8,0:0:0:0:
227,258,79135,1,0,0:0:0:0:
479,258,79317,6,0,L|479:135,1,90,2|0,0:0|0:0,0:0:0:0:
225,168,79681,2,0,L|110:168,1,90,8|0,0:0|0:0,0:0:0:0:
297,168,80044,6,0,L|419:168,1,90,0|2,0:0|0:0,0:0:0:0:
225,168,80408,1,8,0:0:0:0:
62,168,80590,1,0,0:0:0:0:
314,168,80772,6,0,L|368:96,1,90,2|0,0:0|0:0,0:0:0:0:
115,96,81135,2,0,L|61:168,1,90,8|0,0:0|0:0,0:0:0:0:
314,168,81499,6,0,L|216:168,1,90,0|2,0:0|0:0,0:0:0:0:
476,168,81862,2,0,L|375:168,1,90,8|0,0:0|0:0,0:0:0:0:
132,168,82226,5,2,0:0:0:0:
294,168,82408,1,0,0:0:0:0:
41,168,82590,1,8,0:0:0:0:
41,168,82772,1,0,0:0:0:0:
381,168,82953,6,0,L|381:264,1,90,0|2,0:0|0:0,0:0:0:0:
217,258,83317,1,8,0:0:0:0:
469,258,83499,1,0,0:0:0:0:
216,258,83681,6,0,L|93:258,1,90,4|0,0:0|0:0,0:0:0:0:
378,258,84044,2,0,L|378:152,1,90,8|0,0:0|0:0,0:0:0:0:
124,168,84408,6,0,L|8:168,2,90,0|2|8,0:0|0:0|0:0,0:0:0:0:
378,168,84953,1,0,0:0:0:0:
124,168,85135,6,0,L|70:96,1,90,2|0,0:0|0:0,0:0:0:0:
323,96,85499,2,0,L|377:168,1,90,8|0,0:0|0:0,0:0:0:0:
124,168,85862,5,0,0:0:0:0:
286,168,86044,1,2,0:0:0:0:
123,168,86226,1,8,0:0:0:0:
375,168,86408,1,0,0:0:0:0:
122,168,86590,6,0,L|46:168,1,45,2|0,0:0|0:0,0:0:0:0:
259,168,86772,2,0,L|333:168,1,45,0|0,0:0|0:0,0:0:0:0:
101,168,86953,5,8,0:0:0:0:
40,182,87044,1,0,0:0:0:0:
40,245,87135,1,0,0:0:0:0:
101,261,87225,1,0,0:0:0:0:
374,261,87317,6,0,L|493:261,2,90,0|2|12,0:0|0:0|0:0,0:0:0:0:
211,261,87862,1,0,0:0:0:0:
463,261,88044,5,2,0:0:0:0:
300,261,88226,1,8,0:0:0:0:
137,261,88408,1,8,0:0:0:0:
389,261,88590,6,0,P|448:208|386:158,1,180,8|8,0:0|0:0,0:0:0:0:
44,157,89135,1,10,3:0:0:0:
