osu file format v14

[General]
AudioFilename: audio.mp3
AudioLeadIn: 0
PreviewTime: 53135
Countdown: 1
SampleSet: Soft
StackLeniency: 0.7
Mode: 0
LetterboxInBreaks: 0
WidescreenStoryboard: 0

[Editor]
DistanceSpacing: 1.7
BeatDivisor: 4
GridSize: 32
TimelineZoom: 2.1

[Metadata]
Title:RISE
TitleUnicode:RISE
Artist:MADKID
ArtistUnicode:マッドキッド
Creator:Origuon
Version:RISE !
Source:
Tags:
BeatmapID:2055103
BeatmapSetID:981940

[Difficulty]
HPDrainRate:4
CircleSize:4
OverallDifficulty:9
ApproachRate:9
SliderMultiplier:1.6
SliderTickRate:1

[Events]
//Background and Video events
0,0,"the-rising-of-the-shield-hero-raphtalia-wallpaper-1680x1050-9235_5.jpg",0,0
//Break Periods
//Storyboard Layer 0 (Background)
//Storyboard Layer 1 (Fail)
//Storyboard Layer 2 (Pass)
//Storyboard Layer 3 (Foreground)
//Storyboard Sound Samples

[TimingPoints]
772,363.636363636364,4,2,0,40,1,0
6590,-83.3333333333333,4,2,0,40,0,0
18226,-100,4,2,0,40,0,0
38226,-76.9230769230769,4,2,0,40,0,0
52317,-133.333333333333,4,2,0,40,0,0
54226,-66.6666666666667,4,2,0,40,0,0
65681,-133.333333333333,4,2,0,40,0,0
66226,-66.6666666666667,4,2,0,40,0,0
68772,-133.333333333333,4,2,0,40,0,0
69135,-66.6666666666667,4,2,0,40,0,0
77499,-133.333333333333,4,2,0,40,0,0
77862,-83.3333333333333,4,2,0,40,0,0

[HitObjects]
107,346,772,6,0,L|134:258,1,80
54,206,1135,1,0,0:0:0:0:
196,362,1317,2,0,L|222:280,1,80
54,206,1681,1,0,0:0:0:0:
107,346,1862,2,0,L|134:258,1,80
54,206,2226,1,0,0:0:0:0:
196,362,2408,2,0,L|222:280,1,80
96,67,2772,5,0,0:0:0:0:
96,67,2953,2,0,P|94:132|103:161,1,80
206,148,3317,2,0,P|192:195|151:232,1,80
346,177,3681,6,0,L|331:82,1,80
245,48,4044,1,0,0:0:0:0:
430,171,4226,2,0,L|415:76,1,80
245,48,4590,1,0,0:0:0:0:
346,177,4772,2,0,L|331:82,1,80
253,222,5135,5,0,0:0:0:0:
253,222,5317,2,0,L|284:260,1,40
229,256,5499,2,0,L|281:258,1,40
238,305,5681,2,0,L|261:265,1,40
310,216,5862,1,0,0:0:0:0:
333,248,5952,1,0,0:0:0:0:
343,286,6043,1,0,0:0:0:0:
339,326,6134,1,0,0:0:0:0:
321,361,6226,2,0,P|254:343|235:312,1,80
413,180,6590,6,0,P|442:244|423:305,1,95.9999970703126
290,138,6953,1,0,0:0:0:0:
343,286,7135,1,0,0:0:0:0:
317,50,7317,2,0,P|250:48|216:78,1,95.9999970703126
44,119,7681,2,0,P|81:155|136:157,1,95.9999970703126
118,35,8044,1,0,0:0:0:0:
221,164,8226,1,0,0:0:0:0:
67,254,8408,6,0,L|182:254,1,95.9999970703126
221,164,8772,1,0,0:0:0:0:
58,152,8953,1,0,0:0:0:0:
110,330,9135,2,0,P|152:287|163:243,1,95.9999970703126
58,152,9499,1,0,0:0:0:0:
126,20,9681,1,0,0:0:0:0:
275,88,9862,2,0,L|168:88,1,95.9999970703126
262,246,10226,5,0,0:0:0:0:
179,88,10408,1,0,0:0:0:0:
338,134,10590,2,0,P|354:86|338:42,1,95.9999970703126
262,245,10953,1,0,0:0:0:0:
433,193,11135,6,0,L|442:252,1,47.9999985351563
266,154,11317,2,0,L|259:89,1,47.9999985351563
363,309,11499,1,0,0:0:0:0:
363,309,11590,1,0,0:0:0:0:
363,309,11681,2,0,L|230:308,1,95.9999970703126
128,174,12044,2,0,P|115:244|135:290,1,95.9999970703126
215,74,12408,5,0,0:0:0:0:
326,206,12590,1,0,0:0:0:0:
418,63,12772,2,0,L|302:62,1,95.9999970703126
407,207,13135,1,0,0:0:0:0:
241,108,13317,1,0,0:0:0:0:
261,272,13499,2,0,P|315:231|331:178,1,95.9999970703126
241,108,13862,5,0,0:0:0:0:
177,296,14044,1,0,0:0:0:0:
66,150,14226,2,0,L|169:150,1,95.9999970703126
177,296,14590,1,0,0:0:0:0:
66,150,14772,1,0,0:0:0:0:
42,332,14953,2,0,P|96:284|99:241,1,95.9999970703126
66,150,15317,5,0,0:0:0:0:
233,237,15499,1,0,0:0:0:0:
127,50,15681,2,0,L|237:50,1,95.9999970703126
233,237,16044,1,0,0:0:0:0:
327,119,16226,1,0,0:0:0:0:
437,208,16408,2,0,P|463:161|459:100,1,95.9999970703126
233,237,16772,6,0,L|307:237,1,47.9999985351563
327,119,16953,2,0,L|256:118,1,47.9999985351563
367,320,17135,6,0,L|366:265,1,47.9999985351563
430,132,17317,2,0,L|432:214,1,47.9999985351563
482,337,17499,1,0,0:0:0:0:
482,337,17590,1,0,0:0:0:0:
482,337,17681,1,0,0:0:0:0:
482,337,17862,6,0,P|453:262|470:234,1,95.9999970703126
345,30,18226,2,0,P|335:74|346:113,1,80
265,25,18590,2,0,P|257:74|271:108,1,80
119,135,18953,2,0,P|130:177|169:206,1,80
178,86,19317,1,0,0:0:0:0:
47,30,19499,6,0,L|139:30,1,80
49,275,19862,2,0,L|48:103,1,160
216,346,20408,2,0,L|131:345,1,80
216,230,20772,1,0,0:0:0:0:
325,358,20953,2,0,L|325:265,1,80
406,125,21317,5,0,0:0:0:0:
406,125,21499,2,0,P|411:192|391:234,2,80
269,39,22044,2,0,L|369:39,2,80
306,256,22590,6,0,P|306:213|320:172,1,80
193,243,22953,1,0,0:0:0:0:
76,225,23135,2,0,P|56:182|9:140,1,80
59,329,23499,2,0,P|105:327|151:220,1,160
214,46,24044,6,0,P|234:91|231:148,1,80
317,42,24408,2,0,P|329:85|322:134,1,80
450,181,24772,2,0,P|440:224|383:258,1,80
403,110,25135,1,0,0:0:0:0:
484,34,25317,6,0,L|369:34,1,80
265,200,25741,5,0,0:0:0:0:
404,300,25984,1,0,0:0:0:0:
372,183,26105,1,0,0:0:0:0:
263,325,26347,5,0,0:0:0:0:
372,183,26590,1,0,0:0:0:0:
265,200,26711,1,0,0:0:0:0:
108,107,26953,6,0,B|107:165|107:165|143:208|143:208|143:288,1,160
30,326,27499,1,0,0:0:0:0:
57,247,27681,1,0,0:0:0:0:
198,110,28044,6,0,L|260:189,1,80
401,341,28408,1,0,0:0:0:0:
439,173,28530,1,0,0:0:0:0:
242,315,28772,5,0,0:0:0:0:
319,83,29015,1,0,0:0:0:0:
439,173,29135,1,0,0:0:0:0:
352,283,29317,2,0,P|346:240|361:185,1,80
146,127,29862,5,0,0:0:0:0:
146,47,29984,1,0,0:0:0:0:
215,87,30105,1,0,0:0:0:0:
77,167,30226,5,0,0:0:0:0:
146,127,30347,1,0,0:0:0:0:
146,207,30469,1,0,0:0:0:0:
215,247,30590,5,0,0:0:0:0:
146,207,30711,1,0,0:0:0:0:
146,287,30833,1,0,0:0:0:0:
23,352,30953,2,0,L|136:353,1,80
215,247,31317,5,0,0:0:0:0:
215,156,31438,1,0,0:0:0:0:
305,157,31559,1,0,0:0:0:0:
215,156,31681,5,0,0:0:0:0:
215,65,31802,1,0,0:0:0:0:
125,66,31923,1,0,0:0:0:0:
35,156,32044,5,0,0:0:0:0:
35,65,32165,1,0,0:0:0:0:
125,66,32286,1,0,0:0:0:0:
215,157,32408,2,0,L|115:156,1,80
206,32,32772,5,0,0:0:0:0:
213,63,32893,1,0,0:0:0:0:
254,62,33014,5,0,0:0:0:0:
247,31,33135,1,0,0:0:0:0:
280,28,33256,5,0,0:0:0:0:
287,59,33377,1,0,0:0:0:0:
326,56,33499,5,0,0:0:0:0:
319,25,33620,1,0,0:0:0:0:
375,37,33741,5,0,0:0:0:0:
421,138,33862,2,0,P|451:90|440:39,1,80
292,193,34226,1,0,0:0:0:0:
292,252,34347,1,0,0:0:0:0:
350,252,34468,1,0,0:0:0:0:
350,193,34590,5,0,0:0:0:0:
292,193,34711,1,0,0:0:0:0:
292,252,34832,1,0,0:0:0:0:
350,252,34953,1,0,0:0:0:0:
350,193,35075,1,0,0:0:0:0:
320,225,35196,5,0,0:0:0:0:
350,252,35317,2,0,P|385:304|428:323,1,80
347,34,35681,1,0,0:0:0:0:
419,37,35802,1,0,0:0:0:0:
382,96,35923,1,0,0:0:0:0:
347,34,36044,5,0,0:0:0:0:
281,35,36165,1,0,0:0:0:0:
315,94,36286,1,0,0:0:0:0:
217,91,36408,5,0,0:0:0:0:
255,160,36529,1,0,0:0:0:0:
185,159,36650,1,0,0:0:0:0:
87,244,36772,2,0,L|162:289,1,80
294,224,37135,5,0,0:0:0:0:
273,287,37256,1,0,0:0:0:0:
224,235,37378,1,0,0:0:0:0:
363,342,37499,5,0,0:0:0:0:
348,272,37620,1,0,0:0:0:0:
414,291,37742,1,0,0:0:0:0:
427,351,37862,6,0,P|461:302|462:253,1,80
415,9,38226,6,0,B|426:57|399:86|399:86|425:122|425:122|402:193,1,155.999992858887
384,209,38590,2,0,P|316:194|293:149,1,103.999995239258
261,29,38953,2,0,P|210:32|175:69,1,103.999995239258
116,202,39317,2,0,P|48:187|25:142,1,103.999995239258
175,68,39681,5,0,0:0:0:0:
238,255,39862,1,0,0:0:0:0:
337,90,40044,1,0,0:0:0:0:
145,218,40226,5,0,0:0:0:0:
239,270,40408,1,0,0:0:0:0:
329,207,40590,2,0,P|342:258|319:316,1,103.999995239258
379,69,40954,6,0,P|416:134|318:204,1,207.999990478516
76,327,41499,6,0,L|79:248,1,51.999997619629
215,112,41681,2,0,L|214:177,1,51.999997619629
24,274,42044,6,0,L|99:274,1,51.999997619629
214,163,42226,2,0,L|149:164,1,51.999997619629
74,324,42590,6,0,L|75:273,1,51.999997619629
163,108,42772,2,0,L|163:160,1,51.999997619629
259,198,43135,5,0,0:0:0:0:
359,269,43317,1,0,0:0:0:0:
288,129,43499,1,0,0:0:0:0:
440,250,43681,1,0,0:0:0:0:
324,61,43862,1,0,0:0:0:0:
471,186,44044,2,0,P|475:130|427:114,1,103.999995239258
359,269,44408,6,0,L|275:269,1,51.999997619629
394,97,44590,2,0,L|455:97,1,51.999997619629
307,269,44953,6,0,L|308:324,1,51.999997619629
446,96,45134,2,0,L|445:32,1,51.999997619629
307,320,45499,6,0,L|399:321,1,51.999997619629
445,44,45681,2,0,L|353:44,1,51.999997619629
205,86,46044,5,0,0:0:0:0:
170,238,46226,1,0,0:0:0:0:
68,107,46408,2,0,P|131:137|156:171,1,103.999995239258
192,309,46772,1,0,0:0:0:0:
192,309,46953,2,0,L|74:310,1,103.999995239258
336,241,47317,6,0,P|376:290|383:342,2,103.999995239258
330,49,47862,1,0,0:0:0:0:
237,152,48044,2,0,L|378:152,1,103.999995239258
477,270,48408,2,0,L|477:129,1,103.999995239258
287,29,48772,5,0,0:0:0:0:
270,45,48953,2,0,P|207:80|194:117,1,103.999995239258
100,166,49317,2,0,P|85:230|114:280,1,103.999995239258
293,243,49681,2,0,P|275:301|198:336,1,103.999995239258
401,92,50044,5,0,0:0:0:0:
406,120,50226,5,0,0:0:0:0:
196,187,50408,1,0,0:0:0:0:
458,303,50590,1,0,0:0:0:0:
174,63,50772,1,0,0:0:0:0:
238,332,50953,1,0,0:0:0:0:
444,43,51135,1,0,0:0:0:0:
58,318,51317,1,0,0:0:0:0:
464,217,51499,1,0,0:0:0:0:
117,39,51681,5,0,0:0:0:0:
113,80,51862,5,0,0:0:0:0:
124,129,52044,5,0,0:0:0:0:
157,169,52226,5,0,0:0:0:0:
195,172,52590,6,0,P|191:232|260:288,1,150.000005722046
316,231,53135,6,0,L|331:272,1,30.0000011444092
393,251,53317,2,0,L|411:296,1,30.0000011444092
470,265,53499,2,0,L|501:360,1,90.0000034332277
497,350,53862,1,0,0:0:0:0:
416,18,54226,6,0,B|345:56|345:56|369:114|369:114|368:106,1,120.000004577637
330,259,54590,1,0,0:0:0:0:
391,188,54772,1,0,0:0:0:0:
219,169,54953,2,0,P|215:249|238:298,1,120.000004577637
353,250,55317,5,0,0:0:0:0:
207,59,55499,2,0,L|335:58,1,120.000004577637
219,169,55862,1,0,0:0:0:0:
290,268,56044,1,0,0:0:0:0:
103,156,56226,2,0,L|103:310,1,120.000004577637
30,353,56590,6,0,P|21:287|161:214,1,240.000009155274
361,342,57135,2,0,L|220:342,1,120.000004577637
375,203,57499,1,0,0:0:0:0:
375,203,57590,1,0,0:0:0:0:
375,203,57681,2,0,L|241:203,1,120.000004577637
193,46,58044,5,0,0:0:0:0:
117,239,58226,1,0,0:0:0:0:
255,203,58408,1,0,0:0:0:0:
236,195,58590,1,0,0:0:0:0:
74,64,58772,2,0,P|43:119|55:192,1,120.000004577637
179,203,59135,6,0,P|148:258|160:331,1,120.000004577637
291,230,59499,6,0,P|335:288|413:190,1,240.000009155274
196,57,60044,5,0,0:0:0:0:
260,127,60165,1,0,0:0:0:0:
72,177,60408,2,0,L|162:199,1,80.0000030517579
206,313,60650,2,0,L|113:333,1,80.0000030517579
206,313,61014,1,0,0:0:0:0:
149,195,61135,1,0,0:0:0:0:
418,35,61499,5,0,0:0:0:0:
328,94,61620,1,0,0:0:0:0:
451,194,61862,2,0,L|347:227,1,80.0000030517579
384,339,62105,2,0,L|477:369,1,80.0000030517579
384,341,62468,1,0,0:0:0:0:
374,217,62590,1,0,0:0:0:0:
189,290,62772,5,0,0:0:0:0:
181,310,62953,2,0,P|115:268|111:193,1,120.000004577637
249,44,63317,2,0,P|246:122|179:157,1,120.000004577637
83,144,63681,1,0,0:0:0:0:
181,310,63862,1,0,0:0:0:0:
249,44,64044,1,0,0:0:0:0:
407,233,64226,6,0,L|287:232,1,120.000004577637
390,34,64590,1,0,0:0:0:0:
390,34,64681,1,0,0:0:0:0:
390,34,64772,2,0,L|392:119,1,60.0000022888184
233,296,64953,2,0,L|308:296,1,60.0000022888184
166,65,65135,2,0,L|98:66,1,60.0000022888184
52,333,65317,2,0,L|53:251,1,60.0000022888184
293,296,65499,5,0,0:0:0:0:
293,296,65862,2,0,L|388:276,1,90.0000034332277
381,277,66226,2,0,P|387:177|333:131,1,120.000004577637
174,50,66590,6,0,P|242:30|295:50,1,120.000004577637
241,348,66953,2,0,P|139:325|117:268,1,120.000004577637
412,61,67317,2,0,P|461:124|458:178,1,120.000004577637
380,240,67590,1,0,0:0:0:0:
365,234,67681,2,0,P|361:293|384:348,1,120.000004577637
78,110,68044,1,0,0:0:0:0:
86,100,68226,6,0,P|153:78|143:215,1,240.000009155274
226,330,68772,6,0,L|129:330,1,90.0000034332277
136,330,69135,2,0,P|155:253|216:227,1,120.000004577637
477,197,69499,2,0,P|455:109|390:76,1,120.000004577637
48,55,69862,2,0,P|106:59|153:23,1,120.000004577637
258,305,70226,2,0,P|317:267|391:309,1,120.000004577637
448,336,70499,1,0,0:0:0:0:
477,337,70590,2,0,P|487:262|437:202,1,120.000004577637
269,52,70953,1,0,0:0:0:0:
283,53,71135,6,0,P|241:103|355:195,1,240.000009155274
133,334,71681,5,0,0:0:0:0:
45,240,71802,1,0,0:0:0:0:
161,123,72044,2,0,L|86:84,1,80.0000030517579
223,222,72287,2,0,L|303:264,1,80.0000030517579
293,259,72650,1,0,0:0:0:0:
90,86,72772,1,0,0:0:0:0:
424,44,73135,5,0,0:0:0:0:
316,96,73256,1,0,0:0:0:0:
388,243,73378,2,0,P|461:273|473:303,1,80.0000030517579
264,230,73620,2,0,P|232:206|193:202,1,80.0000030517579
193,202,73862,1,0,0:0:0:0:
458,270,73984,1,0,0:0:0:0:
336,364,74226,5,0,0:0:0:0:
316,363,74408,2,0,P|297:292|331:235,1,120.000004577637
407,47,74772,2,0,P|327:51|276:110,1,120.000004577637
425,326,75135,1,0,0:0:0:0:
145,152,75317,1,0,0:0:0:0:
407,47,75499,1,0,0:0:0:0:
123,36,75681,2,0,L|266:36,1,120.000004577637
103,227,76044,5,0,0:0:0:0:
103,227,76135,1,0,0:0:0:0:
103,227,76226,2,0,L|33:226,1,60.0000022888184
314,327,76408,2,0,L|406:328,1,60.0000022888184
108,114,76590,2,0,L|26:114,1,60.0000022888184
426,219,76772,2,0,L|498:219,1,60.0000022888184
77,35,76953,2,0,L|1:34,1,60.0000022888184
470,116,77135,2,0,L|577:116,1,60.0000022888184
206,47,77317,5,0,0:0:0:0:
259,304,77499,2,0,P|280:268|279:212,1,90.0000034332277
62,337,77862,5,0,0:0:0:0:
152,161,78044,1,0,0:0:0:0:
187,357,78226,2,0,P|240:335|260:295,1,95.9999970703126
84,196,78590,5,0,0:0:0:0:
255,302,78772,1,0,0:0:0:0:
316,121,78953,2,0,L|216:121,1,95.9999970703126
324,273,79317,5,0,0:0:0:0:
220,121,79499,1,0,0:0:0:0:
411,31,79681,2,0,P|427:105|398:152,1,95.9999970703126
324,272,80044,5,0,0:0:0:0:
421,121,80226,1,0,0:0:0:0:
429,338,80408,2,0,L|426:212,1,95.9999970703126
260,132,80772,5,0,0:0:0:0:
426,242,80953,1,0,0:0:0:0:
248,337,81135,2,0,L|379:338,1,95.9999970703126
163,162,81499,5,0,0:0:0:0:
248,339,81681,1,0,0:0:0:0:
41,303,81862,2,0,P|39:235|72:176,1,95.9999970703126
162,45,82226,6,0,P|207:105|202:161,1,95.9999970703126
332,141,82590,2,0,P|346:203|319:270,1,95.9999970703126
464,259,82953,2,0,P|463:318|425:362,1,95.9999970703126
186,343,83317,5,0,0:0:0:0:
339,233,83499,1,0,0:0:0:0:
203,98,83681,2,0,P|166:173|181:223,1,95.9999970703126
358,117,84044,5,0,0:0:0:0:
203,98,84226,1,0,0:0:0:0:
212,291,84408,2,0,L|117:291,1,95.9999970703126
18,111,84772,2,0,P|53:72|109:67,1,95.9999970703126
258,130,85135,5,0,0:0:0:0:
116,291,85317,1,0,0:0:0:0:
362,243,85499,2,0,P|384:189|361:134,1,95.9999970703126
262,321,85862,1,0,0:0:0:0:
375,154,86044,1,0,0:0:0:0:
463,355,86226,2,0,P|489:296|474:236,1,95.9999970703126
316,94,86590,6,0,L|316:170,1,47.9999985351563
177,85,86772,2,0,L|177:12,1,47.9999985351563
315,247,86953,2,0,L|314:318,1,47.9999985351563
94,228,87135,1,0,0:0:0:0:
94,228,87226,1,0,0:0:0:0:
94,228,87317,1,0,0:0:0:0:
409,345,87681,6,0,P|442:285|429:235,1,95.9999970703126
122,62,88044,1,0,0:0:0:0:
358,270,88226,1,0,0:0:0:0:
145,264,88408,1,0,0:0:0:0:
345,74,88590,1,0,0:0:0:0:
371,91,88953,5,0,0:0:0:0:
92,295,89135,1,0,0:0:0:0:
