osu file format v14

[General]
AudioFilename: audio.mp3
AudioLeadIn: 0
PreviewTime: 53828
Countdown: 0
SampleSet: Soft
StackLeniency: 0.7
Mode: 3
LetterboxInBreaks: 0
SpecialStyle: 0
WidescreenStoryboard: 0

[Editor]
DistanceSpacing: 1
BeatDivisor: 4
GridSize: 32
TimelineZoom: 1

[Metadata]
Title:RISE
TitleUnicode:RISE
Artist:MADKID
ArtistUnicode:MADKID
Creator:- Ly0572 -
Version:Normal
Source:
Tags:
BeatmapID:1921485
BeatmapSetID:920051

[Difficulty]
HPDrainRate:5
CircleSize:4
OverallDifficulty:5
ApproachRate:5
SliderMultiplier:1.4
SliderTickRate:1

[Events]
//Background and Video events
//Break Periods
//Storyboard Layer 0 (Background)
//Storyboard Layer 1 (Fail)
//Storyboard Layer 2 (Pass)
//Storyboard Layer 3 (Foreground)
//Storyboard Sound Samples

[TimingPoints]
465,363.636363636364,4,2,1,100,1,0
54283,-100,4,2,1,100,0,1
64465,-100,4,2,1,100,0,0
65919,-100,4,2,1,100,0,1
77555,-100,4,2,1,100,0,0

[HitObjects]
448,192,465,128,0,828:0:0:0:0:
64,192,828,1,0,0:0:0:0:
448,192,1010,128,0,1374:0:0:0:0:
64,192,1374,1,0,0:0:0:0:
448,192,1555,128,0,1919:0:0:0:0:
64,192,1919,1,0,0:0:0:0:
448,192,2101,128,0,2465:0:0:0:0:
64,192,2465,1,0,0:0:0:0:
448,192,2646,128,0,3010:0:0:0:0:
64,192,3010,128,0,3374:0:0:0:0:
448,192,3374,128,0,3737:0:0:0:0:
64,192,3737,1,0,0:0:0:0:
448,192,3919,128,0,4283:0:0:0:0:
64,192,4283,1,0,0:0:0:0:
448,192,4465,128,0,4828:0:0:0:0:
64,192,4828,1,0,0:0:0:0:
448,192,5010,128,0,5374:0:0:0:0:
64,192,5374,1,0,0:0:0:0:
448,192,5555,128,0,5919:0:0:0:0:
192,192,5919,1,8,0:0:0:0:
64,192,5919,128,0,6283:0:0:0:0:
320,192,6283,1,0,0:0:0:0:
192,192,6283,1,6,0:0:0:0:
448,192,6646,1,8,0:0:0:0:
64,192,6646,1,0,0:0:0:0:
320,192,6828,1,0,0:0:0:0:
64,192,7010,1,0,0:0:0:0:
320,192,7192,1,2,0:0:0:0:
192,192,7192,1,0,0:0:0:0:
448,192,7374,1,8,0:0:0:0:
64,192,7374,1,0,0:0:0:0:
320,192,7555,1,0,0:0:0:0:
64,192,7646,1,0,0:0:0:0:
192,192,7737,1,0,0:0:0:0:
320,192,7737,1,2,0:0:0:0:
64,192,8101,1,0,0:0:0:0:
448,192,8101,1,8,0:0:0:0:
192,192,8283,1,0,0:0:0:0:
320,192,8646,1,2,0:0:0:0:
192,192,8646,1,0,0:0:0:0:
448,192,8828,1,8,0:0:0:0:
64,192,8828,1,0,0:0:0:0:
320,192,9010,1,0,0:0:0:0:
448,192,9101,1,0,0:0:0:0:
192,192,9192,1,0,0:0:0:0:
320,192,9192,1,2,0:0:0:0:
64,192,9555,1,0,0:0:0:0:
448,192,9555,1,8,0:0:0:0:
320,192,9737,1,0,0:0:0:0:
448,192,9919,1,0,0:0:0:0:
320,192,10101,1,0,0:0:0:0:
192,192,10101,1,2,0:0:0:0:
448,192,10283,1,8,0:0:0:0:
64,192,10283,1,0,0:0:0:0:
192,192,10465,1,0,0:0:0:0:
64,192,10555,1,0,0:0:0:0:
192,192,10646,1,0,0:0:0:0:
320,192,10646,1,2,0:0:0:0:
448,192,11010,1,8,0:0:0:0:
64,192,11010,1,0,0:0:0:0:
320,192,11192,1,0,0:0:0:0:
448,192,11374,1,0,0:0:0:0:
320,192,11555,1,2,0:0:0:0:
192,192,11555,1,0,0:0:0:0:
64,192,11737,1,0,0:0:0:0:
448,192,11737,1,8,0:0:0:0:
192,192,11919,1,0,0:0:0:0:
448,192,12010,1,0,0:0:0:0:
192,192,12101,1,0,0:0:0:0:
320,192,12101,1,2,0:0:0:0:
64,192,12465,1,0,0:0:0:0:
448,192,12465,1,8,0:0:0:0:
192,192,12646,1,0,0:0:0:0:
448,192,12828,1,0,0:0:0:0:
320,192,13010,1,2,0:0:0:0:
192,192,13010,1,0,0:0:0:0:
64,192,13192,1,0,0:0:0:0:
448,192,13192,1,8,0:0:0:0:
64,192,13555,1,0,0:0:0:0:
192,192,13555,1,2,0:0:0:0:
64,192,13919,1,0,0:0:0:0:
448,192,13919,1,8,0:0:0:0:
320,192,14101,1,0,0:0:0:0:
64,192,14283,1,0,0:0:0:0:
320,192,14465,1,2,0:0:0:0:
192,192,14465,1,0,0:0:0:0:
64,192,14646,1,0,0:0:0:0:
448,192,14646,1,8,0:0:0:0:
320,192,14828,1,0,0:0:0:0:
448,192,14919,1,0,0:0:0:0:
320,192,15010,1,2,0:0:0:0:
192,192,15010,1,0,0:0:0:0:
64,192,15374,1,0,0:0:0:0:
448,192,15374,1,8,0:0:0:0:
192,192,15555,1,0,0:0:0:0:
64,192,15737,1,0,0:0:0:0:
320,192,15919,1,2,0:0:0:0:
192,192,15919,1,0,0:0:0:0:
448,192,16101,1,8,0:0:0:0:
64,192,16101,1,0,0:0:0:0:
320,192,16283,1,0,0:0:0:0:
64,192,16374,1,0,0:0:0:0:
192,192,16465,1,0,0:0:0:0:
320,192,16465,1,2,0:0:0:0:
448,192,16828,1,8,0:0:0:0:
64,192,16828,1,0,0:0:0:0:
320,192,17374,1,2,0:0:0:0:
192,192,17374,1,0,0:0:0:0:
64,192,17555,1,0,0:0:0:0:
448,192,17555,1,8,0:0:0:0:
192,192,17919,1,0,0:0:0:0:
64,192,17919,128,0,18646:0:0:0:0:
448,192,18101,1,0,0:0:0:0:
192,192,18283,1,0,0:0:0:0:
448,192,18465,1,0,0:0:0:0:
192,192,18646,1,0,0:0:0:0:
448,192,18828,1,0,0:0:0:0:
192,192,19010,1,0,0:0:0:0:
64,192,19192,1,0,0:0:0:0:
320,192,19374,1,0,0:0:0:0:
448,192,19374,128,0,20101:0:0:0:0:
64,192,19555,1,0,0:0:0:0:
320,192,19737,1,0,0:0:0:0:
64,192,19919,1,0,0:0:0:0:
320,192,20101,1,0,0:0:0:0:
64,192,20283,1,0,0:0:0:0:
320,192,20465,1,0,0:0:0:0:
192,192,20646,1,0,0:0:0:0:
448,192,20828,1,0,0:0:0:0:
320,192,20828,128,0,21555:0:0:0:0:
64,192,21010,1,0,0:0:0:0:
448,192,21192,1,0,0:0:0:0:
64,192,21374,1,0,0:0:0:0:
448,192,21555,1,0,0:0:0:0:
64,192,21737,1,0,0:0:0:0:
448,192,21919,1,0,0:0:0:0:
320,192,22101,1,0,0:0:0:0:
64,192,22283,1,0,0:0:0:0:
192,192,22283,128,0,23010:0:0:0:0:
448,192,22465,1,0,0:0:0:0:
64,192,22646,1,0,0:0:0:0:
448,192,22828,1,0,0:0:0:0:
64,192,23010,1,0,0:0:0:0:
448,192,23192,1,0,0:0:0:0:
64,192,23374,1,0,0:0:0:0:
320,192,23555,1,0,0:0:0:0:
448,192,23737,1,0,0:0:0:0:
64,192,23737,128,0,24465:0:0:0:0:
192,192,23919,1,0,0:0:0:0:
448,192,24101,1,0,0:0:0:0:
192,192,24283,1,0,0:0:0:0:
448,192,24465,1,0,0:0:0:0:
192,192,24646,1,0,0:0:0:0:
448,192,24828,1,0,0:0:0:0:
64,192,25010,1,0,0:0:0:0:
320,192,25192,1,0,0:0:0:0:
448,192,25192,128,0,25919:0:0:0:0:
64,192,25374,1,0,0:0:0:0:
320,192,25555,1,0,0:0:0:0:
64,192,25737,1,0,0:0:0:0:
320,192,25919,1,0,0:0:0:0:
64,192,26101,1,0,0:0:0:0:
320,192,26283,1,0,0:0:0:0:
192,192,26465,1,0,0:0:0:0:
448,192,26646,1,0,0:0:0:70:LR_Tom Hit Y.wav
64,192,26646,1,2,0:0:0:0:
64,192,27010,1,0,0:0:0:0:
192,192,27010,1,2,0:0:0:0:
448,192,27192,1,0,0:0:0:70:LR_Tom Hit Y.wav
320,192,27283,1,0,0:0:0:0:
192,192,27374,1,2,0:0:0:0:
64,192,27374,1,0,0:0:0:0:
64,192,27555,1,0,0:0:0:0:
448,192,27737,1,2,0:0:0:0:
320,192,27737,1,0,0:0:0:70:LR_Tom Hit Y.wav
320,192,28101,1,2,0:0:0:0:
192,192,28101,1,0,0:0:0:0:
448,192,28283,1,2,0:0:0:0:
64,192,28283,1,0,0:0:0:0:
320,192,28465,1,2,0:0:0:0:
192,192,28465,1,0,0:0:0:0:
448,192,28646,1,2,0:0:0:0:
64,192,28646,1,0,0:0:0:0:
192,192,28828,1,0,0:0:0:0:
320,192,28828,1,2,0:0:0:0:
448,192,29010,1,2,0:0:0:0:
64,192,29010,1,0,0:0:0:0:
192,192,29192,1,0,0:0:0:0:
320,192,29192,1,2,0:0:0:0:
448,192,29374,1,2,0:0:0:0:
64,192,29374,1,0,0:0:0:0:
448,192,29555,1,4,0:0:0:0:
64,192,29555,1,0,0:0:0:0:
320,192,29555,1,2,0:0:0:0:
192,192,29919,1,0,0:0:0:0:
320,192,29919,1,8,0:0:0:0:
448,192,30465,1,2,0:0:0:0:
64,192,30465,1,0,0:0:0:0:
192,192,30646,1,0,0:0:0:0:
320,192,30646,1,8,0:0:0:0:
448,192,31010,1,2,0:0:0:0:
64,192,31010,1,0,0:0:0:0:
192,192,31374,1,0,0:0:0:0:
320,192,31374,1,8,0:0:0:0:
448,192,31919,1,2,0:0:0:0:
64,192,31919,1,0,0:0:0:0:
192,192,32101,1,0,0:0:0:0:
320,192,32101,1,8,0:0:0:0:
448,192,32465,1,2,0:0:0:0:
64,192,32465,1,0,0:0:0:0:
320,192,32828,1,8,0:0:0:0:
192,192,32828,1,0,0:0:0:0:
448,192,33374,1,2,0:0:0:0:
64,192,33374,1,0,0:0:0:0:
192,192,33555,1,0,0:0:0:0:
320,192,33555,1,8,0:0:0:0:
64,192,33919,1,0,0:0:0:0:
448,192,33919,1,2,0:0:0:0:
192,192,34283,1,0,0:0:0:0:
320,192,34283,1,8,0:0:0:0:
448,192,34828,1,2,0:0:0:0:
64,192,34828,1,0,0:0:0:0:
192,192,35010,1,0,0:0:0:0:
320,192,35010,1,8,0:0:0:0:
64,192,35374,1,0,0:0:0:0:
448,192,35374,1,2,0:0:0:0:
192,192,35737,1,0,0:0:0:0:
320,192,35737,1,8,0:0:0:0:
448,192,36283,1,2,0:0:0:0:
64,192,36283,1,0,0:0:0:0:
320,192,36465,1,8,0:0:0:0:
192,192,36465,1,0,0:0:0:0:
64,192,36828,1,0,0:0:0:0:
448,192,36828,1,2,0:0:0:0:
192,192,37192,1,0,0:0:0:0:
320,192,37192,1,8,0:0:0:0:
448,192,37737,1,2,0:0:0:0:
64,192,37737,1,0,0:0:0:0:
320,192,37919,1,8,0:0:0:0:
192,192,37919,1,0,0:0:0:0:
448,192,38283,1,2,0:0:0:0:
64,192,38283,1,0,0:0:0:0:
320,192,38646,1,8,0:0:0:0:
192,192,38646,1,0,0:0:0:0:
448,192,39192,1,2,0:0:0:0:
64,192,39192,1,0,0:0:0:0:
192,192,39374,1,0,0:0:0:0:
320,192,39374,1,8,0:0:0:0:
448,192,39737,1,2,0:0:0:0:
64,192,39737,1,0,0:0:0:0:
320,192,40101,1,8,0:0:0:0:
192,192,40101,1,0,0:0:0:0:
448,192,40646,1,2,0:0:0:0:
64,192,40646,1,0,0:0:0:0:
192,192,40828,1,0,0:0:0:0:
320,192,40828,1,8,0:0:0:0:
448,192,41192,1,2,0:0:0:0:
64,192,41192,1,4,0:0:0:0:
320,192,41919,1,8,0:0:0:0:
192,192,41919,1,0,0:0:0:0:
448,192,42646,1,2,0:0:0:0:
64,192,42646,1,0,0:0:0:0:
64,192,43010,1,0,0:0:0:0:
448,192,43010,1,2,0:0:0:0:
320,192,43374,1,8,0:0:0:0:
192,192,43374,1,0,0:0:0:0:
448,192,44101,1,2,0:0:0:0:
64,192,44101,1,0,0:0:0:0:
320,192,44828,1,8,0:0:0:0:
192,192,44828,1,0,0:0:0:0:
448,192,45555,1,2,0:0:0:0:
64,192,45555,1,0,0:0:0:0:
448,192,45919,1,2,0:0:0:0:
64,192,45919,1,0,0:0:0:0:
320,192,46283,1,8,0:0:0:0:
192,192,46283,1,0,0:0:0:0:
320,192,47010,1,2,0:0:0:0:
192,192,47010,1,0,0:0:0:0:
448,192,47737,1,8,0:0:0:0:
64,192,47737,1,0,0:0:0:0:
192,192,48465,1,0,0:0:0:0:
320,192,48465,1,2,0:0:0:0:
320,192,48828,1,2,0:0:0:0:
192,192,48828,1,0,0:0:0:0:
448,192,49192,1,8,0:0:0:0:
64,192,49192,1,0,0:0:0:0:
320,192,49919,1,2,0:0:0:0:
192,192,49919,1,0,0:0:0:0:
448,192,50101,1,2,0:0:0:0:
448,192,50283,1,2,0:0:0:0:
448,192,50465,1,2,0:0:0:0:
448,192,50646,1,2,0:0:0:0:
448,192,50828,1,2,0:0:0:0:
448,192,51010,1,2,0:0:0:0:
448,192,51192,1,2,0:0:0:0:
448,192,51374,1,2,0:0:0:0:
320,192,51374,1,8,0:0:0:0:
192,192,51555,1,8,0:0:0:0:
192,192,51737,1,8,0:0:0:0:
192,192,51919,1,8,0:0:0:0:
320,192,53919,1,2,0:0:0:0:
192,192,53919,1,8,0:0:0:0:
448,192,54283,1,2,0:0:0:0:
64,192,54283,1,0,0:0:0:0:
320,192,54465,1,0,0:0:0:0:
192,192,54646,1,2,0:0:0:0:
320,192,54828,1,0,0:0:0:0:
192,192,55010,1,2,0:0:0:0:
320,192,55192,1,0,0:0:0:0:
192,192,55374,1,2,0:0:0:0:
448,192,55555,1,2,0:0:0:0:
448,192,55737,1,2,0:0:0:0:
192,192,56101,1,0,0:0:0:0:
320,192,56101,1,2,0:0:0:0:
320,192,56465,1,2,0:0:0:0:
192,192,56465,1,0,0:0:0:0:
448,192,56828,1,2,0:0:0:0:
320,192,57192,1,2,0:0:0:0:
192,192,57192,1,0,0:0:0:0:
320,192,57555,1,2,0:0:0:0:
192,192,57555,1,0,0:0:0:0:
320,192,57919,1,2,0:0:0:0:
192,192,57919,1,0,0:0:0:0:
320,192,58283,1,2,0:0:0:0:
192,192,58283,1,0,0:0:0:0:
448,192,58465,1,2,0:0:0:0:
448,192,58646,1,2,0:0:0:0:
192,192,59010,1,0,0:0:0:0:
320,192,59010,1,2,0:0:0:0:
320,192,59374,1,2,0:0:0:0:
192,192,59374,1,0,0:0:0:0:
192,192,59737,1,0,0:0:0:0:
320,192,59737,1,2,0:0:0:0:
448,192,60101,1,2,0:0:0:0:
64,192,60101,1,0,0:0:0:0:
192,192,60465,1,0,0:0:0:0:
320,192,60465,1,8,0:0:0:0:
64,192,61010,1,0,0:0:0:0:
448,192,61010,1,2,0:0:0:0:
192,192,61192,1,0,0:0:0:0:
320,192,61192,1,8,0:0:0:0:
448,192,61555,1,2,0:0:0:0:
64,192,61555,1,0,0:0:0:0:
192,192,61919,1,0,0:0:0:0:
320,192,61919,1,8,0:0:0:0:
64,192,62465,1,0,0:0:0:0:
448,192,62465,1,2,0:0:0:0:
320,192,62646,1,8,0:0:0:0:
192,192,62646,1,0,0:0:0:0:
448,192,63010,1,2,0:0:0:0:
64,192,63010,1,0,0:0:0:0:
320,192,63374,1,8,0:0:0:0:
192,192,63374,1,0,0:0:0:0:
448,192,63919,1,2,0:0:0:0:
64,192,63919,1,0,0:0:0:0:
192,192,64101,1,0,0:0:0:0:
320,192,64101,1,8,0:0:0:0:
64,192,64465,1,4,0:0:0:0:
448,192,64465,1,2,0:0:0:0:
320,192,64828,1,8,0:0:0:0:
192,192,64828,1,0,0:0:0:0:
448,192,65192,1,2,0:0:0:0:
448,192,65374,1,2,0:0:0:0:
320,192,65555,1,8,0:0:0:0:
64,192,65555,1,0,0:0:0:0:
64,192,65919,1,0,0:0:0:0:
192,192,65919,1,8,0:0:0:0:
320,192,65919,1,4,0:0:0:0:
448,192,65919,1,2,0:0:0:0:
64,192,66283,1,0,0:0:0:0:
448,192,66283,1,2,0:0:0:0:
448,192,66646,1,2,0:0:0:0:
64,192,66646,1,0,0:0:0:0:
64,192,67010,1,0,0:0:0:0:
448,192,67010,1,2,0:0:0:0:
192,192,67192,1,0,0:0:0:0:
320,192,67192,1,2,0:0:0:0:
192,192,67374,1,0,0:0:0:0:
320,192,67374,1,2,0:0:0:0:
320,192,67737,1,2,0:0:0:0:
192,192,67737,1,0,0:0:0:0:
320,192,68101,1,2,0:0:0:0:
192,192,68101,1,0,0:0:0:0:
448,192,68465,1,8,0:0:0:0:
64,192,68465,1,0,0:0:0:0:
320,192,68828,1,2,0:0:0:0:
192,192,68828,1,0,0:0:0:0:
320,192,69192,1,2,0:0:0:0:
192,192,69192,1,0,0:0:0:0:
320,192,69555,1,2,0:0:0:0:
192,192,69555,1,0,0:0:0:0:
192,192,69919,1,0,0:0:0:0:
320,192,69919,1,2,0:0:0:0:
64,192,70101,1,0,0:0:0:0:
448,192,70101,1,2,0:0:0:0:
448,192,70283,1,2,0:0:0:0:
64,192,70283,1,0,0:0:0:0:
192,192,70646,1,0,0:0:0:0:
320,192,70646,1,2,0:0:0:0:
320,192,71010,1,2,0:0:0:0:
192,192,71010,1,0,0:0:0:0:
192,192,71374,1,0,0:0:0:0:
320,192,71374,1,2,0:0:0:0:
448,192,71737,1,2,0:0:0:0:
64,192,71737,1,0,0:0:0:0:
320,192,72101,1,8,0:0:0:0:
192,192,72101,1,0,0:0:0:0:
448,192,72646,1,2,0:0:0:0:
64,192,72646,1,0,0:0:0:0:
320,192,72828,1,8,0:0:0:0:
192,192,72828,1,0,0:0:0:0:
448,192,73192,1,2,0:0:0:0:
64,192,73192,1,0,0:0:0:0:
320,192,73555,1,8,0:0:0:0:
192,192,73555,1,0,0:0:0:0:
64,192,74101,1,0,0:0:0:0:
448,192,74101,1,2,0:0:0:0:
320,192,74283,1,8,0:0:0:0:
192,192,74283,1,0,0:0:0:0:
448,192,74646,1,2,0:0:0:0:
64,192,74646,1,0,0:0:0:0:
192,192,75010,1,0,0:0:0:0:
320,192,75010,1,8,0:0:0:0:
64,192,75555,1,0,0:0:0:0:
448,192,75555,1,2,0:0:0:0:
192,192,75737,1,0,0:0:0:0:
320,192,75737,1,8,0:0:0:0:
448,192,76101,1,2,0:0:0:0:
64,192,76101,1,4,0:0:0:0:
320,192,76465,1,8,0:0:0:0:
192,192,76465,1,0,0:0:0:0:
448,192,77010,1,2,0:0:0:0:
64,192,77010,1,0,0:0:0:0:
192,192,77192,1,0,0:0:0:0:
320,192,77192,1,8,0:0:0:0:
64,192,77555,1,0,0:0:0:0:
448,192,77555,128,2,78283:0:0:0:0:
320,192,77919,1,0,0:0:0:0:
192,192,77919,1,0,0:0:0:0:
64,192,78283,128,0,79010:0:0:0:0:
320,192,78465,1,0,0:0:0:0:
192,192,78465,1,0,0:0:0:0:
192,192,78646,1,0,0:0:0:0:
448,192,78646,1,0,0:0:0:0:
448,192,79010,128,0,79737:0:0:0:0:
320,192,79010,1,0,0:0:0:0:
192,192,79374,1,0,0:0:0:0:
64,192,79374,1,0,0:0:0:0:
64,192,79737,128,0,80465:0:0:0:0:
192,192,79919,1,0,0:0:0:0:
320,192,79919,1,0,0:0:0:0:
448,192,80101,1,0,0:0:0:0:
192,192,80101,1,0,0:0:0:0:
320,192,80465,128,0,81919:0:0:0:0:
448,192,80465,1,0,0:0:0:0:
64,192,80828,1,0,0:0:0:0:
192,192,80828,1,0,0:0:0:0:
448,192,81374,1,0,0:0:0:0:
192,192,81374,1,0,0:0:0:0:
64,192,81555,1,0,0:0:0:0:
448,192,81555,1,0,0:0:0:0:
192,192,81919,128,0,82646:0:0:0:0:
64,192,82283,1,0,0:0:0:0:
448,192,82283,1,0,0:0:0:0:
448,192,82646,128,0,83374:0:0:0:0:
320,192,82828,1,0,0:0:0:0:
64,192,82828,1,0,0:0:0:0:
320,192,83010,1,0,0:0:0:0:
192,192,83010,1,0,0:0:0:0:
64,192,83374,128,0,84101:0:0:0:0:
192,192,83374,1,0,0:0:0:0:
320,192,83737,1,0,0:0:0:0:
448,192,83737,1,0,0:0:0:0:
320,192,84101,128,0,84828:0:0:0:0:
448,192,84283,1,0,0:0:0:0:
64,192,84283,1,0,0:0:0:0:
192,192,84465,1,0,0:0:0:0:
448,192,84465,1,0,0:0:0:0:
192,192,84828,128,0,85555:0:0:0:0:
64,192,84828,1,0,0:0:0:0:
448,192,85192,1,0,0:0:0:0:
320,192,85192,1,0,0:0:0:0:
320,192,85555,128,0,86283:0:0:0:0:
448,192,85737,1,0,0:0:0:0:
64,192,85737,1,0,0:0:0:0:
192,192,85919,1,0,0:0:0:0:
64,192,85919,1,0,0:0:0:0:
192,192,86283,128,0,87374:0:0:0:0:
448,192,86283,1,0,0:0:0:0:
448,192,86646,1,0,0:0:0:0:
64,192,86646,1,0,0:0:0:0:
320,192,86828,1,0,0:0:0:0:
320,192,87192,1,0,0:0:0:0:
448,192,87192,1,0,0:0:0:0:
64,192,87374,1,0,0:0:0:0:
448,192,87374,1,0,0:0:0:0:
448,192,87737,128,0,88465:0:0:0:0:
320,192,87737,1,0,0:0:0:0:
192,192,87919,1,0,0:0:0:0:
64,192,88101,1,0,0:0:0:0:
320,192,88283,1,0,0:0:0:0:
64,192,88465,128,0,89192:0:0:0:0:
192,192,88646,1,0,0:0:0:0:
320,192,88646,1,0,0:0:0:0:
448,192,88828,1,0,0:0:0:0:
192,192,88828,1,0,0:0:0:0:
