osu file format v14

[General]
AudioFilename: audio.mp3
AudioLeadIn: 0
PreviewTime: -1
Countdown: 0
SampleSet: Normal
StackLeniency: 1
Mode: 0
LetterboxInBreaks: 0
WidescreenStoryboard: 0

[Editor]
DistanceSpacing: 0.3
BeatDivisor: 4
GridSize: 32
TimelineZoom: 1

[Metadata]
Title:RISE
TitleUnicode:RISE
Artist:MADKID
ArtistUnicode:MADKID
Creator:[X] - Oracle
Version:Shield
Source:
Tags:
BeatmapID:1909136
BeatmapSetID:914005

[Difficulty]
HPDrainRate:6
CircleSize:4
OverallDifficulty:7.5
ApproachRate:9
SliderMultiplier:1.4
SliderTickRate:1

[Events]
//Background and Video events
//Break Periods
//Storyboard Layer 0 (Background)
//Storyboard Layer 1 (Fail)
//Storyboard Layer 2 (Pass)
//Storyboard Layer 3 (Foreground)
//Storyboard Sound Samples

[TimingPoints]
702,363.636363636364,4,1,0,55,1,0
6520,-66.6666666666667,4,1,0,55,0,0
18156,-83.3333333333333,4,1,0,55,0,0

[HitObjects]
283,53,702,6,0,P|343:41|402:74,1,105
410,76,1065,1,0,0:0:0:0:
356,151,1247,6,0,P|408:183|428:247,1,105
433,254,1610,1,0,0:0:0:0:
344,273,1792,6,0,P|311:325|247:345,1,105
241,349,2155,1,0,0:0:0:0:
297,185,2338,6,0,P|357:176|413:212,1,105
422,214,2701,1,0,0:0:0:0:
323,68,2883,6,0,B|282:70|282:70|263:86|263:86|208:87,1,105
197,102,3247,2,0,P|178:147|207:199,1,105
256,252,3611,6,0,P|215:296|148:304,1,105
140,308,3974,1,0,0:0:0:0:
346,218,4156,6,0,P|341:278|293:324,1,105
288,333,4519,1,0,0:0:0:0:
411,153,4702,6,0,P|439:206|425:271,1,105
426,281,5065,1,0,0:0:0:0:
199,133,5248,6,0,P|255:103|316:118,1,105
322,127,5611,1,0,0:0:0:0:
282,262,5792,2,0,B|337:270|337:270|395:238,1,105
414,220,6156,2,0,L|453:331,1,105
315,350,6520,6,0,B|230:326|230:326|185:246,1,157.500006008148
179,234,6883,1,0,0:0:0:0:
81,110,7065,1,0,0:0:0:0:
81,110,7156,1,0,0:0:0:0:
81,110,7247,2,0,P|141:98|203:120,1,105.000004005432
237,219,7611,2,0,B|188:221|143:177|143:177|125:232|90:232,1,157.500006008148
109,259,7974,6,0,B|109:318|109:318|70:364|70:364,2,105.000004005432
113,129,8520,1,0,0:0:0:0:
113,129,8611,1,0,0:0:0:0:
113,129,8702,2,0,P|179:142|243:103,1,105.000004005432
315,245,9065,2,0,B|247:197|247:197|207:225|143:213,1,157.500006008148
251,299,9429,6,0,P|319:324|379:292,2,105.000004005432
372,242,9974,1,0,0:0:0:0:
372,242,10065,1,0,0:0:0:0:
372,242,10156,2,0,P|421:276|411:349,1,105.000004005432
473,212,10520,2,0,P|407:166|289:172,1,157.500006008148
269,218,10883,6,0,B|269:286|269:286|290:327,2,105.000004005432
280,128,11429,1,0,0:0:0:0:
280,128,11520,1,0,0:0:0:0:
280,128,11611,2,0,P|336:156|342:234,1,105.000004005432
192,322,11974,2,0,B|192:260|192:260|177:220|177:220|177:132,1,157.500006008148
253,100,12338,6,0,B|253:166|253:166|271:207,2,105.000004005432
310,36,12883,1,0,0:0:0:0:
310,36,12974,1,0,0:0:0:0:
310,36,13065,2,0,B|334:79|334:79|334:155,1,105.000004005432
256,97,13429,2,0,B|221:83|204:41|204:41|199:85|170:116,1,157.500006008148
118,170,13792,6,0,B|116:237|116:237|145:304,2,105.000004005432
74,84,14338,1,0,0:0:0:0:
74,84,14429,1,0,0:0:0:0:
74,84,14520,2,0,P|132:71|196:98,1,105.000004005432
348,187,14883,2,0,P|274:203|188:179,1,157.500006008148
161,164,15247,6,0,B|160:232|160:232|178:277,2,105.000004005432
98,314,15792,1,0,0:0:0:0:
98,314,15883,1,0,0:0:0:0:
98,314,15974,2,0,B|96:274|96:274|83:245|83:245|82:205,1,105.000004005432
150,86,16338,2,0,B|211:86|211:86|240:108|240:108|346:108,1,157.500006008148
338,131,16702,6,0,B|338:198|338:198|319:240,2,105.000004005432
377,56,17247,1,0,0:0:0:0:
377,56,17338,1,0,0:0:0:0:
377,56,17429,2,0,B|411:93|411:93|412:182,1,105.000004005432
470,268,17792,2,0,B|470:202|470:202|486:170|486:170|487:93,1,157.500006008148
465,91,18156,5,0,0:0:0:0:
311,173,18338,1,0,0:0:0:0:
413,201,18520,1,0,0:0:0:0:
329,68,18702,1,0,0:0:0:0:
267,268,18883,1,0,0:0:0:0:
366,224,19065,1,0,0:0:0:0:
238,92,19247,1,0,0:0:0:0:
149,287,19429,2,0,L|232:186,1,83.9999974365235
435,202,19792,6,0,L|292:170,1,83.9999974365235
163,149,20156,1,0,0:0:0:0:
244,52,20338,1,0,0:0:0:0:
286,238,20520,1,0,0:0:0:0:
236,144,20702,1,0,0:0:0:0:
160,266,20883,2,0,L|118:338,1,83.9999974365235
127,185,21247,5,0,0:0:0:0:
247,290,21429,1,0,0:0:0:0:
283,91,21611,1,0,0:0:0:0:
209,209,21792,1,0,0:0:0:0:
138,71,21974,1,0,0:0:0:0:
320,187,22156,1,0,0:0:0:0:
147,176,22338,5,0,0:0:0:0:
310,29,22520,1,0,0:0:0:0:
362,273,22702,2,0,L|309:147,1,83.9999974365235
239,101,23065,2,0,L|214:222,1,83.9999974365235
91,289,23429,2,0,L|206:262,1,83.9999974365235
357,231,23792,1,0,0:0:0:0:
127,172,23974,1,0,0:0:0:0:
196,37,24156,5,0,0:0:0:0:
127,172,24338,1,0,0:0:0:0:
296,94,24520,1,0,0:0:0:0:
127,172,24702,1,0,0:0:0:0:
289,223,24883,1,0,0:0:0:0:
127,172,25065,1,0,0:0:0:0:
239,290,25247,2,0,L|303:202,1,83.9999974365235
331,139,25611,5,0,0:0:0:0:
397,281,25792,1,0,0:0:0:0:
470,67,25974,1,0,0:0:0:0:
288,222,26156,2,0,B|339:222|339:222|367:239|367:239|435:239,2,125.999996154785
143,151,26883,2,0,B|175:173|224:167|224:167|192:212|200:235,1,125.999996154785
202,237,27247,1,0,0:0:0:0:
301,96,27429,1,0,0:0:0:0:
301,96,27611,2,0,P|367:106|417:54,1,125.999996154785
427,38,27974,1,0,0:0:0:0:
480,172,28156,1,0,0:0:0:0:
366,292,28338,1,0,0:0:0:0:
309,145,28520,1,0,0:0:0:0:
235,312,28702,1,0,0:0:0:0:
91,194,28883,1,0,0:0:0:0:
27,314,29065,1,0,0:0:0:0:
215,225,29247,1,0,0:0:0:0:
71,95,29429,1,0,0:0:0:0:
