osu file format v14

[General]
AudioFilename: audio.mp3
AudioLeadIn: 0
PreviewTime: 105883
Countdown: 0
SampleSet: Soft
StackLeniency: 0.3
Mode: 0
LetterboxInBreaks: 0
WidescreenStoryboard: 1

[Editor]
Bookmarks: 51780,66056,92538,107849,119124,125435,132573
DistanceSpacing: 1
BeatDivisor: 2
GridSize: 8
TimelineZoom: 0.6999998

[Metadata]
Title:LEZHAT' + SOSAT'
TitleUnicode:ЛЕЖАТЬ+СОСАТЬ
Artist:MADEVIL
ArtistUnicode:MADEVIL
Creator:Testo
Version:Normich
Source:
Tags:Youtube Arthas Evil EvilArthas Neilperry russian papich папич
BeatmapID:1636152
BeatmapSetID:777949

[Difficulty]
HPDrainRate:3
CircleSize:3
OverallDifficulty:4
ApproachRate:5
SliderMultiplier:1.2
SliderTickRate:1

[Events]
//Background and Video events
0,0,"papich.jpg",0,0
//Break Periods
2,26738,31959
2,92531,104667
//Storyboard Layer 0 (Background)
//Storyboard Layer 1 (Fail)
//Storyboard Layer 2 (Pass)
//Storyboard Layer 3 (Foreground)
//Storyboard Sound Samples

[TimingPoints]
56,413.793103448276,4,2,1,50,1,0
13297,-100,4,2,1,60,0,1
26538,-100,4,2,1,50,0,0
39780,-100,4,2,1,50,0,0
46400,-100,4,2,1,50,0,0
47642,-100,4,2,1,50,0,0
53021,-100,4,2,1,55,0,0
66262,-100,4,2,1,60,0,1
79504,-100,4,2,1,60,0,1
92745,-100,4,2,1,40,0,0
105987,-100,4,2,1,50,0,0
119031,413.793103448276,4,2,1,50,1,0
119237,413.793103448276,4,2,1,60,1,1
132478,-100,4,2,1,60,0,0
133307,-100,4,2,1,50,0,0
144066,-100,4,2,1,35,0,0
150686,-100,4,2,1,15,0,0

[Colours]
Combo1 : 185,0,37
Combo2 : 0,149,74
Combo3 : 73,108,129
Combo4 : 128,128,255
Combo5 : 145,66,68

[HitObjects]
256,192,56,12,8,1711,3:0:0:0:
256,192,3366,12,8,5021,3:0:0:0:
116,111,6676,6,0,L|235:104,1,120,8|8,3:0|0:0,0:0:0:0:
263,222,7504,2,0,L|143:228,1,120,8|8,3:0|0:0,0:0:0:0:
35,175,8331,2,0,P|17:232|39:294,2,120,8|8|8,3:0|3:2|3:0,0:0:0:0:
119,89,9573,1,8,0:0:0:0:
238,94,9987,6,0,P|293:104|363:72,1,120,8|8,3:0|3:2,0:0:0:0:
409,186,10814,2,0,P|372:228|365:305,1,120,8|8,3:0|0:0,0:0:0:0:
242,283,11642,2,0,P|223:230|160:185,2,120,8|8|8,3:0|3:2|3:0,0:0:0:0:
163,374,12883,1,8,3:2:0:0:
59,313,13297,6,0,P|69:254|28:127,1,180,12|2,3:0|3:0,0:0:0:0:
6,88,14124,2,0,L|156:93,1,120,8|8,3:0|0:0,0:0:0:0:
232,147,14952,2,0,L|351:143,1,120,8|8,3:0|0:0,0:0:0:0:
412,141,15573,1,4,3:0:0:0:
412,141,15780,1,8,3:0:0:0:
446,255,16193,2,0,L|430:330,1,60,8|4,0:0|3:0,0:0:0:0:
380,341,16607,6,0,L|227:334,1,120,8|8,3:0|0:0,0:0:0:0:
174,250,17435,2,0,L|327:243,1,120,8|8,3:0|0:0,0:0:0:0:
354,244,18056,1,4,3:0:0:0:
354,244,18262,1,8,3:0:0:0:
391,129,18676,1,8,0:0:0:0:
282,88,19090,1,8,3:0:0:0:
282,88,19297,2,2,L|293:18,2,60,10|10|10,3:0|3:2|3:0,0:0:0:0:
235,126,19918,6,0,P|166:109|49:157,1,180,12|2,3:0|3:0,0:0:0:0:
39,196,20745,2,0,P|46:255|34:346,1,120,8|8,3:0|0:0,0:0:0:0:
155,352,21573,2,0,P|213:340|274:348,1,120,8|8,3:0|0:0,0:0:0:0:
329,368,22194,1,4,3:0:0:0:
329,368,22401,1,8,3:0:0:0:
416,285,22814,2,0,P|410:245|410:223,1,60,8|4,0:0|3:0,0:0:0:0:
418,165,23228,6,0,P|360:177|301:170,1,120,8|8,3:0|0:0,0:0:0:0:
209,249,24056,2,0,P|150:236|91:243,1,120,8|8,3:0|0:0,0:0:0:0:
42,279,24677,1,4,3:0:0:0:
42,279,24883,1,8,3:0:0:0:
8,163,25297,2,0,P|8:126|24:81,1,60,8|4,0:0|3:0,0:0:0:0:
66,75,25711,1,8,3:0:0:0:
66,75,25918,2,0,L|136:64,2,60,0|8|0,3:0|0:0|3:0,0:0:0:0:
13,46,26538,5,12,3:0:0:0:
215,61,33159,6,0,L|224:203,1,120,12|8,3:0|0:0,0:0:0:0:
289,281,33987,2,0,L|285:340,2,60,8|0|8,3:0|0:0|0:0,0:0:0:0:
342,173,34814,2,0,L|200:182,1,120,8|8,3:0|0:0,0:0:0:0:
122,248,35642,2,0,L|62:244,2,60,8|0|8,3:0|0:0|0:0,0:0:0:0:
256,192,36469,12,8,38952,3:0:0:0:
125,109,39780,6,0,P|187:114|248:95,1,120,12|8,3:0|0:0,0:0:0:0:
337,171,40607,2,0,P|396:165|453:181,1,120,8|8,3:0|0:0,0:0:0:0:
465,301,41435,2,0,P|407:317|348:311,1,120,10|8,3:0|0:0,0:0:0:0:
231,282,42262,2,0,L|146:288,2,60,10|0|8,3:0|3:0|0:0,0:0:0:0:
305,187,43090,6,0,L|310:46,1,120,10|8,3:0|0:0,0:0:0:0:
194,32,43918,2,0,L|196:91,2,60,8|0|8,3:0|3:0|0:0,0:0:0:0:
79,68,44745,2,0,L|74:209,1,120,10|8,3:0|0:0,0:0:0:0:
135,291,45573,2,0,P|170:297|203:292,1,60,8|0,3:0|3:0,0:0:0:0:
238,252,45987,2,0,P|273:246|306:251,1,60,8|0,0:0|3:0,0:0:0:0:
350,275,46400,6,2,B|404:269|404:269|430:278|430:278|491:271,2,120,6|10|10,3:0|0:0|3:0,1:1:0:0:
251,343,47642,1,8,0:0:0:0:
192,238,48056,2,0,P|179:179|192:121,1,120,8|8,3:0|0:0,0:0:0:0:
312,119,48883,2,0,P|324:177|312:235,1,120,8|8,3:0|0:0,0:0:0:0:
256,192,49711,12,8,52193,3:0:0:0:
93,249,53021,6,0,P|171:284|319:178,1,240,12|8,3:0|3:0,0:0:0:0:
356,113,54262,1,10,3:2:0:0:
468,153,54676,2,0,L|477:291,1,120,10|8,3:0|3:2,0:0:0:0:
445,325,55297,1,0,3:0:0:0:
445,325,55504,1,12,3:0:0:0:
329,293,55918,1,8,0:0:0:0:
329,293,56124,1,0,3:0:0:0:
329,293,56331,6,0,P|278:333|120:236,1,240,12|8,3:0|3:0,0:0:0:0:
90,161,57573,2,0,L|103:92,1,60,10|2,3:2|3:0,0:0:0:0:
127,48,57987,2,0,L|264:42,1,120,10|10,3:0|3:2,0:0:0:0:
316,140,58814,2,0,L|196:145,1,120,12|8,3:0|0:0,0:0:0:0:
140,167,59435,1,0,3:0:0:0:
140,167,59642,6,0,P|84:257|143:375,1,240,12|0,3:0|0:0,0:0:0:0:
255,370,60883,1,10,3:2:0:0:
351,298,61297,2,0,L|334:170,1,120,10|8,3:0|3:2,0:0:0:0:
320,121,61918,1,0,3:0:0:0:
320,121,62125,1,12,3:0:0:0:
201,105,62538,1,8,0:0:0:0:
201,105,62745,1,0,3:0:0:0:
201,105,62952,6,0,L|176:343,1,240,12|0,3:0|0:0,0:0:0:0:
291,376,64193,1,10,3:2:0:0:
293,256,64607,2,0,L|288:126,1,120,10|8,3:0|3:2,0:0:0:0:
208,48,65435,1,12,3:0:0:0:
90,74,65849,2,0,P|80:103|80:141,1,60,8|0,0:0|3:0,0:0:0:0:
103,188,66262,6,0,P|189:201|281:127,1,180,12|2,3:0|3:0,0:0:0:0:
305,109,67090,2,0,P|364:103|422:116,1,120,8|8,3:0|0:0,0:0:0:0:
422,236,67918,2,0,P|363:249|304:243,1,120,8|8,3:0|0:0,0:0:0:0:
251,215,68538,1,4,3:0:0:0:
251,215,68745,1,8,3:0:0:0:
144,268,69159,2,0,L|160:343,1,60,8|4,0:0|3:0,0:0:0:0:
210,353,69573,6,0,L|329:347,1,120,8|8,3:0|0:0,0:0:0:0:
409,256,70400,2,0,L|414:136,1,120,8|8,3:0|0:0,0:0:0:0:
420,76,71021,1,4,3:0:0:0:
420,76,71228,1,8,3:0:0:0:
316,135,71642,1,8,0:0:0:0:
201,153,72055,1,8,3:0:0:0:
201,153,72262,2,2,L|212:223,2,60,10|10|10,3:0|3:2|3:0,0:0:0:0:
171,100,72883,6,0,P|98:74|-15:131,1,180,12|2,3:0|3:0,0:0:0:0:
2,167,73710,2,0,P|15:224|-3:317,1,120,8|8,3:0|0:0,0:0:0:0:
114,342,74538,2,0,P|173:334|231:346,1,120,8|8,3:0|0:0,0:0:0:0:
289,365,75159,1,4,3:0:0:0:
289,365,75366,1,8,3:0:0:0:
353,263,75780,2,0,P|313:269|291:269,1,60,8|4,0:0|3:0,0:0:0:0:
239,241,76193,6,0,P|231:181|243:123,1,120,8|8,3:0|0:0,0:0:0:0:
363,136,77021,2,0,P|375:194|367:253,1,120,8|8,3:0|0:0,0:0:0:0:
343,309,77642,1,4,3:0:0:0:
343,309,77848,1,8,3:0:0:0:
241,373,78262,1,8,0:0:0:0:
126,342,78676,1,8,3:0:0:0:
126,342,78883,2,0,L|56:353,2,60,4|8|4,3:2|0:0|3:2,0:0:0:0:
150,286,79504,6,0,L|160:147,1,120,12|8,3:0|0:0,0:0:0:0:
258,100,80331,2,0,L|249:219,1,120,8|8,3:0|0:0,0:0:0:0:
282,269,80952,1,0,3:0:0:0:
282,269,81159,2,0,P|343:264|406:289,2,120,8|8|10,3:0|0:0|3:0,0:0:0:0:
169,311,82400,1,8,0:0:0:0:
68,245,82814,6,0,P|75:179|64:104,1,120,8|8,3:0|0:0,0:0:0:0:
45,70,83435,1,4,3:0:0:0:
45,70,83642,1,8,3:0:0:0:
156,24,84056,1,8,0:0:0:0:
247,100,84469,2,0,P|313:118|384:95,1,120,8|8,3:0|0:0,0:0:0:0:
413,75,85090,1,4,3:0:0:0:
413,75,85297,1,8,3:0:0:0:
468,181,85711,2,0,L|462:258,1,60,8|2,0:0|3:0,0:0:0:0:
420,282,86124,6,0,P|348:296|275:278,1,120,12|8,3:0|0:0,0:0:0:0:
215,206,86952,2,0,P|143:192|70:210,1,120,8|8,3:0|0:0,0:0:0:0:
21,292,87780,2,0,P|64:243|46:69,1,240,8|8,3:0|3:0,0:0:0:0:
168,43,89021,2,0,L|247:49,1,60,8|0,0:0|3:0,0:0:0:0:
283,70,89435,6,0,P|254:183|315:283,1,240,8|8,3:0|3:0,0:0:0:0:
222,359,90676,2,0,L|143:353,1,60,8|0,0:0|3:0,0:0:0:0:
107,332,91090,2,0,P|135:218|74:118,1,240,8|8,3:0|3:0,0:0:0:0:
149,24,92331,1,8,0:0:0:0:
40,180,105987,6,0,B|268:79|258:281|501:153,1,480,6|2,0:0|0:0,0:0:0:0:
256,192,109090,12,0,110952,0:0:0:0:
260,179,111780,5,8,1:0:0:0:
256,192,112607,12,0,114262,0:0:0:0:
256,189,115090,5,2,0:0:0:0:
256,192,115918,12,0,118400,0:0:0:0:
477,352,119236,6,0,P|388:352|318:298,1,180,12|2,3:0|3:0,0:0:0:0:
280,252,120064,2,0,L|160:248,1,120,8|8,3:0|1:0,0:0:0:0:
113,136,120892,2,0,L|232:132,1,120,8|8,3:0|1:0,0:0:0:0:
293,130,121513,1,4,3:0:0:0:
293,130,121720,1,8,3:0:0:0:
385,205,122133,2,0,P|386:240|396:283,1,60,8|4,1:0|3:0,0:0:0:0:
405,322,122547,6,0,P|350:306|252:315,1,120,12|8,3:0|1:0,0:0:0:0:
200,223,123375,2,0,P|241:183|282:93,1,120,8|8,3:0|1:0,0:0:0:0:
297,74,123996,1,4,3:0:0:0:
297,74,124202,1,8,3:0:0:0:
391,148,124616,2,0,P|391:185|407:230,1,60,8|4,1:0|3:0,0:0:0:0:
431,256,125030,1,8,3:0:0:0:
431,256,125237,2,2,L|501:267,2,60,10|10|10,3:0|1:2|3:0,0:0:0:0:
382,291,125858,6,0,P|313:308|196:260,1,180,12|2,3:0|3:0,0:0:0:0:
166,235,126685,2,0,P|170:175|163:115,1,120,8|8,3:0|1:0,0:0:0:0:
259,42,127513,2,0,P|318:46|378:39,1,120,8|8,3:0|1:0,0:0:0:0:
438,32,128134,1,4,3:0:0:0:
438,32,128341,1,8,3:0:0:0:
468,147,128754,2,0,P|468:187|474:209,1,60,8|4,1:0|3:0,0:0:0:0:
441,257,129168,6,0,P|386:244|324:252,1,120,12|8,3:0|1:0,0:0:0:0:
243,342,129996,2,0,P|188:355|126:347,1,120,8|8,3:0|1:0,0:0:0:0:
80,307,130617,1,4,3:0:0:0:
80,307,130823,1,8,3:0:0:0:
18,203,131237,2,0,P|17:169|34:121,1,60,8|4,1:0|3:0,0:0:0:0:
50,90,131651,1,8,3:0:0:0:
50,90,131858,2,0,L|120:79,2,60,0|8|0,3:0|1:0|3:0,0:0:0:0:
6,48,132478,5,12,3:0:0:0:
73,278,133306,1,8,1:0:0:0:
73,278,134133,1,0,0:0:0:0:
301,204,134961,1,8,1:0:0:0:
301,204,135789,1,0,0:0:0:0:
93,83,136616,1,8,1:0:0:0:
93,83,138271,5,8,1:0:0:0:
93,83,139099,1,2,0:0:0:0:
332,70,139927,1,8,1:0:0:0:
332,70,140754,1,0,0:0:0:0:
278,304,141582,1,8,1:0:0:0:
278,304,142409,1,0,0:0:0:0:
48,234,143237,1,8,1:0:0:0:
256,192,144064,12,0,150684,0:0:0:0:
