osu file format v14

[General]
AudioFilename: audio.mp3
AudioLeadIn: 0
PreviewTime: 105883
Countdown: 0
SampleSet: Soft
StackLeniency: 0.3
Mode: 0
LetterboxInBreaks: 0
WidescreenStoryboard: 0

[Editor]
Bookmarks: 51780,66056,79504,92538,119124,125435,132573
DistanceSpacing: 0.3
BeatDivisor: 4
GridSize: 8
TimelineZoom: 1.5

[Metadata]
Title:LEZHAT' + SOSAT'
TitleUnicode:ЛЕЖАТЬ+СОСАТЬ
Artist:MADEVIL
ArtistUnicode:MADEVIL
Creator:Testo
Version:Insanich
Source:
Tags:Youtube Arthas Evil EvilArthas Neilperry russian papich папич
BeatmapID:1634119
BeatmapSetID:777949

[Difficulty]
HPDrainRate:6
CircleSize:4
OverallDifficulty:8
ApproachRate:8.3
SliderMultiplier:2.4
SliderTickRate:1

[Events]
//Background and Video events
0,0,"papich.jpg",0,0
//Break Periods
2,26738,31834
//Storyboard Layer 0 (Background)
//Storyboard Layer 1 (Fail)
//Storyboard Layer 2 (Pass)
//Storyboard Layer 3 (Foreground)
//Storyboard Sound Samples

[TimingPoints]
56,413.793103448276,4,2,1,50,1,0
56,-125,4,2,1,50,0,0
13297,-100,4,2,1,60,0,1
26538,-125,4,2,1,50,0,0
39780,-125,4,2,1,50,0,0
46400,-62.5,4,2,1,50,0,0
47642,-125,4,2,1,50,0,0
53021,-125,4,2,1,55,0,0
66262,-100,4,2,1,60,0,1
79504,-100,4,2,1,60,0,1
92745,-500,4,2,1,40,0,0
105987,-500,4,2,1,50,0,0
119031,413.793103448276,4,2,1,50,1,0
119237,413.793103448276,4,2,1,60,1,1
132478,-100,4,2,1,60,0,0
133305,-500,4,2,1,50,0,0
145721,-500,4,2,1,35,0,0
150686,-500,4,2,1,15,0,0

[Colours]
Combo1 : 185,0,37
Combo2 : 0,149,74
Combo3 : 73,108,129
Combo4 : 128,128,255
Combo5 : 145,66,68

[HitObjects]
152,79,56,6,0,B|113:176|185:169|143:264,3,192,8|8|8|8,3:0|0:0|3:0|0:0,0:0:0:0:
354,262,1711,6,0,B|312:166|384:173|345:76,3,192,8|8|8|8,3:0|0:0|3:0|0:0,0:0:0:0:
283,343,3159,5,0,3:0:0:0:
283,343,3262,1,0,3:0:0:0:
283,343,3366,2,0,P|197:303|105:322,3,192,8|8|8|8,3:0|0:0|3:0|0:0,0:0:0:0:
335,152,5021,6,0,P|427:171|512:131,3,192,8|8|8|8,3:0|0:0|3:0|0:0,0:0:0:0:
304,61,6469,5,0,3:0:0:0:
304,61,6573,1,0,3:0:0:0:
304,61,6676,2,0,L|172:73,1,96,8|0,3:0|0:0,0:0:0:0:
239,160,7090,2,0,L|334:151,1,96,8|0,0:0|0:0,0:0:0:0:
141,147,7504,2,0,L|9:159,1,96,8|0,3:0|0:0,0:0:0:0:
76,246,7918,2,0,L|171:237,1,96,8|0,0:0|0:0,0:0:0:0:
277,279,8331,5,8,3:0:0:0:
171,237,8538,1,0,3:0:0:0:
169,251,8641,1,0,3:0:0:0:
167,265,8744,1,8,3:2:0:0:
277,279,8952,1,0,3:0:0:0:
275,265,9055,1,0,3:0:0:0:
273,251,9158,1,8,3:0:0:0:
200,113,9366,2,0,L|189:179,1,48,0|0,0:0|0:0,0:0:0:0:
329,158,9573,2,0,L|310:44,1,96,8|0,0:0|0:0,0:0:0:0:
415,230,9987,5,8,3:0:0:0:
415,230,10090,1,0,3:0:0:0:
313,263,10297,1,0,3:0:0:0:
313,263,10400,1,8,3:2:0:0:
221,212,10607,2,0,L|160:220,1,48,0|0,3:0|0:0,0:0:0:0:
101,277,10814,2,0,P|54:271|0:237,1,96,8|0,3:0|0:0,0:0:0:0:
164,367,11228,2,0,P|192:329|249:299,1,96,8|0,0:0|0:0,0:0:0:0:
366,277,11642,5,8,3:0:0:0:
366,277,11745,1,0,3:0:0:0:
293,190,11952,1,0,3:0:0:0:
293,190,12056,1,8,3:2:0:0:
395,117,12262,2,0,L|448:129,1,48,0|0,3:0|0:0,0:0:0:0:
303,81,12469,2,0,P|273:91|194:89,1,96,8|0,3:0|0:0,0:0:0:0:
89,138,12883,1,8,3:2:0:0:
91,161,12986,1,0,3:0:0:0:
93,185,13089,1,0,3:0:0:0:
95,209,13193,1,0,3:0:0:0:
97,233,13297,6,0,P|155:266|297:174,1,240,12|8,3:0|0:0,0:0:0:0:
471,68,13918,1,2,3:0:0:0:
401,124,14124,2,0,P|394:173|404:261,1,120,8|0,3:0|0:0,0:0:0:0:
471,68,14538,1,8,0:0:0:0:
312,126,14745,5,2,3:0:0:0:
172,50,14952,2,0,B|135:187|226:154|184:283,1,240,8|8,3:0|0:0,0:0:0:0:
311,358,15573,6,0,P|276:337|245:334,1,60,4|0,3:0|0:0,0:0:0:0:
403,334,15780,2,0,P|391:275|439:122,1,180,8|0,3:0|0:0,0:0:0:0:
470,105,16193,1,8,0:0:0:0:
266,35,16400,6,0,P|230:25|179:34,1,60,4|0,3:0|0:0,0:0:0:0:
124,187,16607,2,0,P|232:145|266:35,1,240,8|8,3:0|0:0,0:0:0:0:
43,136,17228,5,2,3:0:0:0:
170,284,17435,2,0,P|229:290|287:275,1,120,8|0,3:0|0:0,0:0:0:0:
42,255,17849,1,8,0:0:0:0:
196,83,18056,6,0,L|190:157,1,60,4|0,3:0|0:0,0:0:0:0:
287,275,18262,2,0,B|277:174|277:174|296:137|296:137|286:30,1,240,8|8,3:0|0:0,0:0:0:0:
198,251,18883,6,0,L|192:325,1,60,4|0,3:0|0:0,0:0:0:0:
369,193,19090,1,8,3:0:0:0:
154,180,19297,6,2,P|126:206|110:230,1,60,10|2,3:0|0:0,0:0:0:0:
189,83,19504,2,2,P|151:91|125:104,1,60,10|2,3:2|0:0,0:0:0:0:
267,16,19711,2,2,P|230:4|201:2,1,60,10|2,3:0|0:0,0:0:0:0:
428,55,19918,6,0,P|396:169|420:286,1,240,12|8,3:0|0:0,0:0:0:0:
211,361,20538,1,2,3:0:0:0:
261,287,20745,2,0,P|273:249|256:157,1,120,8|0,3:0|0:0,0:0:0:0:
211,361,21159,1,8,0:0:0:0:
366,252,21366,5,2,3:0:0:0:
163,137,21573,2,0,P|226:156|340:38,1,240,8|8,3:0|0:0,0:0:0:0:
78,176,22193,6,0,P|66:215|67:247,1,60,4|0,3:0|0:0,0:0:0:0:
282,341,22400,2,0,P|216:287|89:293,1,180,8|0,3:0|0:0,0:0:0:0:
52,307,22814,1,8,0:0:0:0:
281,226,23021,6,0,P|313:218|352:171,1,60,4|0,3:0|0:0,0:0:0:0:
327,20,23228,2,0,P|257:111|305:251,1,240,8|8,3:0|0:0,0:0:0:0:
411,330,23849,1,2,3:0:0:0:
317,368,24056,2,0,P|246:378|169:343,1,120,8|0,3:0|0:0,0:0:0:0:
440,237,24469,1,8,0:0:0:0:
357,128,24676,6,0,L|366:198,1,60,4|0,3:0|0:0,0:0:0:0:
460,116,24883,2,0,B|337:124|372:44|237:44,1,240,8|8,3:0|0:0,0:0:0:0:
129,125,25504,6,0,P|161:123|196:113,1,60,4|0,3:0|0:0,0:0:0:0:
51,78,25711,1,8,3:0:0:0:
131,216,25918,2,0,P|185:212|264:173,2,120,0|8|0,3:0|0:0|3:0,0:0:0:0:
12,0,26538,5,12,3:0:0:0:
367,93,32538,5,2,3:0:0:0:
355,199,32745,1,0,3:0:0:0:
355,199,32849,1,0,3:0:0:0:
355,199,32952,1,0,3:0:0:0:
199,98,33159,6,0,P|256:59|379:111,1,192,12|8,3:0|0:0,0:0:0:0:
433,158,33780,1,0,3:0:0:0:
281,254,33987,2,0,L|287:152,1,96,8|0,3:0|0:0,0:0:0:0:
382,323,34400,2,0,L|376:221,1,96,8|0,0:0|0:0,0:0:0:0:
433,158,34814,6,0,P|378:209|283:133,1,192,8|8,3:0|0:0,0:0:0:0:
265,67,35435,1,0,3:0:0:0:
159,147,35642,2,0,P|118:151|54:118,1,96,8|0,3:0|0:0,0:0:0:0:
154,293,36056,2,0,P|171:255|231:216,1,96,8|0,0:0|0:0,0:0:0:0:
395,240,36469,5,8,3:0:0:0:
316,315,36676,1,0,3:0:0:0:
317,300,36779,1,0,3:0:0:0:
319,286,36883,1,8,3:2:0:0:
310,202,37090,1,0,3:0:0:0:
391,144,37297,2,0,L|395:249,1,96,8|0,3:0|0:0,0:0:0:0:
227,243,37711,2,0,L|230:147,1,96,8|0,0:0|0:0,0:0:0:0:
153,310,38124,6,0,P|137:322|-10:268,2,192,8|8|8,3:0|0:0|3:0,0:0:0:0:
227,243,39159,1,0,3:0:0:0:
404,349,39366,5,8,0:0:0:0:
376,255,39573,1,0,3:0:0:0:
430,158,39780,2,0,L|403:355,1,192,12|8,3:0|0:0,0:0:0:0:
307,185,40400,1,0,3:0:0:0:
321,91,40607,2,0,L|307:186,1,96,8|0,3:0|0:0,0:0:0:0:
212,255,41021,2,0,L|198:159,1,96,8|0,0:0|0:0,0:0:0:0:
289,290,41435,5,10,3:0:0:0:
175,336,41642,1,0,3:0:0:0:
334,359,41849,1,8,0:0:0:0:
123,274,42056,1,0,3:0:0:0:
251,382,42262,5,10,3:0:0:0:
364,191,42469,2,0,P|379:242|370:309,1,96,0|8,3:0|0:0,0:0:0:0:
251,127,42883,1,0,3:0:0:0:
400,90,43090,5,10,3:0:0:0:
265,216,43297,1,0,3:0:0:0:
335,32,43504,1,8,0:0:0:0:
355,224,43711,5,2,3:0:0:0:
176,135,43918,1,8,3:0:0:0:
189,335,44124,2,0,P|246:334|300:303,1,96,0|8,3:0|0:0,0:0:0:0:
95,279,44538,1,0,3:0:0:0:
174,235,44745,5,10,3:0:0:0:
102,368,44952,1,0,3:0:0:0:
13,247,45159,1,8,0:0:0:0:
85,114,45366,5,2,3:0:0:0:
242,35,45573,1,8,3:0:0:0:
408,90,45780,2,0,L|413:195,2,96,0|8|0,3:0|0:0|3:0,0:0:0:0:
306,312,46400,6,2,L|308:264,4,48,14|2|2|2|2,0:0|0:0|0:0|0:0|0:0,1:1:0:0:
139,213,46814,2,2,L|141:260,4,48,10|2|2|2|2,0:0|0:0|0:0|0:0|0:0,1:1:0:0:
308,180,47228,2,2,L|310:132,4,48,10|2|2|2|2,0:0|0:0|0:0|0:0|0:0,1:1:0:0:
155,356,47642,5,8,0:0:0:0:
228,214,47849,1,0,3:0:0:0:
43,249,48056,2,0,P|136:216|251:218,1,192,8|8,3:0|0:0,0:0:0:0:
386,189,48676,1,0,3:0:0:0:
315,132,48883,2,0,P|352:147|390:199,1,96,8|0,3:0|0:0,0:0:0:0:
424,32,49297,2,0,P|448:63|455:127,1,96,8|0,0:0|0:0,0:0:0:0:
379,285,49711,6,0,L|388:164,1,96,8|0,3:0|0:0,0:0:0:0:
298,340,50124,2,0,L|85:358,2,192,8|8|8,0:0|3:0|0:0,0:0:0:0:
379,285,51159,1,0,3:0:0:0:
211,77,51366,6,0,B|176:167|274:243|274:243|377:171|348:79,1,384,8|8,3:0|3:0,0:0:0:0:
284,18,52400,5,0,3:0:0:0:
108,122,52607,1,8,0:0:0:0:
181,315,52814,5,0,3:0:0:0:
186,267,52917,1,0,3:0:0:0:
192,219,53021,2,0,P|135:210|76:229,1,96,12|0,3:0|0:0,0:0:0:0:
272,272,53435,1,8,0:0:0:0:
200,123,53642,5,2,3:0:0:0:
223,127,53745,1,2,3:0:0:0:
307,184,53952,1,2,3:0:0:0:
280,188,54056,1,2,3:0:0:0:
365,116,54262,5,10,3:2:0:0:
388,117,54365,1,2,3:0:0:0:
412,119,54468,1,2,3:0:0:0:
436,121,54572,1,2,3:0:0:0:
460,123,54675,1,10,3:0:0:0:
507,199,54883,5,0,3:0:0:0:
419,259,55090,1,8,3:2:0:0:
421,235,55193,1,0,3:0:0:0:
424,211,55297,1,0,3:0:0:0:
368,322,55504,6,0,P|297:344|165:273,1,192,12|8,3:0|0:0,0:0:0:0:
122,144,56124,1,0,3:0:0:0:
137,188,56227,1,0,3:0:0:0:
130,236,56331,6,0,P|84:246|37:236,1,96,12|0,3:0|0:0,0:0:0:0:
207,137,56745,1,8,0:0:0:0:
241,263,56952,5,2,3:0:0:0:
246,237,57056,1,2,3:0:0:0:
207,137,57262,1,2,3:0:0:0:
212,162,57366,1,2,3:0:0:0:
269,68,57573,5,10,3:2:0:0:
248,55,57676,1,2,3:0:0:0:
225,47,57779,1,2,3:0:0:0:
202,46,57883,1,2,3:0:0:0:
178,50,57986,1,10,3:0:0:0:
111,121,58193,5,0,0:0:0:0:
198,188,58400,1,10,3:2:0:0:
205,165,58503,1,0,3:0:0:0:
207,141,58606,1,0,3:0:0:0:
106,262,58814,6,0,B|215:266|184:213|288:217,1,192,12|8,3:0|0:0,0:0:0:0:
448,287,59435,1,0,3:0:0:0:
430,242,59538,1,0,3:0:0:0:
436,195,59642,6,0,P|446:157|423:83,1,96,12|0,3:0|0:0,0:0:0:0:
301,40,60056,1,8,0:0:0:0:
241,166,60262,5,2,3:0:0:0:
265,159,60366,1,2,3:0:0:0:
351,223,60573,1,2,3:0:0:0:
327,216,60677,1,2,3:0:0:0:
238,352,60883,5,10,3:2:0:0:
241,328,60986,1,2,3:0:0:0:
244,304,61089,1,2,3:0:0:0:
247,280,61193,1,2,3:0:0:0:
251,256,61296,1,10,3:0:0:0:
323,375,61504,5,0,3:0:0:0:
151,347,61711,1,8,3:2:0:0:
154,323,61814,1,0,3:0:0:0:
157,299,61917,1,0,3:0:0:0:
331,198,62124,6,0,P|295:223|145:158,1,192,12|8,3:0|0:0,0:0:0:0:
376,82,62745,1,0,3:0:0:0:
423,87,62848,1,0,3:0:0:0:
471,92,62952,6,0,L|482:203,1,96,12|0,3:0|0:0,0:0:0:0:
499,296,63366,1,8,0:0:0:0:
366,284,63573,5,2,3:0:0:0:
391,279,63676,1,2,3:0:0:0:
284,356,63883,1,2,3:0:0:0:
259,351,63986,1,2,3:0:0:0:
272,175,64193,5,10,3:2:0:0:
274,198,64296,1,2,3:0:0:0:
277,222,64399,1,2,3:0:0:0:
279,246,64503,1,2,3:0:0:0:
282,270,64606,1,10,3:0:0:0:
182,189,64814,5,0,3:0:0:0:
366,228,65021,1,8,3:2:0:0:
368,251,65124,1,0,3:0:0:0:
371,275,65227,1,0,3:0:0:0:
231,93,65435,6,0,B|329:72|322:141|416:116,1,192,12|8,3:0|0:0,0:0:0:0:
156,166,66056,5,0,3:0:0:0:
88,83,66262,2,0,P|130:155|79:315,1,240,12|8,3:0|0:0,0:0:0:0:
244,283,66883,1,2,3:0:0:0:
244,283,66987,1,0,3:0:0:0:
244,283,67090,2,0,P|236:244|264:158,1,120,8|0,3:0|0:0,0:0:0:0:
386,94,67504,1,8,0:0:0:0:
175,128,67711,5,2,3:0:0:0:
362,249,67918,2,0,L|339:1,1,240,8|8,3:0|0:0,0:0:0:0:
216,270,68538,6,0,P|263:276|301:264,1,60,4|0,3:0|0:0,0:0:0:0:
154,200,68745,2,0,P|101:218|31:322,1,180,8|0,3:0|0:0,0:0:0:0:
80,377,69159,1,8,0:0:0:0:
237,194,69366,6,0,P|250:164|242:113,1,60,4|0,3:0|0:0,0:0:0:0:
122,85,69573,2,0,P|196:106|298:-9,1,240,8|8,3:0|0:0,0:0:0:0:
247,229,70193,1,2,3:0:0:0:
247,229,70297,1,0,3:0:0:0:
247,229,70400,2,0,P|289:244|333:309,1,120,8|0,3:0|0:0,0:0:0:0:
121,296,70814,1,8,0:0:0:0:
152,150,71021,6,0,L|159:229,1,60,4|0,3:0|0:0,0:0:0:0:
56,104,71228,2,0,L|311:127,1,240,8|8,3:0|0:0,0:0:0:0:
391,298,71849,2,0,L|312:305,1,60,4|0,3:0|0:0,0:0:0:0:
397,131,72056,1,8,3:0:0:0:
212,202,72262,6,2,P|252:223|266:240,1,60,10|2,3:0|0:0,0:0:0:0:
184,356,72469,2,2,P|182:310|189:290,1,60,10|2,3:2|0:0,0:0:0:0:
331,303,72676,2,2,P|292:327|271:330,1,60,10|2,3:0|0:0,0:0:0:0:
79,248,72883,6,0,B|120:137|24:144|67:17,1,240,12|8,3:0|0:0,0:0:0:0:
275,85,73504,1,2,3:0:0:0:
275,85,73607,1,0,3:0:0:0:
275,85,73711,2,0,P|225:69|136:81,1,120,8|0,3:0|0:0,0:0:0:0:
365,62,74124,1,8,0:0:0:0:
177,165,74331,5,2,3:0:0:0:
416,321,74538,2,0,P|406:247|457:88,1,240,8|8,3:0|0:0,0:0:0:0:
261,229,75159,6,0,P|280:267|278:292,1,60,4|0,3:0|0:0,0:0:0:0:
182,368,75366,2,0,P|191:280|261:228,1,180,8|0,3:0|0:0,0:0:0:0:
333,202,75780,1,8,0:0:0:0:
153,84,75987,6,0,P|147:113|152:151,1,60,4|0,3:0|0:0,0:0:0:0:
41,293,76193,2,0,P|52:240|23:25,1,240,8|8,3:0|0:0,0:0:0:0:
253,29,76814,1,2,3:0:0:0:
253,29,76918,1,0,3:0:0:0:
253,29,77021,2,0,P|245:75|266:178,1,120,8|0,3:0|0:0,0:0:0:0:
354,272,77435,1,8,0:0:0:0:
253,316,77642,6,0,L|266:235,1,60,4|0,3:0|0:0,0:0:0:0:
448,321,77849,2,0,P|349:378|253:316,1,240,8|8,3:0|0:0,0:0:0:0:
123,257,78469,6,0,P|164:272|187:302,1,60,4|0,3:0|0:0,0:0:0:0:
42,290,78676,1,8,3:0:0:0:
274,218,78883,1,4,3:2:0:0:
20,200,79090,1,8,0:0:0:0:
306,305,79297,1,4,3:2:0:0:
154,138,79504,5,12,3:0:0:0:
151,154,79607,1,0,3:0:0:0:
148,170,79711,1,0,3:0:0:0:
279,174,79918,2,0,L|266:42,1,120,8|0,0:0|0:0,0:0:0:0:
225,251,80331,5,8,3:0:0:0:
228,267,80434,1,0,3:0:0:0:
231,283,80538,1,0,3:0:0:0:
359,210,80745,1,8,0:0:0:0:
197,155,80952,5,0,3:0:0:0:
337,298,81159,1,8,3:0:0:0:
420,127,81366,1,0,3:0:0:0:
241,236,81573,5,8,0:0:0:0:
392,37,81780,1,0,3:0:0:0:
145,6,81987,2,0,P|162:131|113:247,1,240,10|8,3:0|0:0,0:0:0:0:
311,297,82607,5,2,3:0:0:0:
471,251,82814,2,0,B|364:200|352:299|240:235,1,240,8|8,3:0|0:0,0:0:0:0:
273,117,83435,6,0,P|308:148|312:168,1,60,4|0,3:0|0:0,0:0:0:0:
126,258,83642,2,0,P|147:166|279:119,1,240,8|8,3:0|0:0,0:0:0:0:
194,346,84262,5,2,3:0:0:0:
41,330,84469,2,0,P|17:245|43:75,1,240,8|8,3:0|0:0,0:0:0:0:
232,103,85090,6,0,P|242:140|239:168,1,60,4|0,3:0|0:0,0:0:0:0:
157,245,85297,2,0,P|201:211|330:248,1,180,8|0,3:0|0:0,0:0:0:0:
361,296,85711,5,8,0:0:0:0:
496,189,85918,1,2,3:0:0:0:
393,132,86124,2,0,L|413:400,1,240,12|8,3:0|0:0,0:0:0:0:
190,253,86745,5,2,3:0:0:0:
277,88,86952,2,0,L|268:207,1,120,8|0,3:0|0:0,0:0:0:0:
117,298,87366,5,8,0:0:0:0:
151,177,87573,1,0,3:0:0:0:
301,320,87780,2,0,B|392:271|398:342|503:286,1,180,8|0,3:0|0:0,0:0:0:0:
475,298,88193,1,8,0:0:0:0:
323,212,88400,1,0,3:0:0:0:
441,132,88607,1,8,3:0:0:0:
240,209,88814,1,0,3:0:0:0:
357,20,89021,5,8,0:0:0:0:
342,125,89228,1,0,3:0:0:0:
108,78,89435,2,0,P|172:34|273:73,1,180,8|0,3:0|0:0,0:0:0:0:
263,62,89849,1,8,0:0:0:0:
146,177,90056,1,0,3:0:0:0:
260,294,90262,2,0,L|251:160,1,120,8|0,3:0|0:0,0:0:0:0:
418,58,90676,5,8,0:0:0:0:
400,190,90883,1,0,3:0:0:0:
164,139,91090,2,0,P|239:161|354:97,1,180,8|0,3:0|0:0,0:0:0:0:
335,122,91504,1,8,0:0:0:0:
143,31,91711,1,0,3:0:0:0:
58,109,91918,1,8,3:0:0:0:
258,37,92124,5,0,3:0:0:0:
335,122,92331,1,8,0:0:0:0:
329,236,92538,1,0,3:0:0:0:
244,312,92745,6,0,L|76:325,1,168,2|0,0:0|0:0,0:0:0:0:
188,190,94400,2,0,P|227:201|244:311,1,168,2|0,0:0|0:0,0:0:0:0:
243,311,96056,2,0,P|233:271|319:202,1,168,2|0,0:0|0:0,0:0:0:0:
410,323,97711,2,0,L|242:310,1,168,2|0,0:0|0:0,0:0:0:0:
204,78,99366,6,0,P|226:109|186:225,1,168,2|0,0:0|0:0,0:0:0:0:
74,140,101021,2,0,P|89:105|210:82,1,168,2|0,0:0|0:0,0:0:0:0:
193,225,102676,2,0,P|155:228|74:135,1,168,2|0,0:0|0:0,0:0:0:0:
207,81,104331,2,0,P|229:112|189:228,1,168,2|0,0:0|0:0,0:0:0:0:
114,256,105987,5,6,0:0:0:0:
335,191,106297,1,0,3:0:0:0:
335,191,106400,2,0,L|458:178,1,120,0|0,3:0|0:0,0:0:0:0:
267,265,107642,5,2,0:0:0:0:
267,265,108056,2,0,L|147:252,1,120,0|0,3:0|0:0,0:0:0:0:
41,152,109297,5,2,0:0:0:0:
208,47,109607,1,0,3:0:0:0:
208,47,109711,1,0,3:0:0:0:
235,127,109918,1,2,0:0:0:0:
163,240,110331,1,0,0:0:0:0:
248,217,110538,1,0,0:0:0:0:
318,273,110745,1,2,0:0:0:0:
437,276,110952,1,0,0:0:0:0:
437,276,111366,1,0,0:0:0:0:
34,182,111780,5,8,1:0:0:0:
34,182,112193,1,0,0:0:0:0:
96,121,112400,1,0,0:0:0:0:
115,206,112607,6,0,B|127:240|121:277|121:277|131:277|131:277|116:306|131:343,1,144,2|0,0:0|0:0,0:0:0:0:
128,337,114262,1,0,0:0:0:0:
201,286,114469,1,0,0:0:0:0:
270,336,114676,1,0,0:0:0:0:
456,228,115090,1,2,0:0:0:0:
456,228,115504,1,0,0:0:0:0:
384,188,115711,1,0,0:0:0:0:
312,227,115918,5,2,0:0:0:0:
66,172,116331,1,0,0:0:0:0:
147,152,116538,1,0,0:0:0:0:
124,234,116745,1,0,0:0:0:0:
238,174,116952,5,0,0:0:0:0:
238,174,117159,2,0,L|242:116,1,48,2|0,0:0|0:0,0:0:0:0:
321,50,117780,1,0,0:0:0:0:
351,125,117987,1,0,0:0:0:0:
351,125,118193,2,0,L|347:172,1,48,2|0,0:0|0:0,0:0:0:0:
120,338,119031,5,2,0:0:0:0:
178,260,119236,2,0,B|281:208|318:299|409:243,1,240,12|8,3:0|1:0,0:0:0:0:
361,50,119857,1,2,3:0:0:0:
361,50,119960,1,0,3:0:0:0:
361,50,120064,2,0,L|349:179,1,120,8|0,3:0|0:0,0:0:0:0:
450,1,120477,1,8,1:0:0:0:
257,113,120684,5,2,3:0:0:0:
257,113,120788,1,0,3:0:0:0:
257,113,120891,2,0,P|177:139|38:52,1,240,8|8,3:0|1:0,0:0:0:0:
133,263,121512,6,0,P|165:247|205:242,1,60,4|0,3:0|0:0,0:0:0:0:
375,321,121719,1,8,3:0:0:0:
217,368,121926,1,0,3:0:0:0:
346,171,122132,1,8,1:0:0:0:
437,205,122339,6,0,L|508:202,1,60,4|0,3:0|0:0,0:0:0:0:
456,376,122547,2,0,L|203:367,1,240,12|8,3:0|1:0,0:0:0:0:
52,324,123167,1,2,3:0:0:0:
52,324,123270,1,0,3:0:0:0:
52,324,123374,2,0,P|82:256|74:191,1,120,8|0,3:0|0:0,0:0:0:0:
11,95,123788,1,8,1:0:0:0:
204,115,123995,6,0,P|166:125|131:121,1,60,4|0,3:0|0:0,0:0:0:0:
281,47,124201,2,0,P|313:111|310:224,1,180,8|0,3:0|0:0,0:0:0:0:
266,281,124615,1,8,1:0:0:0:
76,227,124822,6,0,P|70:189|77:152,1,60,4|0,3:0|0:0,0:0:0:0:
148,340,125029,1,8,3:0:0:0:
204,115,125236,6,2,L|209:175,1,60,10|2,3:0|0:0,0:0:0:0:
62,378,125443,2,2,L|57:318,1,60,10|2,1:2|0:0,0:0:0:0:
280,76,125650,2,2,L|285:136,1,60,10|2,3:0|0:0,0:0:0:0:
167,250,125857,6,0,P|214:198|389:233,1,240,12|8,3:0|1:0,0:0:0:0:
480,366,126477,1,2,3:0:0:0:
480,366,126581,1,0,3:0:0:0:
480,366,126685,2,0,P|463:293|465:218,1,120,8|0,3:0|0:0,0:0:0:0:
495,85,127098,1,8,1:0:0:0:
307,181,127305,5,2,3:0:0:0:
307,181,127408,1,0,3:0:0:0:
307,181,127512,2,0,B|186:182|223:99|90:94,1,240,8|8,3:0|1:0,0:0:0:0:
72,237,128133,6,0,P|102:210|114:180,1,60,4|0,3:0|0:0,0:0:0:0:
214,309,128339,1,8,3:0:0:0:
27,328,128546,1,0,3:0:0:0:
204,107,128753,1,8,1:0:0:0:
296,204,128960,6,0,P|295:169|277:142,1,60,4|0,3:0|0:0,0:0:0:0:
87,210,129167,2,0,P|222:253|314:167,1,240,12|8,3:0|1:0,0:0:0:0:
203,25,129788,1,2,3:0:0:0:
203,25,129891,1,0,3:0:0:0:
203,25,129995,2,0,L|192:168,1,120,8|0,3:0|0:0,0:0:0:0:
180,299,130408,1,8,1:0:0:0:
322,217,130615,6,0,L|262:221,1,60,4|0,3:0|0:0,0:0:0:0:
397,296,130822,2,0,P|420:215|411:119,1,180,8|0,3:0|0:0,0:0:0:0:
361,62,131236,1,8,1:0:0:0:
251,136,131443,6,0,P|280:136|309:128,1,60,4|0,3:0|0:0,0:0:0:0:
174,76,131650,1,8,3:0:0:0:
395,187,131857,1,0,3:0:0:0:
236,11,132064,1,8,1:0:0:0:
134,253,132270,1,0,3:0:0:0:
134,253,132374,1,0,0:0:0:0:
134,253,132477,1,12,3:0:0:0:
134,253,133305,6,0,L|122:152,1,96,8|0,1:0|0:0,0:0:0:0:
122,157,134960,6,0,L|134:253,1,96,8|0,1:0|0:0,0:0:0:0:
134,253,136615,6,0,L|122:157,1,96,8|0,1:0|0:0,0:0:0:0:
122,157,138270,5,8,1:0:0:0:
431,64,139098,1,2,0:0:0:0:
431,64,139926,6,0,P|434:111|420:157,1,96,8|0,1:0|0:0,0:0:0:0:
420,157,141581,6,0,P|376:136|344:101,1,96,8|0,1:0|0:0,0:0:0:0:
344,101,143236,6,0,P|383:73|429:63,1,96,8|0,1:0|0:0,0:0:0:0:
429,63,144891,5,8,1:0:0:0:
256,192,145719,12,8,146546,1:0:0:0:
256,192,146650,12,0,150684,0:0:0:0:
