osu file format v14

[General]
AudioFilename: audio.mp3
AudioLeadIn: 0
PreviewTime: 278
Countdown: 1
SampleSet: None
StackLeniency: 0.7
Mode: 0
LetterboxInBreaks: 0
WidescreenStoryboard: 0

[Editor]
Bookmarks: 3478,41878,83478
DistanceSpacing: 0.8
BeatDivisor: 4
GridSize: 8
TimelineZoom: 1

[Metadata]
Title:Twoja Stara (Hardstyle Mix)
TitleUnicode:Twoja Stara (Hardstyle Mix)
Artist:MADD
ArtistUnicode:MADD
Creator:XVoIR
Version:Zapierdala
Source:
Tags:
BeatmapID:1783822
BeatmapSetID:853524

[Difficulty]
HPDrainRate:5.5
CircleSize:4.3
OverallDifficulty:9
ApproachRate:9
SliderMultiplier:1.4
SliderTickRate:1

[Events]
//Background and Video events
0,0,"bg.jpg",0,0
//Break Periods
2,42078,44478
//Storyboard Layer 0 (Background)
//Storyboard Layer 1 (Fail)
//Storyboard Layer 2 (Pass)
//Storyboard Layer 3 (Foreground)
//Storyboard Sound Samples

[TimingPoints]
278,400,4,2,0,100,1,0
3478,-66.6666666666667,4,2,0,100,0,0
45078,-100,4,2,0,100,0,0
83478,-57.1428571428571,4,2,0,100,0,1
121878,-133.333333333333,4,2,0,75,0,0
122278,-181.818181818181,4,2,0,45,0,0
122678,-222.222222222222,4,2,0,30,0,0
123078,-285.714285714286,4,2,0,20,0,0
123478,-400,4,2,0,16,0,0
123878,-500,4,2,0,12,0,0
124278,-666.666666666667,4,2,0,8,0,0
124678,-1000,4,2,0,5,0,0

[HitObjects]
107,240,278,6,0,P|101:213|100:208,5,17.5,2|0|0|0|0|0,0:1|0:0|0:0|0:0|0:0|0:0,0:0:0:0:
190,289,678,2,0,P|196:316|197:321,5,17.5,2|0|0|0|0|0,0:1|0:0|0:0|0:0|0:0|0:0,0:0:0:0:
309,194,1078,6,0,L|391:197,1,70,0|0,2:0|2:0,2:0:0:0:
465,301,1478,2,0,L|383:304,1,70,0|0,2:0|2:0,2:0:0:0:
475,99,1878,6,0,P|493:93|496:91,5,17.5,2|0|0|0|0|0,0:1|0:0|0:0|0:0|0:0|0:0,0:0:0:0:
389,63,2278,2,0,P|371:69|368:71,5,17.5,2|0|0|0|0|0,0:1|0:0|0:0|0:0|0:0|0:0,0:0:0:0:
288,118,2678,6,0,P|264:119|217:98,1,70,0|0,2:0|2:0,2:0:0:0:
142,11,3078,1,0,3:0:0:0:
187,295,3278,1,0,3:0:0:0:
52,223,3478,6,0,B|99:202|131:215|131:215|157:227|209:207,1,157.500006008148,4|0,3:1|0:0,0:0:0:0:
280,172,3878,1,0,3:0:0:0:
248,357,4078,1,0,0:0:0:0:
142,87,4278,5,2,3:1:0:0:
187,295,4478,1,2,0:1:0:0:
269,66,4678,1,2,3:1:0:0:
105,324,4878,1,2,0:1:0:0:
326,241,5078,6,0,P|380:232|496:297,1,157.500006008148,0|0,3:0|0:0,0:0:0:0:
506,339,5478,1,0,3:0:0:0:
451,146,5678,1,0,0:0:0:0:
400,364,5878,5,2,3:1:0:0:
336,87,6078,1,2,0:1:0:0:
303,307,6278,1,2,3:1:0:0:
428,37,6478,1,2,0:1:0:0:
226,118,6678,6,0,P|166:123|74:60,1,157.500006008148,0|0,3:0|0:0,0:0:0:0:
27,41,7078,2,0,P|55:93|50:155,1,105.000004005432,0|0,3:0|0:0,0:0:0:0:
10,284,7478,5,2,3:1:0:0:
192,32,7678,1,2,0:1:0:0:
153,293,7878,1,2,3:1:0:0:
17,27,8078,1,2,0:1:0:0:
243,132,8278,6,0,B|305:120|305:120|322:123|322:123|437:101,1,157.500006008148,0|0,3:0|0:0,0:0:0:0:
430,101,8678,1,0,3:0:0:0:
385,267,8878,1,0,0:0:0:0:
156,105,9078,5,2,3:1:0:0:
460,202,9278,1,2,0:1:0:0:
191,275,9478,1,2,3:1:0:0:
372,29,9678,1,2,0:1:0:0:
290,366,9878,6,0,L|108:353,1,157.500006008148,4|0,3:2|0:0,0:0:0:0:
26,323,10278,2,0,P|88:290|116:251,1,105.000004005432,0|0,3:0|0:0,0:0:0:0:
51,29,10678,5,2,3:1:0:0:
97,252,10878,1,2,0:1:0:0:
207,34,11078,1,2,3:1:0:0:
261,333,11278,1,2,0:1:0:0:
381,249,11478,6,0,P|396:196|344:105,1,157.500006008148,0|0,3:0|0:0,0:0:0:0:
284,75,11878,1,0,3:0:0:0:
280,203,12078,1,0,0:0:0:0:
448,78,12278,5,2,3:1:0:0:
154,156,12478,1,2,0:1:0:0:
384,263,12678,1,2,3:1:0:0:
172,45,12878,1,2,0:1:0:0:
75,297,13078,6,0,P|130:317|228:273,1,157.500006008148,0|0,3:0|0:0,0:0:0:0:
286,229,13478,2,0,P|305:289|369:337,1,105.000004005432,0|0,3:0|0:0,0:0:0:0:
511,268,13878,5,2,3:1:0:0:
205,198,14078,1,2,0:1:0:0:
438,131,14278,1,2,3:1:0:0:
132,61,14478,1,2,0:1:0:0:
182,353,14678,6,0,L|206:185,2,157.500006008148,0|0|0,3:0|0:0|0:0,0:0:0:0:
230,18,15478,5,2,0:1:0:0:
299,332,15678,1,2,0:1:0:0:
356,94,15878,5,2,0:1:0:0:
87,60,16078,1,2,0:1:0:0:
342,184,16278,6,0,P|401:171|438:68,1,157.500006008148,4|0,3:1|0:0,0:0:0:0:
424,12,16678,1,0,3:0:0:0:
496,222,16878,1,0,0:0:0:0:
190,179,17078,5,2,3:1:0:0:
509,224,17278,1,2,0:1:0:0:
256,269,17478,1,2,3:1:0:0:
442,89,17678,1,2,0:1:0:0:
336,333,17878,6,0,L|517:367,1,157.500006008148,0|0,3:0|0:0,0:0:0:0:
505,351,18278,1,0,3:0:0:0:
439,110,18478,1,0,0:0:0:0:
336,358,18678,5,2,3:1:0:0:
366,68,18878,1,2,0:1:0:0:
421,269,19078,1,2,3:1:0:0:
274,13,19278,1,2,0:1:0:0:
194,151,19478,6,0,L|-1:161,1,157.500006008148,0|0,3:0|0:0,0:0:0:0:
31,240,19878,2,0,B|85:237|85:237|144:273,1,105.000004005432,0|0,3:0|0:0,0:0:0:0:
375,193,20278,5,2,3:1:0:0:
59,333,20478,1,2,0:1:0:0:
386,368,20678,1,2,3:1:0:0:
140,256,20878,1,2,0:1:0:0:
416,119,21078,6,0,P|460:187|414:273,1,157.500006008148,0|0,3:0|0:0,0:0:0:0:
372,194,21478,1,0,3:0:0:0:
390,28,21678,1,0,0:0:0:0:
485,324,21878,5,2,3:1:0:0:
192,152,22078,1,2,0:1:0:0:
318,355,22278,1,2,3:1:0:0:
418,28,22478,1,2,0:1:0:0:
216,157,22678,6,0,B|167:139|138:149|138:149|108:159|58:142,1,157.500006008148,0|0,3:0|0:0,0:0:0:0:
110,67,23078,1,0,3:0:0:0:
163,298,23278,1,0,0:0:0:0:
281,88,23478,5,2,3:1:0:0:
341,361,23678,1,2,0:1:0:0:
495,191,23878,1,2,3:1:0:0:
168,288,24078,1,2,0:1:0:0:
485,364,24278,6,0,B|497:313|497:313|479:190,1,157.500006008148,0|0,3:0|0:0,0:0:0:0:
446,122,24678,2,0,P|393:177|393:208,1,105.000004005432,0|0,3:0|0:0,0:0:0:0:
504,367,25078,5,2,3:1:0:0:
187,253,25278,1,2,0:1:0:0:
404,213,25478,1,2,3:1:0:0:
152,374,25678,1,2,0:1:0:0:
169,96,25878,6,0,P|240:113|284:199,1,157.500006008148,0|0,3:0|0:0,0:0:0:0:
305,274,26278,2,0,P|243:268|207:237,1,105.000004005432,0|0,3:0|0:0,0:0:0:0:
89,49,26678,5,2,3:1:0:0:
162,360,26878,1,2,0:1:0:0:
197,107,27078,1,2,3:1:0:0:
56,330,27278,1,2,0:1:0:0:
207,91,27478,6,0,B|280:82|280:82|313:91|313:91|387:81,1,157.500006008148,0|0,3:0|0:0,0:0:0:0:
449,68,27878,1,0,3:0:0:0:
317,1,28078,1,0,0:0:0:0:
382,321,28278,5,2,3:1:0:0:
449,52,28478,1,2,0:1:0:0:
483,254,28678,1,2,3:1:0:0:
161,203,28878,1,2,0:1:0:0:
255,367,29078,6,0,B|294:345|329:347|329:347|360:348|405:326,1,157.500006008148,4|0,3:2|0:0,0:0:0:0:
479,239,29478,2,0,P|421:230|377:196,1,105.000004005432,0|0,3:0|0:0,0:0:0:0:
428,64,29878,6,0,P|436:47|440:34,5,26.2500010013581,2|0|0|0|0|0,3:1|0:0|0:0|0:0|0:0|0:0,0:0:0:0:
203,214,30278,2,0,P|194:230|190:243,5,26.2500010013581,2|0|0|0|0|0,3:1|0:0|0:0|0:0|0:0|0:0,0:0:0:0:
217,68,30678,6,0,L|52:73,1,157.500006008148,0|0,3:0|0:0,0:0:0:0:
78,170,31078,2,0,P|111:160|151:102,1,105.000004005432,0|0,3:0|0:0,0:0:0:0:
26,259,31478,6,0,L|31:288,5,26.2500010013581,2|0|0|0|0|0,3:1|0:0|0:0|0:0|0:0|0:0,0:0:0:0:
203,369,31878,2,0,L|208:340,5,26.2500010013581,2|0|0|0|0|0,3:1|0:0|0:0|0:0|0:0|0:0,0:0:0:0:
363,296,32278,6,0,P|374:257|326:146,1,157.500006008148,0|0,3:0|0:0,0:0:0:0:
216,99,32678,2,0,P|260:90|315:47,1,105.000004005432,0|0,3:0|0:0,0:0:0:0:
427,15,33078,6,0,L|465:22,5,26.2500010013581,2|0|0|0|0|0,3:1|0:0|0:0|0:0|0:0|0:0,0:0:0:0:
398,274,33478,2,0,L|360:281,5,26.2500010013581,2|0|0|0|0|0,3:1|0:0|0:0|0:0|0:0|0:0,0:0:0:0:
275,242,33878,6,0,B|219:228|219:228|115:262,1,157.500006008148,0|0,3:0|0:0,0:0:0:0:
41,297,34278,1,0,3:0:0:0:
232,326,34478,1,0,0:0:0:0:
138,95,34678,6,0,P|135:80|136:70,5,26.2500010013581,2|0|0|0|0|0,3:1|0:0|0:0|0:0|0:0|0:0,0:0:0:0:
340,186,35078,2,0,P|343:201|342:211,5,26.2500010013581,2|0|0|0|0|0,3:1|0:0|0:0|0:0|0:0|0:0,0:0:0:0:
462,123,35478,6,0,L|472:9,1,105.000004005432,0|0,3:0|0:0,0:0:0:0:
252,105,35878,2,0,L|262:219,1,105.000004005432,0|0,3:0|0:0,0:0:0:0:
406,340,36278,6,0,P|421:340|438:331,5,26.2500010013581,2|0|0|0|0|0,3:1|0:0|0:0|0:0|0:0|0:0,0:0:0:0:
210,293,36678,2,0,P|195:293|178:302,5,26.2500010013581,2|0|0|0|0|0,3:1|0:0|0:0|0:0|0:0|0:0,0:0:0:0:
90,331,37078,5,0,3:0:0:0:
333,356,37278,1,0,0:0:0:0:
297,187,37478,2,0,L|171:174,1,105.000004005432,0|0,3:0|0:0,0:0:0:0:
57,62,37878,6,0,P|59:42|56:28,5,26.2500010013581,2|0|0|0|0|0,3:1|0:0|0:0|0:0|0:0|0:0,0:0:0:0:
208,194,38278,2,0,P|206:214|209:228,5,26.2500010013581,2|0|0|0|0|0,3:1|0:0|0:0|0:0|0:0|0:0,0:0:0:0:
288,101,38678,5,0,3:0:0:0:
295,212,38878,2,0,L|299:273,1,52.5000020027161
401,81,39078,5,0,3:0:0:0:
375,259,39278,1,0,0:0:0:0:
165,342,39478,6,0,P|144:340|132:341,5,26.2500010013581,2|0|0|0|0|0,3:1|0:0|0:0|0:0|0:0|0:0,0:0:0:0:
398,277,39878,2,0,P|411:277|424:275,5,26.2500010013581,2|0|0|0|0|0,3:1|0:0|0:0|0:0|0:0|0:0,0:0:0:0:
178,201,40278,5,0,3:0:0:0:
377,360,40478,2,0,L|333:326,1,52.5000020027161
328,107,40678,5,0,3:0:0:0:
236,361,40878,1,0,0:0:0:0:
101,146,41078,6,0,P|96:127|93:117,5,26.2500010013581,2|0|0|0|0|0,3:1|0:0|0:0|0:0|0:0|0:0,0:0:0:0:
435,248,41478,2,0,P|431:260|428:273,5,26.2500010013581,2|0|0|0|0|0,3:1|0:0|0:0|0:0|0:0|0:0,0:0:0:0:
143,301,41878,5,4,3:1:0:0:
143,301,45078,5,0,0:0:0:0:
197,208,45278,1,0,0:0:0:0:
197,208,45378,1,0,0:0:0:0:
197,207,45478,2,0,P|191:180|163:140,1,70
79,72,45878,1,0,0:0:0:0:
177,32,46078,2,0,L|269:36,1,70,2|0,0:0|0:0,0:0:0:0:
361,46,46478,1,2,0:0:0:0:
311,124,46678,5,0,0:0:0:0:
444,66,46878,1,0,0:0:0:0:
457,60,46978,1,0,0:0:0:0:
427,168,47178,1,0,0:0:0:0:
414,162,47278,1,0,0:0:0:0:
350,237,47478,2,0,P|356:286|381:323,1,70,2|0,0:0|0:0,0:0:0:0:
499,276,47878,2,0,P|453:256|409:259,1,70,2|0,0:0|0:0,0:0:0:0:
359,329,48278,6,0,L|266:322,1,70
267,335,48578,1,0,0:0:0:0:
156,299,48778,1,0,0:0:0:0:
139,279,48878,1,0,0:0:0:0:
193,159,49078,2,0,L|125:145,2,70,2|0|2,0:0|0:0|0:0,0:0:0:0:
296,185,49678,1,0,0:0:0:0:
263,93,49878,6,0,L|248:10,1,70
235,10,50178,1,0,0:0:0:0:
360,44,50378,1,0,0:0:0:0:
381,44,50478,1,0,0:0:0:0:
408,149,50678,5,2,0:0:0:0:
456,44,50878,1,2,0:0:0:0:
512,269,51078,5,2,0:0:0:0:
476,117,51278,1,2,0:0:0:0:
391,331,51478,6,0,L|271:335,1,105,4|0,0:0|0:0,0:0:0:0:
264,335,51878,1,0,0:0:0:0:
185,195,52078,1,0,0:0:0:0:
68,282,52278,6,0,B|58:258|58:258|53:207,1,70,8|0,0:0|0:0,0:0:0:0:
260,157,52678,2,0,B|270:133|270:133|275:82,1,70
74,49,53078,6,0,P|124:60|191:29,1,105,2|0,0:0|0:0,0:0:0:0:
238,6,53478,1,0,0:0:0:0:
371,73,53678,1,0,0:0:0:0:
332,180,53878,5,8,0:0:0:0:
285,83,54078,1,0,0:0:0:0:
196,270,54278,5,0,0:0:0:0:
276,103,54478,1,0,0:0:0:0:
364,190,54678,6,0,L|470:194,1,105,4|0,0:0|0:0,0:0:0:0:
496,196,55078,1,0,0:0:0:0:
459,316,55278,1,0,0:0:0:0:
342,178,55478,6,0,P|317:214|306:253,1,70,8|0,0:0|0:0,0:0:0:0:
207,317,55878,2,0,P|194:284|173:256,1,70
0,254,56278,6,0,P|49:303|97:316,1,105,2|0,0:0|0:0,0:0:0:0:
117,318,56678,1,0,0:0:0:0:
90,185,56878,1,0,0:0:0:0:
199,35,57078,5,2,0:1:0:0:
102,172,57278,1,2,0:1:0:0:
239,166,57478,5,2,0:1:0:0:
61,40,57678,1,2,0:1:0:0:
298,78,57878,6,0,P|334:80|425:49,2,105,4|0|0,0:0|0:0|0:0,0:0:0:0:
469,150,58678,2,0,P|482:153|493:155,5,17.5,2|0|0|0|0|0,0:1|0:0|0:0|0:0|0:0|0:0,0:0:0:0:
416,250,59078,2,0,P|403:253|392:255,5,17.5,2|0|0|0|0|0,0:1|0:0|0:0|0:0|0:0|0:0,0:0:0:0:
318,333,59478,6,0,P|250:336|206:323,1,105,4|0,0:0|0:0,0:0:0:0:
180,315,59878,1,0,0:0:0:0:
71,368,60078,1,0,0:0:0:0:
51,233,60278,6,0,P|49:223|50:209,5,17.5,2|0|0|0|0|0,0:1|0:0|0:0|0:0|0:0|0:0,0:0:0:0:
144,101,60678,2,0,P|146:91|145:77,5,17.5,2|0|0|0|0|0,0:1|0:0|0:0|0:0|0:0|0:0,0:0:0:0:
253,39,61078,6,0,P|266:98|299:147,1,105,4|0,0:0|0:0,0:0:0:0:
311,157,61478,1,0,0:0:0:0:
431,83,61678,1,0,0:0:0:0:
449,238,61878,6,0,P|461:241|473:245,5,17.5,2|0|0|0|0|0,0:1|0:0|0:0|0:0|0:0|0:0,0:0:0:0:
334,331,62278,2,0,P|322:334|310:338,5,17.5,2|0|0|0|0|0,0:1|0:0|0:0|0:0|0:0|0:0,0:0:0:0:
223,279,62678,6,0,P|185:280|128:248,2,105,4|0|0,0:0|0:0|0:0,0:0:0:0:
362,243,63478,1,2,0:1:0:0:
207,174,63678,1,2,0:1:0:0:
337,90,63878,1,2,0:1:0:0:
231,326,64078,1,2,0:1:0:0:
385,234,64278,6,0,P|428:205|480:202,2,105,4|0|0,0:0|0:0|0:0,0:0:0:0:
472,350,65078,2,0,L|481:326,5,17.5,2|0|0|0|0|0,0:1|0:0|0:0|0:0|0:0|0:0,0:0:0:0:
311,257,65478,2,0,L|302:233,5,17.5,2|0|0|0|0|0,0:1|0:0|0:0|0:0|0:0|0:0,0:0:0:0:
479,76,65878,6,0,P|437:55|378:69,1,105,4|0,0:0|0:0,0:0:0:0:
356,86,66278,1,0,0:0:0:0:
186,25,66478,1,0,0:0:0:0:
136,161,66678,6,0,P|124:161|107:157,5,17.5,2|0|0|0|0|0,0:1|0:0|0:0|0:0|0:0|0:0,0:0:0:0:
275,222,67078,2,0,P|283:221|292:222,5,17.5,2|0|0|0|0|0,0:1|0:0|0:0|0:0|0:0|0:0,0:0:0:0:
156,341,67478,6,0,P|134:345|59:317,1,105,4|0,0:0|0:0,0:0:0:0:
33,289,67878,1,0,0:0:0:0:
49,113,68078,1,0,0:0:0:0:
141,182,68278,6,0,P|144:195|143:205,5,17.5,2|0|0|0|0|0,0:1|0:0|0:0|0:0|0:0|0:0,0:0:0:0:
236,71,68678,2,0,P|233:58|234:48,5,17.5,2|0|0|0|0|0,0:1|0:0|0:0|0:0|0:0|0:0,0:0:0:0:
364,162,69078,6,0,L|473:145,1,105,4|0,0:0|0:0,0:0:0:0:
502,139,69478,1,0,0:0:0:0:
452,289,69678,1,0,0:0:0:0:
395,69,69878,5,4,0:0:0:0:
449,298,70078,1,2,0:1:0:0:
435,51,70278,5,2,0:1:0:0:
367,337,70478,1,2,0:1:0:0:
248,265,70678,6,0,P|210:258|150:275,1,70,0|0,1:0|0:0,0:0:0:0:
47,353,71078,2,0,P|72:329|91:291,1,70,0|0,1:0|0:0,0:0:0:0:
73,155,71478,1,2,1:1:0:0:
27,245,71678,1,2,0:1:0:0:
158,156,71878,1,2,1:1:0:0:
204,246,72078,1,2,0:1:0:0:
284,158,72278,6,0,B|293:133|293:133|293:81,1,70,0|0,1:0|0:0,0:0:0:0:
389,34,72678,2,0,B|389:77|389:77|398:102,1,70,0|0,1:0|0:0,0:0:0:0:
481,233,73078,2,0,P|491:232|502:231,5,17.5,2|0|0|0|0|0,1:0|0:0|0:0|0:0|0:0|0:0,0:0:0:0:
386,327,73478,2,0,P|376:328|365:329,5,17.5,2|0|0|0|0|0,1:0|0:0|0:0|0:0|0:0|0:0,0:0:0:0:
264,252,73878,6,0,P|216:243|190:229,1,70,0|0,1:0|0:0,0:0:0:0:
57,182,74278,2,0,P|76:213|81:246,1,70,0|0,1:0|0:0,0:0:0:0:
23,358,74678,1,2,1:1:0:0:
0,242,74878,1,2,0:1:0:0:
167,357,75078,1,2,1:1:0:0:
190,241,75278,1,2,0:1:0:0:
142,102,75478,6,0,L|72:105,1,70,0|0,1:0|0:0,0:0:0:0:
233,40,75878,2,0,L|303:43,1,70,0|0,1:0|0:0,0:0:0:0:
438,108,76278,2,0,P|438:119|435:132,5,17.5,2|0|0|0|0|0,1:0|0:0|0:0|0:0|0:0|0:0,0:0:0:0:
487,291,76678,2,0,P|487:280|484:267,5,17.5,2|0|0|0|0|0,1:0|0:0|0:0|0:0|0:0|0:0,0:0:0:0:
379,341,77078,6,0,P|370:301|370:268,1,70,0|0,1:0|1:0,1:0:0:0:
331,142,77478,2,0,P|322:182|322:215,1,70,0|0,1:0|1:0,1:0:0:0:
284,348,77878,2,0,P|275:308|275:275,1,70,0|0,1:0|1:0,1:0:0:0:
243,109,78278,2,0,P|234:149|234:182,1,70,0|0,1:0|1:0,1:0:0:0:
174,357,78678,2,0,P|165:317|165:284,1,70,0|0,1:0|1:0,1:0:0:0:
135,92,79078,2,0,P|126:132|126:165,1,70,0|0,1:0|1:0,1:0:0:0:
52,367,79478,2,0,P|43:327|43:294,1,70,2|0,1:0|1:0,1:0:0:0:
12,64,79878,2,0,P|3:104|3:137,1,70,2|0,1:0|1:0,1:0:0:0:
64,288,80178,1,0,1:0:0:0:
77,305,80278,6,0,P|82:276|79:250,1,35,0|0,1:0|1:0,1:0:0:0:
45,81,80478,2,0,P|50:110|47:136,1,35,0|0,1:0|1:0,1:0:0:0:
175,327,80678,6,0,P|180:298|177:272,1,35,0|0,1:0|1:0,1:0:0:0:
145,105,80878,2,0,P|150:134|147:160,1,35,0|0,1:0|1:0,1:0:0:0:
285,312,81078,6,0,P|290:283|287:257,1,35,0|0,1:0|1:0,1:0:0:0:
258,124,81278,2,0,P|263:153|260:179,1,35,0|0,1:0|1:0,1:0:0:0:
375,284,81478,6,0,P|380:255|377:229,1,35,0|0,1:0|1:0,1:0:0:0:
352,129,81678,2,0,P|357:158|354:184,1,35,0|0,1:0|1:0,1:0:0:0:
292,254,81878,5,0,0:0:0:0:
244,36,82078,1,0,0:0:0:0:
244,36,82278,5,0,0:0:0:0:
167,282,82478,1,0,0:0:0:0:
167,282,82678,5,10,0:1:0:0:
505,154,82878,1,2,0:1:0:0:
44,148,83078,5,2,3:1:0:0:
408,261,83278,1,2,0:1:0:0:
252,358,83478,6,0,B|197:322|146:340|146:340|95:355|34:307,1,183.750001752377,4|0,3:1|0:0,0:0:0:0:
43,321,83878,1,0,3:0:0:0:
31,103,84078,1,0,0:0:0:0:
305,190,84278,5,2,3:1:0:0:
43,93,84478,1,2,0:1:0:0:
385,63,84678,1,2,3:1:0:0:
96,199,84878,1,2,0:1:0:0:
309,312,85078,6,0,B|368:305|368:305|391:288|391:288|492:278,1,183.750001752377,0|0,3:0|0:0,0:0:0:0:
468,363,85478,1,0,3:0:0:0:
391,94,85678,1,0,0:0:0:0:
187,212,85878,5,2,3:1:0:0:
475,151,86078,1,2,0:1:0:0:
182,85,86278,1,2,3:1:0:0:
479,277,86478,1,2,0:1:0:0:
174,210,86678,6,0,B|126:226|92:217|92:217|59:207|-6:239,1,183.750001752377,0|0,3:0|0:0,0:0:0:0:
211,297,87078,2,0,P|258:252|270:189,1,122.500001168251,0|0,3:0|0:0,0:0:0:0:
213,43,87478,5,2,3:1:0:0:
285,303,87678,1,2,0:1:0:0:
346,100,87878,1,2,3:1:0:0:
143,331,88078,1,2,0:1:0:0:
407,185,88278,6,0,P|451:213|360:238,1,183.750001752377,0|0,3:0|0:0,0:0:0:0:
297,227,88678,2,0,P|238:202|167:217,1,122.500001168251,0|0,3:0|0:0,0:0:0:0:
14,305,89078,5,2,3:1:0:0:
334,147,89278,1,2,0:1:0:0:
118,75,89478,1,2,3:1:0:0:
227,297,89678,1,2,0:1:0:0:
407,185,89878,6,0,B|386:138|398:42|398:42|419:94,1,183.750001752377,0|0,3:0|0:0,0:0:0:0:
459,252,90278,2,0,P|390:270|344:243,1,122.500001168251,0|0,3:0|0:0,0:0:0:0:
103,63,90678,5,2,3:1:0:0:
238,317,90878,1,2,0:1:0:0:
251,68,91078,1,2,3:1:0:0:
127,362,91278,1,2,0:1:0:0:
257,57,91478,6,0,L|450:41,1,183.750001752377,0|0,3:0|0:0,0:0:0:0:
454,131,91878,1,0,3:0:0:0:
266,154,92078,1,0,0:0:0:0:
454,286,92278,5,2,3:1:0:0:
105,92,92478,1,2,0:1:0:0:
192,331,92678,1,2,3:1:0:0:
254,36,92878,1,2,0:1:0:0:
170,316,93078,6,0,B|130:299|130:299|97:300|97:300|-4:253,1,183.750001752377,0|0,3:0|0:0,0:0:0:0:
38,173,93478,1,0,3:0:0:0:
117,378,93678,1,0,0:0:0:0:
198,97,93878,5,2,3:1:0:0:
277,369,94078,1,2,0:1:0:0:
375,35,94278,1,2,3:1:0:0:
283,349,94478,1,2,0:1:0:0:
391,212,94678,6,0,L|521:194,1,122.500001168251,4|0,3:2|0:0,0:0:0:0:
414,331,95078,1,4,3:2:0:0:
227,62,95278,1,0,3:0:0:0:
227,62,95378,1,0,3:0:0:0:
227,62,95478,5,4,3:2:0:0:
58,332,95678,1,2,3:1:0:0:
393,199,95878,1,4,3:2:0:0:
74,187,96078,1,2,3:1:0:0:
447,136,96278,6,0,P|472:227|409:281,1,183.750001752377,4|0,3:1|0:0,0:0:0:0:
393,361,96678,2,0,P|340:326|332:256,1,122.500001168251,0|0,3:0|0:0,0:0:0:0:
395,39,97078,5,2,3:1:0:0:
412,280,97278,1,2,0:1:0:0:
225,40,97478,1,2,3:1:0:0:
194,334,97678,1,2,0:1:0:0:
397,201,97878,6,0,P|422:110|359:56,1,183.750001752377,0|0,3:0|0:0,0:0:0:0:
222,149,98278,2,0,L|353:135,1,122.500001168251,0|0,3:0|0:0,0:0:0:0:
130,162,98678,5,2,3:1:0:0:
470,252,98878,1,2,0:1:0:0:
42,252,99078,1,2,3:1:0:0:
382,162,99278,1,2,0:1:0:0:
149,344,99478,6,0,L|129:154,1,183.750001752377,0|0,3:0|0:0,0:0:0:0:
215,29,99878,2,0,P|230:92|219:155,1,122.500001168251,0|0,3:0|0:0,0:0:0:0:
59,94,100278,5,2,3:1:0:0:
370,244,100478,1,2,0:1:0:0:
37,280,100678,1,2,3:1:0:0:
402,240,100878,1,2,0:1:0:0:
325,41,101078,6,0,B|248:51|248:51|208:31|208:31|91:45,1,183.750001752377,0|0,3:0|0:0,0:0:0:0:
44,56,101478,1,0,3:0:0:0:
127,238,101678,1,0,0:0:0:0:
408,63,101878,5,2,3:1:0:0:
106,253,102078,1,2,0:1:0:0:
352,309,102278,1,2,3:1:0:0:
162,7,102478,1,2,0:1:0:0:
64,331,102678,6,0,B|112:345|149:326|149:326|184:308|246:321,1,183.750001752377,0|0,3:0|0:0,0:0:0:0:
333,347,103078,1,0,3:0:0:0:
302,156,103278,1,0,0:0:0:0:
489,245,103478,5,2,3:1:0:0:
104,150,103678,1,2,0:1:0:0:
371,39,103878,1,2,3:1:0:0:
447,347,104078,1,2,0:1:0:0:
295,142,104278,6,0,B|232:128|179:142|179:142|133:146|80:120,1,183.750001752377,0|0,3:0|0:0,0:0:0:0:
25,100,104678,1,0,3:0:0:0:
238,227,104878,1,0,0:0:0:0:
156,6,105078,5,2,3:1:0:0:
200,342,105278,1,2,0:1:0:0:
325,44,105478,1,2,3:1:0:0:
290,308,105678,1,2,0:1:0:0:
0,227,105878,6,0,P|73:228|134:126,1,183.750001752377,0|0,3:0|0:0,0:0:0:0:
107,34,106278,2,0,P|46:79|25:137,1,122.500001168251,0|0,3:0|0:0,0:0:0:0:
449,86,106678,5,2,3:1:0:0:
146,142,106878,1,2,0:1:0:0:
448,228,107078,1,2,3:1:0:0:
131,141,107278,1,2,0:1:0:0:
195,361,107478,6,0,P|219:294|206:232,1,122.500001168251,4|0,3:2|0:0,0:0:0:0:
139,42,107878,1,4,3:2:0:0:
56,305,108078,1,0,3:0:0:0:
56,305,108178,1,0,3:0:0:0:
56,305,108278,1,4,3:2:0:0:
393,257,108478,1,2,3:1:0:0:
111,40,108678,1,4,3:2:0:0:
449,11,108878,1,2,3:1:0:0:
264,152,109078,6,0,P|231:129|215:41,1,122.500001168251,4|0,3:1|0:0,0:0:0:0:
368,92,109378,1,0,0:0:0:0:
368,92,109478,2,0,P|401:115|417:203,1,122.500001168251,0|0,3:0|0:0,0:0:0:0:
343,369,109878,5,2,3:1:0:0:
187,193,110078,1,2,0:1:0:0:
169,369,110278,5,2,3:1:0:0:
325,193,110478,1,2,0:1:0:0:
74,133,110678,6,0,L|49:282,1,122.500001168251,0|0,3:0|0:0,0:0:0:0:
155,321,110978,1,0,0:0:0:0:
155,321,111078,1,0,3:0:0:0:
157,115,111278,1,0,0:0:0:0:
61,345,111478,5,2,3:1:0:0:
256,192,111678,1,2,0:1:0:0:
451,345,111878,1,2,3:1:0:0:
157,115,112078,1,2,0:1:0:0:
315,40,112278,6,0,P|374:27|435:56,1,122.500001168251,0|0,3:0|0:0,0:0:0:0:
487,135,112578,1,0,0:0:0:0:
487,135,112678,2,0,P|428:148|367:119,1,122.500001168251,0|0,3:0|0:0,0:0:0:0:
204,1,113078,5,2,3:1:0:0:
254,274,113278,1,2,0:1:0:0:
74,146,113478,1,2,3:1:0:0:
349,222,113678,1,2,0:1:0:0:
170,333,113878,6,0,B|121:337|121:337|44:304,1,122.500001168251,0|0,3:0|0:0,0:0:0:0:
156,245,114178,1,0,0:0:0:0:
156,245,114278,2,0,B|205:241|205:241|282:274,1,122.500001168251,0|0,3:0|0:0,0:0:0:0:
406,358,114678,5,2,3:1:0:0:
381,100,114878,1,2,0:1:0:0:
381,100,114978,1,0,3:0:0:0:
381,100,115078,1,2,3:1:0:0:
187,124,115278,1,2,0:1:0:0:
442,161,115478,6,0,P|470:100|447:42,1,122.500001168251,0|0,3:0|0:0,0:0:0:0:
315,39,115778,1,0,0:0:0:0:
315,39,115878,2,0,P|287:100|310:158,1,122.500001168251,0|0,3:0|0:0,0:0:0:0:
420,321,116278,5,2,3:1:0:0:
129,237,116478,1,2,0:1:0:0:
319,367,116678,1,2,3:1:0:0:
28,283,116878,1,2,0:1:0:0:
87,85,117078,6,0,B|118:98|151:87|151:87|216:98,1,122.500001168251,0|0,3:0|0:0,0:0:0:0:
314,183,117378,1,0,0:0:0:0:
314,183,117478,2,0,B|283:170|250:181|250:181|185:170,1,122.500001168251,0|0,3:0|0:0,0:0:0:0:
287,276,117878,5,2,3:1:0:0:
261,30,118078,1,2,0:1:0:0:
163,189,118278,1,2,3:1:0:0:
423,137,118478,1,2,0:1:0:0:
181,305,118678,6,0,L|16:276,1,122.500001168251,0|0,3:0|0:0,0:0:0:0:
16,212,118978,1,0,0:0:0:0:
16,212,119078,1,0,3:0:0:0:
52,371,119278,1,0,0:0:0:0:
156,67,119478,5,2,3:1:0:0:
187,316,119678,1,2,0:1:0:0:
356,67,119878,1,2,3:1:0:0:
325,316,120078,1,2,0:1:0:0:
99,139,120278,6,0,P|67:60|88:4,1,122.500001168251,4|0,3:2|0:0,0:0:0:0:
196,157,120578,1,0,0:0:0:0:
196,157,120678,2,0,P|143:224|84:234,1,122.500001168251,4|0,3:2|0:0,0:0:0:0:
11,170,121078,5,4,3:2:0:0:
469,257,121278,1,2,0:1:0:0:
10,191,121478,5,4,3:2:0:0:
468,104,121678,1,2,0:1:0:0:
256,360,121878,6,0,P|224:350|201:332,1,52.5000020027161,4|0,3:1|0:0,0:0:0:0:
137,310,122278,6,0,P|125:287|122:264,1,38.5000011749268,4|0,0:0|0:0,0:0:0:0:
87,191,122678,6,0,P|95:168|108:152,1,31.4999990386963,4|0,0:0|0:0,0:0:0:0:
137,73,123078,6,0,P|152:65|167:63,1,24.4999992523194,4|0,0:0|0:0,0:0:0:0:
256,23,123478,6,0,P|268:27|277:34,1,17.5,4|0,0:0|0:0,0:0:0:0:
374,73,123878,6,0,P|379:81|380:90,1,14,4|0,0:0|0:0,0:0:0:0:
424,192,124278,6,0,P|422:198|418:202,1,10.4999996795654,4|0,0:0|0:0,0:0:0:0:
374,310,124678,6,0,P|370:312|366:313,1,7,4|0,0:0|0:0,0:0:0:0:
