osu file format v14

[General]
AudioFilename: audio.mp3
AudioLeadIn: 0
PreviewTime: 24276
Countdown: 1
SampleSet: Soft
StackLeniency: 0.7
Mode: 0
LetterboxInBreaks: 0
WidescreenStoryboard: 0

[Editor]
Bookmarks: 14376,25176
DistanceSpacing: 1.2
BeatDivisor: 4
GridSize: 8
TimelineZoom: 1.8

[Metadata]
Title:Pragnienie Szypkosci
TitleUnicode:Pragnienie Szypkości
Artist:MADD
ArtistUnicode:MADD
Creator:XVoIR
Version:True Love
Source:
Tags:akcent pragnienie miłości bootleg
BeatmapID:1749328
BeatmapSetID:835217

[Difficulty]
HPDrainRate:5
CircleSize:2
OverallDifficulty:9
ApproachRate:9.6
SliderMultiplier:3.59999990463257
SliderTickRate:1

[Events]
//Background and Video events
0,0,"bg roku.jpg",0,0
//Break Periods
//Storyboard Layer 0 (Background)
//Storyboard Layer 1 (Fail)
//Storyboard Layer 2 (Pass)
//Storyboard Layer 3 (Foreground)
//Storyboard Sound Samples

[TimingPoints]
-24,300,4,2,0,100,1,0
4776,-133.333333333333,4,2,0,100,0,0
24276,-500,4,2,0,100,0,0
24501,-500,4,2,0,5,0,0
24576,-500,4,2,0,100,0,0
24801,-500,4,2,0,5,0,0
24876,-500,4,2,0,100,0,0
25101,-500,4,2,0,5,0,0
25176,-66.6666666666667,4,2,0,100,0,1
44376,-66.6666666666667,4,2,0,100,0,0

[Colours]
Combo1 : 161,151,154
Combo2 : 121,96,147
Combo3 : 82,164,171

[HitObjects]
256,192,51,12,0,4476,0:0:0:0:
56,80,4776,6,0,L|336:80,1,270.000003147125,4|0,3:1|3:0,0:0:0:0:
448,265,5226,1,0,0:0:0:0:
473,35,5376,2,0,B|448:96|448:96|448:168,1,135.000001573563,0|0,3:0|0:0,0:0:0:0:
313,338,5676,2,0,B|313:269|313:269|288:208,1,135.000001573563,0|0,3:0|0:0,0:0:0:0:
72,208,5976,5,0,3:0:0:0:
336,336,6126,1,0,0:0:0:0:
288,104,6276,5,0,3:0:0:0:
160,368,6426,1,0,0:0:0:0:
21,81,6576,5,0,3:0:0:0:
160,368,6726,2,0,B|176:336|176:336|176:288,1,67.5000007867814
256,264,6876,2,0,B|256:184|256:184|232:120,1,135.000001573563,0|0,3:0|0:0,0:0:0:0:
24,32,7176,6,0,L|304:32,1,270.000003147125,2|0,3:1|3:0,0:0:0:0:
472,96,7626,1,0,0:0:0:0:
296,160,7776,2,0,B|216:160|216:160|144:184,1,135.000001573563,0|0,3:0|0:0,0:0:0:0:
320,296,8076,2,0,B|372:278|372:278|452:278,1,135.000001573563,0|0,3:0|0:0,0:0:0:0:
232,336,8376,5,0,3:0:0:0:
304,48,8526,1,0,0:0:0:0:
362,279,8676,5,0,3:0:0:0:
304,48,8826,1,0,0:0:0:0:
112,152,8976,5,0,3:0:0:0:
408,112,9126,1,0,0:0:0:0:
328,368,9276,5,0,3:0:0:0:
392,16,9426,1,0,3:0:0:0:
432,304,9576,6,0,L|144:304,1,270.000003147125,2|0,3:1|3:0,0:0:0:0:
48,208,10026,1,0,0:0:0:0:
192,144,10176,2,0,B|232:88|232:88|232:8,1,135.000001573563,0|0,3:0|0:0,0:0:0:0:
48,208,10476,2,0,B|8:264|8:264|8:344,1,135.000001573563,0|0,3:0|0:0,0:0:0:0:
296,176,10776,5,0,3:0:0:0:
120,56,10926,1,0,0:0:0:0:
400,112,11076,5,0,3:0:0:0:
224,232,11226,1,0,0:0:0:0:
456,344,11376,5,0,3:0:0:0:
416,96,11526,1,0,0:0:0:0:
216,96,11676,5,0,3:0:0:0:
176,344,11826,1,0,0:0:0:0:
40,192,11976,6,0,L|312:192,1,270.000003147125,2|0,3:1|3:0,0:0:0:0:
488,192,12426,1,0,0:0:0:0:
336,352,12576,2,0,B|288:320|288:320|184:320,1,135.000001573563,0|0,3:0|0:0,0:0:0:0:
90,64,12876,2,0,B|138:96|138:96|242:96,1,135.000001573563,0|0,3:0|0:0,0:0:0:0:
512,96,13176,5,2,3:1:0:0:
461,96,13251,1,0,0:0:0:0:
410,96,13326,1,0,0:0:0:0:
360,96,13401,1,0,0:0:0:0:
309,96,13476,5,0,3:0:0:0:
344,344,13626,1,0,0:0:0:0:
202,237,13776,5,0,3:0:0:0:
450,202,13926,1,0,0:0:0:0:
123,158,14076,5,0,3:0:0:0:
450,202,14226,1,0,0:0:0:0:
112,336,14376,6,0,L|112:64,1,270.000003147125,4|0,3:1|3:0,0:0:0:0:
368,80,14826,1,0,0:0:0:0:
240,240,14976,2,0,B|200:184|200:184|200:104,1,135.000001573563,0|0,3:0|0:0,0:0:0:0:
448,312,15276,2,0,B|488:256|488:256|488:176,1,135.000001573563,0|0,3:0|0:0,0:0:0:0:
432,32,15576,5,0,3:0:0:0:
384,224,15726,1,0,0:0:0:0:
200,117,15876,5,0,3:0:0:0:
257,347,16026,1,0,0:0:0:0:
313,149,16176,5,0,3:0:0:0:
143,314,16326,1,0,0:0:0:0:
342,264,16476,5,0,3:0:0:0:
114,199,16626,1,0,0:0:0:0:
456,48,16776,6,0,L|456:320,1,270.000003147125,2|0,3:1|3:0,0:0:0:0:
313,149,17226,1,0,0:0:0:0:
304,352,17376,2,0,B|352:336|352:336|456:336,1,135.000001573563,0|0,3:0|0:0,0:0:0:0:
184,248,17676,2,0,B|136:232|136:232|32:232,1,135.000001573563,0|0,3:0|0:0,0:0:0:0:
112,344,17976,5,0,3:0:0:0:
152,88,18126,1,0,0:0:0:0:
112,344,18276,5,0,3:0:0:0:
200,72,18426,1,0,0:0:0:0:
112,344,18576,5,4,3:2:0:0:
248,64,18726,1,0,0:0:0:0:
112,344,18876,5,4,3:2:0:0:
360,48,19026,1,4,3:2:0:0:
496,224,19176,6,0,B|416:200|416:200|344:208|344:208|224:168,1,270.000003147125,4|0,3:1|3:0,0:0:0:0:
40,104,19626,1,0,0:0:0:0:
96,272,19776,2,0,B|144:264|144:264|248:304,1,135.000001573563,0|0,3:0|0:0,0:0:0:0:
464,272,20076,2,0,B|416:264|416:264|335:294,1,135.000001573563,0|0,3:0|0:0,0:0:0:0:
136,360,20376,5,4,3:2:0:0:
280,88,20526,1,0,0:0:0:0:
424,360,20676,5,0,3:0:0:0:
168,168,20826,1,0,0:0:0:0:
448,72,20976,5,0,3:0:0:0:
144,176,21126,1,0,0:0:0:0:
424,376,21276,5,0,3:0:0:0:
448,88,21426,1,0,0:0:0:0:
16,224,21576,6,0,B|96:200|96:200|168:208|168:208|288:168,1,270.000003147125,4|0,3:1|3:0,0:0:0:0:
304,40,22026,1,0,0:0:0:0:
216,216,22176,2,0,B|208:264|208:264|248:352,1,135.000001573563,4|0,3:2|0:0,0:0:0:0:
472,232,22476,2,0,B|480:184|480:184|440:96,1,135.000001573563,0|0,3:0|0:0,0:0:0:0:
136,80,22776,5,4,3:1:0:0:
444,105,22926,1,0,0:0:0:0:
104,282,23076,5,4,3:2:0:0:
374,50,23226,1,0,0:0:0:0:
235,367,23376,5,4,3:2:0:0:
261,23,23526,1,0,0:0:0:0:
395,366,23676,5,4,3:2:0:0:
100,23,23826,1,0,0:0:0:0:
56,368,23976,1,4,3:1:0:0:
443,154,24276,6,0,L|373:148,1,53.9999985694885,2|0,0:1|0:0,0:0:0:0:
249,203,24576,2,0,L|319:197,1,53.9999985694885,2|0,0:1|0:0,0:0:0:0:
387,241,24876,2,0,L|393:311,1,53.9999985694885,0|0,0:1|0:0,0:0:0:0:
163,334,25176,6,0,B|126:313|87:319|87:319|44:321|11:291,1,135.000001573563,4|0,3:1|0:0,0:0:0:0:
172,225,25326,2,0,B|209:204|248:210|248:210|291:212|324:182,1,135.000001573563,2|0,0:1|0:0,0:0:0:0:
387,143,25476,2,0,B|396:105|396:105|388:65|388:65|399:4,1,135.000001573563,0|0,3:0|0:0,0:0:0:0:
484,198,25626,2,0,B|493:236|493:236|485:276|485:276|496:337,1,135.000001573563,2|0,0:1|0:0,0:0:0:0:
294,334,25776,6,0,B|397:330|397:330|363:353,1,135.000001573563,0|0,3:0|0:0,0:0:0:0:
176,224,25926,2,0,B|202:241|202:241|99:237,1,135.000001573563,2|0,0:1|0:0,0:0:0:0:
50,135,26076,2,0,B|126:113|126:113|184:56,1,135.000001573563,0|0,3:0|0:0,0:0:0:0:
378,56,26226,2,0,B|302:78|302:78|244:135,1,135.000001573563,2|0,0:1|0:0,0:0:0:0:
382,275,26376,6,0,P|442:231|372:274,1,270.000003147125,4|2,3:2|0:1,0:0:0:0:
270,323,26601,1,0,0:0:0:0:
270,323,26676,2,0,B|212:339|212:339|99:313,1,135.000001573563,0|0,3:0|0:0,0:0:0:0:
88,173,26826,2,0,B|141:152|141:152|254:178,1,135.000001573563,2|0,0:1|0:0,0:0:0:0:
15,347,26976,6,0,L|2:202,1,135.000001573563,0|0,3:0|0:0,0:0:0:0:
88,173,27126,2,0,L|101:28,1,135.000001573563,2|0,0:1|0:0,0:0:0:0:
327,46,27276,2,0,B|224:65|224:65|263:89,1,135.000001573563,0|0,3:0|0:0,0:0:0:0:
325,193,27426,2,0,B|428:174|428:174|389:150,1,135.000001573563,2|0,0:1|0:0,0:0:0:0:
181,296,27576,6,0,B|271:278|271:278|328:288|328:288|462:265,1,270.000003147125,4|2,3:1|0:1,0:0:0:0:
478,86,27801,1,0,0:0:0:0:
478,86,27876,2,0,B|430:93|430:93|380:83|380:83|303:95,1,135.000001573563,0|0,3:0|0:0,0:0:0:0:
200,66,28026,2,0,B|142:49|142:49|92:59|92:59|15:47,1,135.000001573563,2|0,0:1|0:0,0:0:0:0:
43,265,28176,6,0,B|99:228|99:228|135:147,1,135.000001573563,0|0,3:0|0:0,0:0:0:0:
200,66,28326,2,0,B|222:123|222:123|278:160,1,135.000001573563,2|0,0:1|0:0,0:0:0:0:
428,187,28476,2,0,B|400:124|400:124|344:87,1,135.000001573563,0|0,3:0|0:0,0:0:0:0:
200,66,28626,2,0,B|144:103|144:103|116:165,1,135.000001573563,2|0,0:1|0:0,0:0:0:0:
204,328,28776,6,0,B|349:316|349:316|334:328|334:328|444:318,1,270.000003147125,4|2,3:2|0:1,0:0:0:0:
283,165,29001,1,0,0:0:0:0:
283,165,29076,2,0,B|266:217|266:217|280:304,1,135.000001573563,0|0,3:0|0:0,0:0:0:0:
428,187,29226,2,0,B|445:135|445:135|431:48,1,135.000001573563,2|0,0:1|0:0,0:0:0:0:
319,26,29376,6,0,B|295:37|257:31|257:31|253:43|253:43|221:31|180:58,1,135.000001573563,4|0,3:2|0:0,0:0:0:0:
54,168,29526,2,0,B|79:149|111:162|111:162|115:149|115:149|153:155|177:145,1,135.000001573563,2|0,0:1|0:0,0:0:0:0:
289,157,29676,1,0,3:0:0:0:
289,157,29751,1,0,0:0:0:0:
289,157,29826,1,2,0:1:0:0:
289,157,29901,1,0,0:0:0:0:
289,157,29976,6,0,P|333:256|211:250,1,270.000003147125,4|2,3:1|0:1,0:0:0:0:
117,188,30201,1,0,0:0:0:0:
117,188,30276,2,0,B|121:223|121:223|86:353,1,135.000001573563,0|0,3:0|0:0,0:0:0:0:
21,183,30426,2,0,B|-4:86|-4:86|0:51,1,135.000001573563,2|0,0:1|0:0,0:0:0:0:
203,23,30576,6,0,B|96:29|96:29|150:53,1,135.000001573563,0|0,3:0|0:0,0:0:0:0:
207,139,30726,2,0,B|314:145|314:145|260:169,1,135.000001573563,2|0,0:1|0:0,0:0:0:0:
214,256,30876,2,0,B|149:249|149:249|130:256|130:256|80:253,1,135.000001573563,0|0,3:0|0:0,0:0:0:0:
195,356,31026,2,0,B|259:349|259:349|278:356|278:356|328:353,1,135.000001573563,2|0,0:1|0:0,0:0:0:0:
442,344,31176,6,0,L|423:66,1,270.000003147125,4|2,3:2|0:1,0:0:0:0:
317,29,31401,1,0,0:0:0:0:
317,29,31476,2,0,B|209:59|209:59|158:40,1,135.000001573563,0|0,3:0|0:0,0:0:0:0:
169,144,31626,2,0,B|56:109|56:109|5:128,1,135.000001573563,2|0,0:1|0:0,0:0:0:0:
50,353,31776,6,0,L|73:203,1,135.000001573563,0|0,3:0|0:0,0:0:0:0:
169,144,31926,2,0,L|189:277,1,135.000001573563,2|0,0:1|0:0,0:0:0:0:
304,283,32076,2,0,L|327:133,1,135.000001573563,0|0,3:0|0:0,0:0:0:0:
423,74,32226,2,0,L|443:207,1,135.000001573563,2|0,0:1|0:0,0:0:0:0:
482,331,32376,6,0,B|399:308|342:321|342:321|322:307|322:307|248:327|177:283,1,270.000003147125,4|2,3:1|0:1,0:0:0:0:
57,269,32601,1,0,0:0:0:0:
57,269,32676,2,0,B|86:210|86:210|85:117,1,135.000001573563,0|0,3:0|0:0,0:0:0:0:
249,31,32826,2,0,B|220:90|220:90|221:183,1,135.000001573563,2|0,0:1|0:0,0:0:0:0:
355,353,32976,6,0,P|401:321|420:232,1,135.000001573563,4|0,3:2|0:0,0:0:0:0:
185,251,33126,2,0,P|139:283|120:372,1,135.000001573563,2|0,0:1|0:0,0:0:0:0:
360,169,33276,2,0,B|375:134|375:134|361:21,1,135.000001573563,0|0,3:0|0:0,0:0:0:0:
102,0,33426,2,0,B|87:35|87:35|101:148,1,135.000001573563,2|0,0:1|0:0,0:0:0:0:
249,31,33576,5,4,3:1:0:0:
156,326,33876,2,0,B|128:326|128:326|19:280,1,135.000001573563,0|0,3:0|0:0,0:0:0:0:
208,238,34026,2,0,B|236:238|236:238|351:281,1,135.000001573563,2|0,0:1|0:0,0:0:0:0:
487,335,34176,2,0,L|206:226,1,270.000003147125,0|2,3:0|0:1,0:0:0:0:
108,174,34401,1,0,0:0:0:0:
108,174,34476,2,0,L|389:65,1,270.000003147125,0|2,3:0|0:1,0:0:0:0:
462,36,34701,1,0,0:0:0:0:
462,36,34776,6,0,L|415:333,1,270.000003147125,4|2,3:1|0:1,0:0:0:0:
331,245,35001,1,0,0:0:0:0:
331,245,35076,2,0,P|296:219|200:243,1,135.000001573563,0|0,3:0|0:0,0:0:0:0:
140,308,35226,6,0,P|175:334|271:310,1,135.000001573563,2|0,0:1|0:0,0:0:0:0:
235,99,35376,6,0,L|208:245,1,135.000001573563,0|0,3:0|0:0,0:0:0:0:
331,245,35526,2,0,L|355:112,1,135.000001573563,2|0,0:1|0:0,0:0:0:0:
201,48,35676,2,0,L|156:295,1,135.000001573563,0|0,3:0|0:0,0:0:0:0:
364,295,35826,2,0,L|405:70,1,135.000001573563,2|0,0:1|0:0,0:0:0:0:
425,33,35976,6,0,B|323:53|323:53|243:37|243:37|106:63,1,270.000003147125,4|2,3:2|0:1,0:0:0:0:
26,83,36201,1,0,0:0:0:0:
26,83,36276,2,0,P|75:128|90:207,1,135.000001573563,0|0,3:0|0:0,0:0:0:0:
208,169,36426,2,0,P|210:235|165:301,1,135.000001573563,2|0,0:1|0:0,0:0:0:0:
12,344,36576,6,0,B|70:335|70:335|87:338|87:338|150:329,1,135.000001573563,0|0,3:0|0:0,0:0:0:0:
231,247,36726,2,0,B|289:256|289:256|306:253|306:253|369:262,1,135.000001573563,2|0,0:1|0:0,0:0:0:0:
477,349,36876,1,0,3:0:0:0:
477,349,36951,1,0,0:0:0:0:
477,349,37026,1,2,0:1:0:0:
477,349,37101,1,0,0:0:0:0:
477,349,37176,6,0,B|512:249|430:169|473:68,1,270.000003147125,4|2,3:1|0:1,0:0:0:0:
369,38,37401,1,0,0:0:0:0:
369,38,37476,2,0,B|314:49|284:43|284:43|250:35|198:52,1,135.000001573563,0|0,3:0|0:0,0:0:0:0:
33,117,37626,2,0,B|48:109|82:117|82:117|112:123|167:112,1,135.000001573563,2|0,0:1|0:0,0:0:0:0:
261,142,37776,6,0,B|266:178|266:178|241:274,1,135.000001573563,0|0,3:0|0:0,0:0:0:0:
120,376,37926,2,0,B|95:280|95:280|100:244,1,135.000001573563,2|0,0:1|0:0,0:0:0:0:
265,134,38076,2,0,B|270:172|270:172|244:274,1,135.000001573563,0|0,3:0|0:0,0:0:0:0:
115,383,38226,2,0,B|88:281|88:281|94:243,1,135.000001573563,2|0,0:1|0:0,0:0:0:0:
410,108,38376,6,0,P|387:213|245:265,1,270.000003147125,4|2,3:2|0:1,0:0:0:0:
111,156,38601,1,0,0:0:0:0:
111,156,38676,2,0,B|165:144|165:144|257:174,1,135.000001573563,0|0,3:0|0:0,0:0:0:0:
408,89,38826,2,0,B|354:101|354:101|262:71,1,135.000001573563,2|0,0:1|0:0,0:0:0:0:
485,19,38976,6,0,P|507:118|476:162,1,135.000001573563,4|0,3:2|0:0,0:0:0:0:
510,240,39126,2,0,P|413:209|390:160,1,135.000001573563,2|0,0:1|0:0,0:0:0:0:
305,158,39276,2,0,P|379:89|433:94,1,135.000001573563,0|0,3:0|0:0,0:0:0:0:
323,256,39426,2,0,P|248:324|194:319,1,135.000001573563,2|0,0:1|0:0,0:0:0:0:
13,170,39576,6,0,P|129:133|231:234,1,270.000003147125,4|2,3:1|0:1,0:0:0:0:
30,355,39801,1,0,0:0:0:0:
30,355,39876,2,0,P|89:263|116:244,1,135.000001573563,0|0,3:0|0:0,0:0:0:0:
228,225,40026,2,0,P|198:164|149:118,1,135.000001573563,2|0,0:1|0:0,0:0:0:0:
46,22,40176,6,0,B|90:30|117:25|117:25|141:20|217:38,1,135.000001573563,0|0,3:0|0:0,0:0:0:0:
396,79,40326,2,0,B|351:87|324:82|324:82|300:77|261:87,1,135.000001573563,2|0,0:1|0:0,0:0:0:0:
434,170,40476,2,0,P|488:113|479:38,1,135.000001573563,0|0,3:0|0:0,0:0:0:0:
342,186,40626,2,0,P|347:251|396:296,1,135.000001573563,2|0,0:1|0:0,0:0:0:0:
494,273,40776,6,0,B|384:281|384:281|340:263|340:263|226:273,1,270.000003147125,4|2,3:2|0:1,0:0:0:0:
108,287,41001,1,0,0:0:0:0:
108,287,41076,2,0,P|124:226|103:147,1,135.000001573563,0|0,3:0|0:0,0:0:0:0:
214,28,41226,2,0,P|198:89|219:168,1,135.000001573563,2|0,0:1|0:0,0:0:0:0:
361,259,41376,6,0,B|332:255|332:255|227:272,1,135.000001573563,0|0,3:0|0:0,0:0:0:0:
349,360,41526,2,0,B|378:364|378:364|483:347,1,135.000001573563,2|0,0:1|0:0,0:0:0:0:
494,95,41676,2,0,B|482:157|482:157|486:169|471:244,1,135.000001573563,0|0,3:0|0:0,0:0:0:0:
344,149,41826,2,0,B|356:87|356:87|352:75|367:0,1,135.000001573563,2|0,0:1|0:0,0:0:0:0:
246,66,41976,6,0,B|203:94|132:58|132:58|101:39|34:23|-31:83,1,270.000003147125,4|2,3:1|0:1,0:0:0:0:
42,272,42201,1,0,0:0:0:0:
42,272,42276,2,0,P|66:223|67:133,1,135.000001573563,0|0,3:0|0:0,0:0:0:0:
218,73,42426,2,0,P|218:140|245:201,1,135.000001573563,2|0,0:1|0:0,0:0:0:0:
376,225,42576,6,0,B|324:271|324:271|302:356,1,135.000001573563,4|0,3:2|0:0,0:0:0:0:
488,223,42726,2,0,B|471:159|471:159|419:113,1,135.000001573563,2|0,0:1|0:0,0:0:0:0:
253,37,42876,2,0,L|84:86,1,135.000001573563,0|0,3:0|0:0,0:0:0:0:
115,238,43026,2,0,L|244:200,1,135.000001573563,2|0,0:1|0:0,0:0:0:0:
36,152,43176,5,4,3:1:0:0:
376,225,43326,1,4,0:1:0:0:
23,255,43476,5,0,3:0:0:0:
418,113,43626,1,4,0:1:0:0:
152,32,43776,5,0,3:0:0:0:
255,352,43926,1,4,0:1:0:0:
360,32,44076,5,0,3:0:0:0:
255,376,44226,1,4,0:1:0:0:
