osu file format v14

[General]
AudioFilename: audio.mp3
AudioLeadIn: 0
PreviewTime: 24276
Countdown: 1
SampleSet: Soft
StackLeniency: 0.7
Mode: 0
LetterboxInBreaks: 0
WidescreenStoryboard: 1

[Editor]
Bookmarks: 14376,25176
DistanceSpacing: 1
BeatDivisor: 4
GridSize: 8
TimelineZoom: 1.8

[Metadata]
Title:Pragnienie Szypkosci
TitleUnicode:Pragnienie Szypkości
Artist:MADD
ArtistUnicode:MADD
Creator:XVoIR
Version:Hard Love
Source:
Tags:akcent pragnienie miłości bootleg
BeatmapID:1769777
BeatmapSetID:835217

[Difficulty]
HPDrainRate:4
CircleSize:3
OverallDifficulty:5.5
ApproachRate:7
SliderMultiplier:1.49999990463257
SliderTickRate:1

[Events]
//Background and Video events
0,0,"bg roku.jpg",0,0
//Break Periods
//Storyboard Layer 0 (Background)
//Storyboard Layer 1 (Fail)
//Storyboard Layer 2 (Pass)
//Storyboard Layer 3 (Foreground)
//Storyboard Sound Samples

[TimingPoints]
-24,300,4,2,0,100,1,0
4776,-133.333333333333,4,2,0,100,0,0
24276,-500,4,2,0,100,0,0
24501,-500,4,2,0,5,0,0
24576,-500,4,2,0,100,0,0
24801,-500,4,2,0,5,0,0
24876,-500,4,2,0,100,0,0
25101,-500,4,2,0,5,0,0
25176,-86.9565217391304,4,2,0,100,0,1
44376,-66.6666666666667,4,2,0,100,0,0

[Colours]
Combo1 : 161,151,154
Combo2 : 121,96,147
Combo3 : 82,164,171

[HitObjects]
256,192,51,12,0,4176,0:0:0:0:
210,68,4776,6,0,L|78:82,1,112.499997138977,4|0,3:1|3:0,0:0:0:0:
35,135,5226,1,0,0:0:0:0:
97,191,5376,2,0,P|116:234|119:258,1,56.2499985694885,0|0,3:0|0:0,0:0:0:0:
201,246,5676,2,0,P|208:218|221:194,1,56.2499985694885,0|0,3:0|0:0,0:0:0:0:
298,158,5976,6,0,B|349:166|349:166|369:162|369:162|423:170,1,112.499997138977,0|0,3:0|3:0,0:0:0:0:
492,177,6426,1,0,0:0:0:0:
506,260,6576,2,0,P|495:287|475:307,1,56.2499985694885,0|0,3:0|0:0,0:0:0:0:
409,359,6876,2,0,P|380:362|352:355,1,56.2499985694885,0|0,3:0|0:0,0:0:0:0:
282,312,7176,6,0,P|224:290|166:312,1,112.499997138977,2|0,3:1|3:0,0:0:0:0:
106,350,7626,1,0,0:0:0:0:
60,278,7776,2,0,P|49:240|46:211,1,56.2499985694885,0|0,3:0|0:0,0:0:0:0:
88,150,8076,1,0,3:0:0:0:
88,150,8226,1,0,0:0:0:0:
161,192,8376,6,0,P|211:189|229:182,1,56.2499985694885,0|0,3:0|0:0,0:0:0:0:
298,164,8676,2,0,L|305:98,1,56.2499985694885,0|0,3:0|0:0,0:0:0:0:
328,27,8976,2,0,P|278:30|260:37,1,56.2499985694885,0|0,3:0|0:0,0:0:0:0:
192,56,9276,2,0,P|142:53|124:46,1,56.2499985694885,0|0,3:0|3:0,0:0:0:0:
53,31,9576,6,0,P|71:63|66:148,1,112.499997138977,2|0,3:1|3:0,0:0:0:0:
33,213,10026,1,0,0:0:0:0:
96,268,10176,2,0,P|153:259|201:225,1,112.499997138977,0|0,3:0|3:0,0:0:0:0:
254,165,10626,1,0,0:0:0:0:
336,183,10776,6,0,P|350:215|351:247,1,56.2499985694885,0|0,3:0|0:0,0:0:0:0:
428,271,11076,2,0,P|415:303|393:326,1,56.2499985694885,0|0,3:0|0:0,0:0:0:0:
330,366,11376,2,0,L|265:348,1,56.2499985694885,0|0,3:0|0:0,0:0:0:0:
194,329,11676,1,0,3:0:0:0:
112,307,11826,1,0,0:0:0:0:
34,273,11976,6,0,P|62:236|135:222,1,112.499997138977,2|0,3:1|3:0,0:0:0:0:
207,225,12426,1,0,0:0:0:0:
290,236,12576,2,0,P|317:222|348:142,1,112.499997138977,0|0,3:0|3:0,0:0:0:0:
338,66,13026,1,0,0:0:0:0:
419,42,13176,6,0,L|491:52,1,56.2499985694885,2|0,3:1|0:0,0:0:0:0:
457,132,13476,2,0,L|500:189,1,56.2499985694885,0|0,3:0|0:0,0:0:0:0:
439,243,13776,2,0,P|452:298|451:322,1,56.2499985694885,0|0,3:0|0:0,0:0:0:0:
375,333,14076,2,0,P|345:381|327:397,1,56.2499985694885,0|0,3:0|0:0,0:0:0:0:
291,316,14376,6,0,P|246:289|177:290,1,112.499997138977,4|0,3:1|3:0,0:0:0:0:
106,314,14826,1,0,0:0:0:0:
80,233,14976,2,0,P|76:193|96:111,1,112.499997138977,0|0,3:0|3:0,0:0:0:0:
136,51,15426,1,0,0:0:0:0:
195,111,15576,6,0,P|231:115|272:109,1,56.2499985694885,0|0,3:0|0:0,0:0:0:0:
326,151,15876,2,0,P|304:180|289:218,1,56.2499985694885,0|0,3:0|0:0,0:0:0:0:
225,245,16176,2,0,P|210:211|184:179,1,56.2499985694885,0|0,3:0|0:0,0:0:0:0:
123,159,16476,1,0,3:0:0:0:
78,230,16626,1,0,0:0:0:0:
103,310,16776,6,0,B|145:333|185:324|185:324|227:335,1,112.499997138977,2|0,3:1|3:0,0:0:0:0:
256,256,17226,1,0,0:0:0:0:
300,330,17376,2,0,B|327:324|327:324|367:333|409:310,1,112.499997138977,0|0,3:0|3:0,0:0:0:0:
485,273,17826,1,0,0:0:0:0:
416,223,17976,6,0,P|407:185|407:142,1,56.2499985694885,0|0,3:0|0:0,0:0:0:0:
348,105,18276,2,0,P|368:71|398:41,1,56.2499985694885,0|0,3:0|0:0,0:0:0:0:
464,64,18576,2,0,P|408:60|353:28,1,112.499997138977,4|4,3:2|3:2,0:0:0:0:
274,23,19026,1,4,3:2:0:0:
190,33,19176,6,0,P|140:59|85:63,1,112.499997138977,4|0,3:1|3:0,0:0:0:0:
1,52,19626,1,0,0:0:0:0:
29,131,19776,2,0,P|44:182|44:196,1,56.2499985694885,0|0,3:0|0:0,0:0:0:0:
124,208,20076,2,0,P|98:254|88:264,1,56.2499985694885,0|0,3:0|0:0,0:0:0:0:
32,311,20376,6,0,P|81:313|152:361,1,112.499997138977,4|0,3:2|3:0,0:0:0:0:
213,310,20826,1,0,0:0:0:0:
293,335,20976,2,0,P|327:337|360:328,1,56.2499985694885,0|0,3:0|0:0,0:0:0:0:
430,353,21276,2,0,P|455:330|472:300,1,56.2499985694885,0|0,3:0|0:0,0:0:0:0:
417,242,21576,6,0,L|392:105,1,112.499997138977,4|0,3:1|3:0,0:0:0:0:
336,71,22026,1,0,0:0:0:0:
274,128,22176,6,0,L|249:265,1,112.499997138977,4|0,3:2|3:0,0:0:0:0:
193,299,22626,1,0,0:0:0:0:
126,246,22776,6,0,L|56:237,1,56.2499985694885,4|0,3:1|0:0,0:0:0:0:
179,154,23076,2,0,L|249:145,1,56.2499985694885,4|0,3:2|0:0,0:0:0:0:
78,114,23376,6,0,L|8:105,1,56.2499985694885,4|0,3:2|0:0,0:0:0:0:
131,22,23676,2,0,L|201:13,1,56.2499985694885,4|0,3:2|0:0,0:0:0:0:
271,5,23976,1,4,3:1:0:0:
273,8,25176,6,0,L|301:205,1,172.499992322922,4|0,3:1|3:0,0:0:0:0:
270,261,25626,1,2,0:1:0:0:
185,276,25776,2,0,P|157:268|120:211,1,86.2499961614609,0|2,3:0|0:1,0:0:0:0:
36,223,26076,2,0,P|21:197|36:131,1,86.2499961614609,0|2,3:0|0:1,0:0:0:0:
90,82,26376,6,0,P|132:67|276:105,1,172.499992322922,4|0,3:2|3:0,0:0:0:0:
330,130,26826,1,2,0:1:0:0:
412,104,26976,2,0,L|427:7,1,86.2499961614609,0|2,3:0|0:1,0:0:0:0:
330,130,27276,2,0,L|345:227,1,86.2499961614609,0|2,3:0|0:1,0:0:0:0:
357,300,27576,6,0,B|316:316|272:300|272:300|226:278|185:299,1,172.499992322922,4|0,3:1|3:0,0:0:0:0:
113,338,28026,1,2,0:1:0:0:
70,262,28176,2,0,P|62:211|71:160,1,86.2499961614609,0|2,3:0|0:1,0:0:0:0:
152,173,28476,2,0,P|160:122|151:71,1,86.2499961614609,0|2,3:0|0:1,0:0:0:0:
79,47,28776,6,0,P|135:67|268:28,1,172.499992322922,4|0,3:2|3:0,0:0:0:0:
321,81,29226,1,2,0:1:0:0:
382,141,29376,2,0,P|396:194|367:257,1,86.2499961614609,4|2,3:2|0:1,0:0:0:0:
303,232,29676,2,0,P|289:285|318:348,1,86.2499961614609,0|2,3:0|0:1,0:0:0:0:
377,343,29976,6,0,L|170:331,1,172.499992322922,4|0,3:1|3:0,0:0:0:0:
118,331,30426,1,2,0:1:0:0:
72,257,30576,1,0,3:0:0:0:
118,184,30726,2,0,B|138:146|138:146|143:99,2,86.2499961614609,2|0|2,0:1|3:0|0:1,0:0:0:0:
35,160,31176,6,0,P|41:223|162:261,1,172.499992322922,4|0,3:2|3:0,0:0:0:0:
209,235,31626,1,2,0:1:0:0:
294,242,31776,2,0,P|349:244|399:222,1,86.2499961614609,0|2,3:0|0:1,0:0:0:0:
450,280,32076,2,0,P|490:242|510:191,1,86.2499961614609,0|2,3:0|0:1,0:0:0:0:
466,136,32376,6,0,B|400:110|400:110|365:113|365:113|304:89,1,172.499992322922,4|0,3:1|3:0,0:0:0:0:
224,55,32826,1,2,0:1:0:0:
138,40,32976,2,0,L|27:49,2,86.2499961614609,4|2|0,3:2|0:1|3:0,0:0:0:0:
166,121,33426,1,2,0:1:0:0:
174,206,33576,6,0,L|187:383,1,172.499992322922,4|0,3:1|3:0,0:0:0:0:
266,345,34026,1,2,0:1:0:0:
345,312,34176,2,0,P|397:299|461:310,1,86.2499961614609,0|2,3:0|0:1,0:0:0:0:
504,215,34476,2,0,P|461:215|419:203,1,86.2499961614609,0|2,3:0|0:1,0:0:0:0:
336,178,34776,6,0,P|310:126|386:31,2,172.499992322922,4|0|0,3:1|3:0|3:0,0:0:0:0:
413,217,35526,1,2,0:1:0:0:
342,266,35676,2,0,P|294:273|243:260,1,86.2499961614609,0|2,3:0|0:1,0:0:0:0:
183,221,35976,6,0,P|145:199|20:248,1,172.499992322922,4|0,3:2|3:0,0:0:0:0:
32,319,36426,1,2,0:1:0:0:
111,353,36576,2,0,P|139:350|195:317,1,86.2499961614609,0|2,3:0|0:1,0:0:0:0:
257,265,36876,2,0,P|274:243|290:180,1,86.2499961614609,0|2,3:0|0:1,0:0:0:0:
265,104,37176,6,0,L|79:79,1,172.499992322922,4|0,3:1|3:0,0:0:0:0:
26,134,37626,1,2,0:1:0:0:
75,204,37776,2,0,P|123:186|173:183,1,86.2499961614609,0|2,3:0|0:1,0:0:0:0:
233,223,38076,2,0,P|275:217|315:201,1,86.2499961614609,0|2,3:0|0:1,0:0:0:0:
395,169,38376,6,0,B|415:117|415:117|395:-12,1,172.499992322922,4|0,3:2|3:0,0:0:0:0:
317,36,38826,1,2,0:1:0:0:
231,49,38976,2,0,P|187:45|144:19,2,86.2499961614609,4|2|0,3:2|0:1|3:0,0:0:0:0:
285,115,39426,1,2,0:1:0:0:
229,180,39576,6,0,B|190:209|152:191|152:191|112:171|65:200,1,172.499992322922,4|0,3:1|3:0,0:0:0:0:
41,282,40026,1,2,0:1:0:0:
101,343,40176,2,0,P|143:338|179:314,1,86.2499961614609,0|2,3:0|0:1,0:0:0:0:
257,350,40476,2,0,P|283:316|291:274,1,86.2499961614609,0|2,3:0|0:1,0:0:0:0:
376,256,40776,6,0,P|365:171|317:100,1,172.499992322922,4|0,3:2|3:0,0:0:0:0:
250,45,41226,2,0,L|154:60,2,86.2499961614609,2|0|2,0:1|3:0|0:1,0:0:0:0:
331,15,41676,2,0,P|393:13|447:25,1,86.2499961614609,0|2,3:0|0:1,0:0:0:0:
433,100,41976,6,0,P|385:171|375:255,1,172.499992322922,4|0,3:1|3:0,0:0:0:0:
400,338,42426,1,2,0:1:0:0:
316,358,42576,2,0,P|263:362|232:347,1,86.2499961614609,4|2,3:2|0:1,0:0:0:0:
180,280,42876,2,0,P|140:264|97:270,1,86.2499961614609,0|2,3:0|0:1,0:0:0:0:
14,295,43176,6,0,L|-3:183,1,86.2499961614609,4|4,3:1|0:2,0:0:0:0:
106,84,43476,2,0,L|89:196,1,86.2499961614609,0|4,3:0|0:2,0:0:0:0:
177,190,43776,5,0,3:0:0:0:
263,186,43926,1,4,0:2:0:0:
343,156,44076,1,0,3:0:0:0:
404,95,44226,1,4,0:2:0:0:
